<?xml version="1.0" standalone="no"?>
<!DOCTYPE svg PUBLIC "-//W3C//DTD SVG 1.1//EN" "http://www.w3.org/Graphics/SVG/1.1/DTD/svg11.dtd" >
<svg xmlns="http://www.w3.org/2000/svg">
<metadata></metadata>
<defs>
<font id="dhroman" horiz-adv-x="1138" >
<font-face units-per-em="2048" ascent="1638" descent="-410" />
<missing-glyph horiz-adv-x="569" />
<glyph horiz-adv-x="0" />
<glyph unicode="&#xd;" horiz-adv-x="0" />
<glyph unicode=" "  horiz-adv-x="569" />
<glyph unicode="&#x09;" horiz-adv-x="569" />
<glyph unicode="&#xa0;" horiz-adv-x="569" />
<glyph unicode="!" horiz-adv-x="569" d="M162 111q0 51 36 86.5t87 35.5t87 -35.5t36 -86.5t-38 -87t-85 -36t-85 35.5t-38 87.5zM199 406v1044h172v-1044h-172z" />
<glyph unicode="&#x22;" horiz-adv-x="1062" d="M307 958v492h148v-492h-148zM608 958v492h148v-492h-148z" />
<glyph unicode="#" d="M61 436v135h222l41 312h-201v135h221l62 432h137l-62 -432h258l62 432h137l-61 -432h200v-135h-219l-43 -312h201v-135h-221l-62 -436h-137l61 436h-258l-61 -436h-137l61 436h-201zM420 571h258l43 312h-258z" />
<glyph unicode="$" d="M86 166l143 125q45 -70 126 -111t169 -45v520q-80 20 -153.5 54t-130 83.5t-89 118t-32.5 160.5q0 86 32.5 157.5t89 124t130 84t153.5 38.5v135h99v-135q111 0 218 -41t179 -125l-135 -123q-47 61 -115 95t-147 34v-510q82 -27 159.5 -57.5t138 -76.5t96.5 -114t36 -168 q0 -92 -35 -165.5t-93.5 -127t-136 -84t-165.5 -37.5v-145h-99v145q-129 0 -244.5 43t-193.5 148zM303 1069q0 -53 17.5 -90t47 -63.5t69.5 -46t87 -38.5v484q-100 -18 -160.5 -83t-60.5 -163zM623 135q104 12 174.5 80t70.5 166q0 55 -20.5 96t-55 69.5t-78.5 48t-91 34.5 v-494z" />
<glyph unicode="%" horiz-adv-x="1705" d="M78 1116q0 76 27.5 141.5t75.5 113.5t113.5 76t141.5 28t141.5 -28t113.5 -76t76 -113.5t28 -141.5t-28 -141.5t-76 -113.5t-113.5 -75.5t-141.5 -27.5t-141.5 27.5t-113.5 75.5t-75.5 113.5t-27.5 141.5zM225 1116q0 -43 17.5 -81t46 -67.5t66.5 -46t81 -16.5t81 16.5 t66.5 46t46 67.5t17.5 81t-17.5 81t-46 67.5t-66.5 46t-81 16.5t-81 -16.5t-66.5 -46t-46 -67.5t-17.5 -81zM348 0l909 1516l113 -66l-909 -1516zM911 334q0 76 28 141.5t76 113.5t113.5 75.5t141.5 27.5t141.5 -27.5t113.5 -75.5t75.5 -113.5t27.5 -141.5t-27.5 -141.5 t-75.5 -113.5t-113.5 -76t-141.5 -28t-141.5 28t-113.5 76t-76 113.5t-28 141.5zM1059 334q0 -43 17.5 -81t46 -67.5t66.5 -46t81 -16.5t81 16.5t66.5 46t46 67.5t17.5 81t-17.5 81t-46 67.5t-66.5 46t-81 16.5t-81 -16.5t-66.5 -46t-46 -67.5t-17.5 -81z" />
<glyph unicode="&#x26;" horiz-adv-x="1478" d="M123 389q0 76 25.5 140.5t69.5 116.5t102.5 92t123.5 71q-72 72 -123 151.5t-51 184.5q0 80 31 142.5t82 104.5t118.5 63.5t143.5 21.5q74 0 139.5 -20.5t115.5 -60.5t79 -100.5t29 -140.5q0 -68 -28 -124t-72 -100t-98 -80t-110 -65l308 -325l194 325h195l-279 -446 l332 -340h-236l-196 209q-88 -111 -188.5 -172.5t-245.5 -61.5q-92 0 -176 28t-146.5 81t-100.5 130t-38 175zM295 395q0 -59 22.5 -108t61.5 -86t90 -57.5t109 -20.5q55 0 102 16.5t87 44t76 63.5t70 77l-362 381q-47 -25 -92 -54.5t-82 -66.5t-59.5 -84t-22.5 -105z M442 1135q0 -59 32 -105.5t69 -85.5l51 -53q41 23 84 47.5t78 55t57.5 71.5t22.5 94q0 80 -54.5 125t-130.5 45q-86 0 -147.5 -52t-61.5 -142z" />
<glyph unicode="'" horiz-adv-x="569" d="M211 958v492h147v-492h-147z" />
<glyph unicode="(" horiz-adv-x="569" d="M113 590q0 254 78.5 485.5t220.5 423.5l110 -82q-131 -180 -196.5 -391t-65.5 -436q0 -123 16.5 -229.5t49 -206t82 -195.5t114.5 -201l-110 -77q-147 203 -223 438t-76 471z" />
<glyph unicode=")" horiz-adv-x="569" d="M47 -238q131 180 196.5 391.5t65.5 436.5q0 123 -16.5 229.5t-49 205.5t-81.5 195.5t-115 200.5l111 78q147 -203 223 -438.5t76 -470.5q0 -254 -79 -485.5t-220 -423.5z" />
<glyph unicode="*" horiz-adv-x="909" d="M63 1124l39 119l291 -98v305h123v-305l291 98l39 -119l-289 -98l182 -244l-100 -77l-184 251l-179 -251l-102 77l178 244z" />
<glyph unicode="+" horiz-adv-x="1363" d="M147 553v135h467v467h136v-467h467v-135h-467v-467h-136v467h-467z" />
<glyph unicode="," horiz-adv-x="569" d="M106 -283l140 492h186l-168 -492h-158z" />
<glyph unicode="-" horiz-adv-x="681" d="M90 418v147h502v-147h-502z" />
<glyph unicode="." horiz-adv-x="569" d="M162 111q0 51 36 86.5t87 35.5t87 -35.5t36 -86.5t-38 -87t-85 -36t-85 35.5t-38 87.5z" />
<glyph unicode="/" horiz-adv-x="757" d="M6 -37l617 1573l129 -49l-617 -1575z" />
<glyph unicode="0" d="M78 725q0 123 20.5 256t75.5 242.5t150.5 180.5t244.5 71q150 0 245 -71t150.5 -180.5t76 -242.5t20.5 -256t-20.5 -256t-76 -242.5t-150.5 -180.5t-245 -71t-245 71t-150 180.5t-75.5 242.5t-20.5 256zM250 725q0 -53 4 -118.5t15.5 -132t33 -130t57 -113t87 -79 t122.5 -29.5q72 0 123 29.5t87 79t57.5 113t33 130t15.5 132t4 118.5t-4 118.5t-15.5 132t-33 130t-57.5 113t-87 79t-123 29.5t-123 -29.5t-86.5 -79t-57 -113t-33 -130t-15.5 -132t-4 -118.5z" />
<glyph unicode="1" d="M199 1135l389 315h149v-1450h-172v1229h-4l-260 -219z" />
<glyph unicode="2" d="M102 0v197l547 532q51 49 90 91t64.5 82t38 83t12.5 96q0 57 -20.5 102.5t-56.5 77t-84 49t-103 17.5q-111 0 -182.5 -63.5t-92.5 -167.5l-186 16q14 88 54 156.5t100.5 113.5t136.5 69t164 24q90 0 170 -26t140 -75t96 -122.5t36 -170.5q0 -86 -23.5 -155.5t-63.5 -128 t-90 -110.5t-106 -103l-446 -420v-4h739v-160h-934z" />
<glyph unicode="3" d="M76 281l174 57q37 -117 104.5 -166t188.5 -49q61 0 114.5 20.5t93.5 58.5t63.5 90t23.5 116q0 80 -32 134t-84 85.5t-117.5 46t-133.5 14.5h-53v148h53q53 0 111.5 8t106.5 34.5t80 77t32 131.5q0 111 -68.5 175.5t-179.5 64.5q-92 0 -159.5 -41t-106.5 -121l-166 64 q53 123 166.5 184.5t253.5 61.5q86 0 164.5 -25t138 -72t94.5 -117.5t35 -164.5q0 -115 -68.5 -206t-179.5 -126v-4q70 -12 124 -45t93 -81t59.5 -109.5t20.5 -129.5q0 -104 -39 -182t-104.5 -131t-152.5 -80t-183 -27q-166 0 -289 72t-178 234z" />
<glyph unicode="4" d="M72 332v190l575 928h211v-958h209v-160h-209v-332h-172v332h-614zM219 492h467v757h-4z" />
<glyph unicode="5" d="M96 240l172 65q37 -82 107.5 -132t163.5 -50q66 0 122 23.5t98 67.5t66.5 105.5t24.5 137.5q0 80 -27.5 141t-76 103t-114 63.5t-140.5 21.5q-74 0 -152 -25.5t-143 -64.5l14 754h760v-160h-592l-6 -391q41 20 91 27.5t95 7.5q104 0 189.5 -36t146.5 -100.5t94 -151.5 t33 -189q0 -109 -38 -198t-104.5 -151.5t-157.5 -97.5t-198 -35q-166 0 -267 72t-161 193z" />
<glyph unicode="6" d="M84 430q0 125 39 219t98 189l385 612h201l-389 -604l4 -4q41 23 95 33t99 10q94 0 175 -33t139.5 -93.5t91.5 -144.5t33 -184q0 -106 -37 -190t-102.5 -142.5t-154.5 -90.5t-192 -32q-102 0 -191 32t-154.5 90.5t-102.5 142.5t-37 190zM256 430q0 -72 24.5 -128t66.5 -96 t99.5 -61.5t122.5 -21.5q66 0 123.5 21.5t99.5 61.5t66.5 96t24.5 128q0 70 -24.5 127t-66.5 97t-99.5 61.5t-123.5 21.5t-123 -21.5t-99 -61.5t-66.5 -97t-24.5 -127z" />
<glyph unicode="7" d="M98 1290v160h885v-160l-580 -1290h-194l590 1290h-701z" />
<glyph unicode="8" d="M106 399q0 68 20.5 130.5t57.5 111.5t90.5 83t118.5 48v4q-55 14 -99 47t-75 76t-47 94.5t-16 102.5q0 86 31.5 155.5t87 118.5t131 77t163.5 28t164 -28t131.5 -77t87 -118.5t31.5 -155.5q0 -51 -16.5 -102.5t-47 -94.5t-74.5 -75.5t-100 -47.5v-4q66 -14 119.5 -48 t90 -83t57 -111.5t20.5 -130.5q0 -98 -35.5 -177t-98 -134t-147.5 -84t-182 -29q-96 0 -181 29t-147.5 84t-98.5 134t-36 177zM279 412q0 -63 22.5 -116.5t62 -91.5t92 -59.5t113.5 -21.5t113.5 21.5t92.5 59.5t62.5 91t22.5 117q0 63 -22.5 116.5t-62.5 91t-92 59 t-114 21.5q-61 0 -113.5 -21.5t-92 -59t-62 -91t-22.5 -116.5zM328 1087q0 -104 66.5 -171.5t174.5 -67.5q109 0 175.5 67.5t66.5 171.5t-66.5 172t-175.5 68t-175 -68t-66 -172z" />
<glyph unicode="9" d="M84 1020q0 106 37 190t102.5 142.5t154.5 90.5t191 32t191.5 -32t155 -90.5t102.5 -142.5t37 -190q0 -63 -10.5 -116.5t-29 -102.5t-44 -95.5t-53.5 -93.5l-386 -612h-200l389 604l-4 4q-41 -23 -95.5 -33t-99.5 -10q-94 0 -175 33t-139 93.5t-91 143.5t-33 185z M256 1020q0 -72 24.5 -128t66.5 -96t99 -61.5t123 -21.5t123.5 21.5t99.5 61.5t66.5 96t24.5 128q0 70 -24.5 127t-66.5 97t-99.5 61.5t-123.5 21.5t-123 -21.5t-99 -61.5t-66.5 -97t-24.5 -127z" />
<glyph unicode=":" horiz-adv-x="569" d="M162 111q0 51 36 86.5t87 35.5t87 -35.5t36 -86.5t-38 -87t-85 -36t-85 35.5t-38 87.5zM162 860q0 51 36 87t87 36t87 -36t36 -87t-38 -87t-85 -36t-85 36t-38 87z" />
<glyph unicode=";" horiz-adv-x="569" d="M106 -283l140 492h186l-168 -492h-158zM162 860q0 51 36 87t87 36t87 -36t36 -87t-38 -87t-85 -36t-85 36t-38 87z" />
<glyph unicode="&#x3c;" horiz-adv-x="1363" d="M147 561v119l1070 475v-135l-904 -399l904 -400v-135z" />
<glyph unicode="=" horiz-adv-x="1363" d="M147 393v135h1070v-135h-1070zM147 713v135h1070v-135h-1070z" />
<glyph unicode="&#x3e;" horiz-adv-x="1363" d="M147 86v135l904 400l-904 399v135l1070 -475v-119z" />
<glyph unicode="?" horiz-adv-x="987" d="M55 1137q14 84 52 149.5t95.5 109.5t131.5 67.5t158 23.5t156.5 -23.5t126.5 -69.5t85 -115t31 -157q0 -68 -19.5 -122t-51.5 -100t-75 -88t-88 -85q-33 -31 -52 -53.5t-29.5 -47t-13.5 -54t-3 -72.5v-94h-172v129q0 57 7 94t23.5 66.5t43 58t67.5 69.5q31 33 63 65 t57.5 66.5t42 73.5t16.5 88q0 98 -57.5 160.5t-160.5 62.5q-104 0 -168.5 -61t-80.5 -162zM350 111q0 51 36 86.5t87 35.5t87 -35.5t36 -86.5t-38 -87t-85 -36t-85 35.5t-38 87.5z" />
<glyph unicode="@" horiz-adv-x="1638" d="M90 725q0 160 60.5 299t165 241.5t243.5 162t297 59.5q141 0 266 -46t220.5 -129t150.5 -199t55 -253q0 -133 -48 -241.5t-119.5 -186.5t-155.5 -121t-156 -43q-53 0 -90 33t-41 102h-4q-47 -55 -106.5 -95t-149.5 -40q-66 0 -119 24.5t-91 67.5t-58.5 100.5t-20.5 125.5 q0 106 34 210.5t96.5 186.5t150.5 132t196 50q72 0 132.5 -37.5t95.5 -130.5h4l37 129h133l-172 -579q-8 -25 -13.5 -52.5t-5.5 -50.5q0 -41 49 -41t100.5 38t92.5 100.5t67.5 142.5t26.5 166q0 121 -47 218t-125 166t-178 105.5t-207 36.5q-133 0 -247.5 -52t-199.5 -141 t-134.5 -208t-49.5 -250q0 -137 51.5 -256t137.5 -207t200.5 -138t241.5 -50q154 0 293 67.5t223 180.5h129q-49 -84 -118.5 -151t-153.5 -113t-178.5 -70.5t-194.5 -24.5q-162 0 -301 59.5t-242.5 163t-163 241.5t-59.5 298zM537 600q0 -86 50 -141.5t128 -55.5 q68 0 125 44.5t100 110t67.5 141t24.5 139.5q0 39 -14 73.5t-37 61t-52.5 42t-62.5 15.5q-72 0 -132 -42t-104 -106.5t-68.5 -139t-24.5 -142.5z" />
<glyph unicode="A" horiz-adv-x="1441" d="M12 0l639 1450h162l617 -1450h-201l-148 356h-725l-149 -356h-195zM424 516h592l-287 713h-4z" />
<glyph unicode="B" horiz-adv-x="1290" d="M180 0v1450h443q90 0 176 -18.5t153.5 -60.5t109.5 -109.5t42 -167.5q0 -127 -68.5 -210t-185.5 -118v-4q70 -6 130 -36t104 -77t69 -109.5t25 -133.5q0 -121 -50.5 -199t-131.5 -124t-182 -64.5t-202 -18.5h-432zM352 160h291q63 0 125.5 13t113 43t81 78t30.5 118 q0 76 -29.5 127t-77.5 81.5t-110.5 43t-128.5 12.5h-295v-516zM352 836h238q61 0 119.5 8t105.5 33.5t76 71.5t29 122q0 68 -27 110t-71 66.5t-100 33.5t-114 9h-256v-454z" />
<glyph unicode="C" horiz-adv-x="1441" d="M96 725q0 160 54.5 299t152.5 241.5t233.5 162t297.5 59.5q147 0 283 -53.5t229 -173.5l-150 -109q-66 88 -162 132t-200 44q-121 0 -222.5 -49t-175.5 -132t-114.5 -192.5t-40.5 -228.5q0 -127 40.5 -236.5t113.5 -190.5t174.5 -128t224.5 -47q133 0 237.5 52t181.5 151 l129 -109q-98 -131 -236 -192.5t-312 -61.5q-156 0 -291 57.5t-234.5 159t-156 240.5t-56.5 305z" />
<glyph unicode="D" horiz-adv-x="1517" d="M154 0v1450h557q72 0 151.5 -16.5t158.5 -52t151.5 -93t128 -138.5t88 -186.5t32.5 -238.5t-32.5 -238.5t-88 -186.5t-128 -138.5t-151.5 -93t-159 -52t-151 -16.5h-557zM326 160h327q125 0 231.5 32.5t184.5 101t123 175t45 256.5t-45 256t-123 175t-184.5 101.5 t-231.5 32.5h-327v-1130z" />
<glyph unicode="E" horiz-adv-x="1214" d="M180 0v1450h912v-160h-740v-454h690v-160h-690v-516h776v-160h-948z" />
<glyph unicode="F" d="M180 0v1450h899v-160h-727v-479h676v-160h-676v-651h-172z" />
<glyph unicode="G" horiz-adv-x="1593" d="M96 725q0 172 60.5 312.5t167 239.5t248 154.5t305.5 55.5q143 0 275 -43t237 -148l-129 -135q-74 80 -179.5 123t-216.5 43q-125 0 -231.5 -45t-185 -125t-122.5 -190.5t-44 -241.5q0 -129 44 -239.5t122.5 -191.5t189.5 -126t244 -45q88 0 184 21.5t176 62.5v444h-334 v160h506v-713q-125 -70 -263 -102.5t-280 -32.5q-170 0 -311 55.5t-244.5 155.5t-161 240.5t-57.5 310.5z" />
<glyph unicode="H" horiz-adv-x="1478" d="M180 0v1450h172v-614h774v614h172v-1450h-172v676h-774v-676h-172z" />
<glyph unicode="I" horiz-adv-x="532" d="M180 0v1450h172v-1450h-172z" />
<glyph unicode="J" horiz-adv-x="987" d="M6 274l172 35q16 -86 70.5 -136t146.5 -50q74 0 121 26.5t72.5 69.5t36 99.5t10.5 115.5v1016h172v-1075q0 -74 -21.5 -146.5t-69.5 -132t-127 -96.5t-196 -37q-154 0 -256 78t-131 233z" />
<glyph unicode="K" horiz-adv-x="1290" d="M180 0v1450h172v-627h25l659 627h248l-717 -662l752 -788h-252l-690 737h-25v-737h-172z" />
<glyph unicode="L" horiz-adv-x="1024" d="M180 0v1450h172v-1290h664v-160h-836z" />
<glyph unicode="M" horiz-adv-x="1857" d="M180 0v1450h256l492 -1137h4l495 1137h250v-1450h-172v1217h-4l-520 -1217h-104l-521 1217h-4v-1217h-172z" />
<glyph unicode="N" horiz-adv-x="1593" d="M180 0v1450h217l840 -1204h4v1204h172v-1450h-217l-840 1204h-4v-1204h-172z" />
<glyph unicode="O" horiz-adv-x="1708" d="M96 725q0 164 56.5 304t158 241.5t239.5 159t304 57.5t304 -57.5t239.5 -159t158 -241.5t56.5 -304t-56.5 -304t-158 -241.5t-239.5 -159t-304 -57.5t-304 57.5t-239.5 159t-158 241.5t-56.5 304zM281 725q0 -125 42 -234.5t117.5 -191.5t181 -129t232.5 -47t232.5 47 t181 129t117.5 191.5t42 234.5t-42 234.5t-117.5 191.5t-181 129t-232.5 47t-232.5 -47t-181 -129t-117.5 -191.5t-42 -234.5z" />
<glyph unicode="P" horiz-adv-x="1214" d="M180 0v1450h430q100 0 191.5 -19.5t162 -65.5t112.5 -123t42 -189q0 -119 -45 -197t-115.5 -123t-154.5 -63.5t-160 -18.5h-291v-651h-172zM352 811h291q129 0 210 58.5t81 181.5t-81 181t-210 58h-291v-479z" />
<glyph unicode="Q" horiz-adv-x="1708" d="M96 743q0 158 57.5 294.5t157 235.5t235.5 156.5t296 57.5t296 -57.5t235.5 -156.5t156.5 -235.5t57 -294.5q0 -92 -24.5 -183t-70.5 -170t-110.5 -141.5t-146.5 -96.5v-5h448v-147h-841q-160 0 -296 57.5t-235.5 156.5t-157 235.5t-57.5 293.5zM281 743q0 -123 43 -229 t117.5 -185t177 -124t223.5 -45q119 0 222 45t178 124t118 185.5t43 228.5q0 121 -42 227.5t-117 185.5t-177 125t-225 46t-225.5 -46t-177 -125t-116.5 -185.5t-42 -227.5z" />
<glyph unicode="R" horiz-adv-x="1251" d="M180 0v1450h371q104 0 207.5 -12.5t185.5 -53.5t133 -119.5t51 -213.5q0 -160 -96 -258.5t-266 -124.5l412 -668h-211l-394 651h-221v-651h-172zM352 811h154q72 0 148.5 4t141 26.5t106.5 71t42 138.5q0 78 -30.5 125t-81 72.5t-113 33.5t-125.5 8h-242v-479z" />
<glyph unicode="S" d="M78 164l147 121q47 -80 131 -121t179 -41q55 0 111 16.5t101.5 48t74 78.5t28.5 109q0 68 -22.5 109.5t-69.5 72.5t-119 55.5t-168 57.5q-78 25 -143.5 56.5t-113.5 77.5t-75.5 110.5t-27.5 154.5q0 104 41 182t110.5 130.5t157.5 79t184 26.5q123 0 224.5 -38 t181.5 -132l-142 -123q-43 70 -114.5 101.5t-149.5 31.5q-57 0 -112.5 -14.5t-99.5 -43t-70.5 -75.5t-26.5 -111q0 -49 15.5 -87t50 -68.5t94 -57t145.5 -53.5q84 -27 163 -57.5t139.5 -77.5t96 -117.5t35.5 -177.5q0 -109 -43 -188.5t-113.5 -132t-162.5 -78t-191 -25.5 q-63 0 -126.5 11.5t-122 35t-109.5 61.5t-88 93z" />
<glyph unicode="T" horiz-adv-x="1175" d="M23 1290v160h1130v-160h-479v-1290h-172v1290h-479z" />
<glyph unicode="U" horiz-adv-x="1441" d="M174 553v897h172v-872q0 -88 18.5 -170t61.5 -145.5t114.5 -101.5t180.5 -38t180.5 38t114.5 101.5t61.5 145t18.5 170.5v872h172v-897q0 -119 -30 -225.5t-94.5 -187.5t-169 -129t-253.5 -48q-150 0 -254.5 48t-169 129t-94 187.5t-29.5 225.5z" />
<glyph unicode="V" horiz-adv-x="1251" d="M-18 1450h194l447 -1192h4l460 1192h183l-568 -1450h-165z" />
<glyph unicode="W" horiz-adv-x="1972" d="M12 1450h191l329 -1204h5l356 1204h192l355 -1204h4l336 1204h180l-426 -1450h-186l-359 1229h-4l-360 -1229h-189z" />
<glyph unicode="X" horiz-adv-x="1290" d="M-6 0l528 764l-487 686h221l391 -567l387 567h215l-487 -686l534 -764h-227l-430 643l-432 -643h-213z" />
<glyph unicode="Y" horiz-adv-x="1216" d="M-18 1450h219l407 -655l420 655h207l-541 -825v-625h-172v625z" />
<glyph unicode="Z" horiz-adv-x="1175" d="M59 0v154l838 1136h-825v160h1034v-147l-838 -1143h848v-160h-1057z" />
<glyph unicode="[" horiz-adv-x="530" d="M57 -319v1818h338v-123h-190v-1573h190v-122h-338z" />
<glyph unicode="\" horiz-adv-x="757" d="M6 1487l129 49l617 -1573l-129 -51z" />
<glyph unicode="]" horiz-adv-x="530" d="M135 -197h191v1573h-191v123h338v-1818h-338v122z" />
<glyph unicode="^" horiz-adv-x="1363" d="M164 563l457 887h122l457 -887h-151l-367 715l-367 -715h-151z" />
<glyph unicode="_" horiz-adv-x="1024" d="M0 -154h1024v-102h-1024v102z" />
<glyph unicode="`" horiz-adv-x="491" d="M-51 1450h225l213 -295h-145z" />
<glyph unicode="a" horiz-adv-x="1062" d="M96 260q0 119 61.5 186.5t152.5 100.5t196.5 41t193.5 8h62v29q0 104 -62.5 157.5t-175.5 53.5q-78 0 -152.5 -26t-131.5 -79l-101 105q74 76 175.5 111.5t205.5 35.5q213 0 307.5 -100.5t94.5 -304.5v-412q0 -41 4 -85t10 -81h-154q-8 33 -9 73t-1 70h-4 q-47 -74 -126 -121t-189 -47q-74 0 -138.5 18.5t-112.5 54.5t-77 89t-29 123zM268 276q0 -90 60.5 -127.5t150.5 -37.5q70 0 122 23.5t87 62.5t53.5 91t20.5 111v62h-160q-154 0 -244 -43t-90 -142z" />
<glyph unicode="b" horiz-adv-x="1251" d="M143 0v1548h160v-729h4q66 78 153 121t191 43q113 0 206 -38t158.5 -105.5t102.5 -159.5t37 -201t-37 -201t-101.5 -159.5t-152.5 -105.5t-188 -38q-129 0 -226.5 56.5t-142.5 138.5h-4v-170h-160zM303 479q0 -76 23.5 -140.5t68.5 -112.5t107.5 -75.5t140.5 -27.5 t140.5 27.5t107.5 75.5t68.5 112.5t23.5 140.5t-23.5 140.5t-68.5 112.5t-107.5 76t-140.5 28t-140.5 -28t-107.5 -76t-68.5 -112.5t-23.5 -140.5z" />
<glyph unicode="c" horiz-adv-x="987" d="M96 479q0 109 36 201t101.5 159.5t156.5 105.5t202 38q106 0 201.5 -37t167.5 -115l-127 -112q-51 61 -110.5 89t-131.5 28q-80 0 -141.5 -28t-101.5 -77t-60.5 -113.5t-20.5 -138.5t23.5 -138.5t65.5 -113.5t101.5 -76.5t133.5 -27.5q158 0 244 119l118 -113 q-70 -80 -164 -117t-198 -37q-111 0 -203 37t-156.5 104.5t-100.5 160t-36 202.5z" />
<glyph unicode="d" horiz-adv-x="1251" d="M96 479q0 109 37 201t102.5 159.5t158.5 105.5t206 38q104 0 191.5 -43t152.5 -121h4v729h160v-1548h-160v170h-4q-45 -82 -142 -138.5t-227 -56.5q-100 0 -188 38t-152.5 105.5t-101.5 160t-37 200.5zM268 479q0 -76 23.5 -140.5t69 -112.5t107.5 -75.5t140 -27.5 t140.5 27.5t107.5 75.5t68.5 112.5t23.5 140.5t-23.5 140.5t-68.5 112.5t-107.5 76t-140.5 28t-140 -28t-107.5 -76t-69 -112.5t-23.5 -140.5z" />
<glyph unicode="e" d="M96 479q0 111 37 204t102.5 159.5t155.5 103.5t197 37q100 0 184 -34t144.5 -98.5t93 -157.5t32.5 -212v-51h-774q4 -61 30 -117.5t67 -98.5t96 -66.5t121 -24.5q104 0 175.5 37t129.5 108l121 -94q-86 -111 -188.5 -155t-237.5 -44q-113 0 -203 40t-152.5 107.5 t-96.5 160t-34 196.5zM268 565h602q-4 123 -79.5 197t-208.5 74t-215 -74t-99 -197z" />
<glyph unicode="f" horiz-adv-x="645" d="M25 823v135h208v216q0 88 16.5 160.5t56.5 125.5t105.5 83t161.5 30q31 0 66 -6t57 -19l-22 -143q-57 20 -109 20q-61 0 -96 -21.5t-52.5 -59t-20.5 -91t-3 -114.5v-181h234v-135h-234v-823h-160v823h-208z" />
<glyph unicode="g" horiz-adv-x="1251" d="M96 479q0 117 37 211t103.5 158.5t161 99.5t208.5 35q49 0 98.5 -11t95.5 -35t83 -59.5t61 -82.5h4v163h160v-915q0 -262 -134 -398.5t-388 -136.5q-141 0 -255 41t-216 142l114 131q76 -82 161 -124t196 -42q106 0 177 31.5t111.5 86t57 124t16.5 145.5v123h-4 q-57 -92 -149.5 -135t-188.5 -43q-113 0 -207 36.5t-161.5 102.5t-104.5 156t-37 196zM268 479q0 -74 27 -136t73 -108.5t107.5 -73t130.5 -26.5q82 0 145.5 29t107.5 77t66.5 110.5t22.5 131.5q0 78 -24.5 142.5t-69.5 111.5t-108.5 73t-139.5 26t-138 -28t-106.5 -76 t-69 -112.5t-24.5 -140.5z" />
<glyph unicode="h" d="M152 0v1548h159v-723h4q16 29 45 56.5t69 50t89 37t105 14.5q94 0 162.5 -28.5t113.5 -80t66.5 -124t21.5 -158.5v-592h-160v575q0 121 -53 191t-166 70q-78 0 -134 -27t-92 -76t-53.5 -116.5t-17.5 -149.5v-467h-159z" />
<glyph unicode="i" horiz-adv-x="491" d="M129 1333q0 47 34 82t83 35t82.5 -35t33.5 -82q0 -51 -32.5 -83.5t-83.5 -32.5t-84 32.5t-33 83.5zM166 0v958h160v-958h-160z" />
<glyph unicode="j" horiz-adv-x="491" d="M-70 -471l19 139q39 -12 78 -12q45 0 72.5 16.5t42 44t19.5 64.5t5 78v1099h160v-1173q0 -37 -11.5 -85t-42 -90t-87 -72t-144.5 -30q-29 0 -56.5 4.5t-54.5 16.5zM129 1333q0 47 34 82t83 35t82.5 -35t33.5 -82q0 -51 -32.5 -83.5t-83.5 -32.5t-84 32.5t-33 83.5z" />
<glyph unicode="k" horiz-adv-x="1024" d="M152 0v1548h159v-1011l437 421h227l-463 -436l510 -522h-236l-475 504v-504h-159z" />
<glyph unicode="l" horiz-adv-x="491" d="M166 0v1548h160v-1548h-160z" />
<glyph unicode="m" horiz-adv-x="1744" d="M143 958h152q0 -39 2 -77.5t2 -79.5h4q16 35 46 67.5t71 58t92 41t111 15.5q78 0 130 -19.5t86.5 -47t54 -59.5t32.5 -56q53 86 122.5 134t180.5 48q102 0 171.5 -27.5t112.5 -80t61.5 -127t18.5 -166.5v-582h-159v573q0 49 -10.5 96.5t-37 84.5t-71.5 59.5t-115 22.5 q-51 0 -96 -20.5t-79 -57.5t-53.5 -89.5t-19.5 -115.5v-553h-159v543q0 160 -43 226.5t-142 66.5q-78 0 -134 -27t-92 -76t-53.5 -116.5t-17.5 -149.5v-467h-159v731q0 66 -4.5 123t-4.5 104z" />
<glyph unicode="n" d="M143 958h152q0 -39 2 -77.5t2 -79.5h4q16 35 46 67.5t71 58t92 41t111 15.5q94 0 162.5 -28.5t113.5 -80t66.5 -124t21.5 -158.5v-592h-160v575q0 121 -53 191t-166 70q-78 0 -134 -27t-92 -76t-53.5 -116.5t-17.5 -149.5v-467h-159v731q0 66 -4.5 123t-4.5 104z" />
<glyph unicode="o" horiz-adv-x="1216" d="M96 479q0 113 39 205t106.5 158.5t162 103.5t204.5 37q111 0 205 -37t161.5 -103.5t106.5 -158.5t39 -205t-39 -205t-106.5 -158.5t-161.5 -103.5t-205 -37t-205 37t-161.5 103.5t-106.5 158.5t-39 205zM268 479q0 -76 23.5 -140.5t69 -112.5t107.5 -75.5t140 -27.5 t140.5 27.5t107.5 75.5t68.5 112.5t23.5 140.5t-23.5 140.5t-68.5 112.5t-107.5 76t-140.5 28t-140 -28t-107.5 -76t-69 -112.5t-23.5 -140.5z" />
<glyph unicode="p" horiz-adv-x="1251" d="M143 -467v1425h160v-139h4q66 78 153 121t191 43q113 0 206 -38t158.5 -105.5t102.5 -159.5t37 -201t-37 -201t-101.5 -159.5t-152.5 -105.5t-188 -38q-129 0 -226.5 56.5t-142.5 138.5h-4v-637h-160zM303 479q0 -76 23.5 -140.5t68.5 -112.5t107.5 -75.5t140.5 -27.5 t140.5 27.5t107.5 75.5t68.5 112.5t23.5 140.5t-23.5 140.5t-68.5 112.5t-107.5 76t-140.5 28t-140.5 -28t-107.5 -76t-68.5 -112.5t-23.5 -140.5z" />
<glyph unicode="q" horiz-adv-x="1251" d="M96 479q0 106 37 198.5t101.5 160t152.5 106.5t188 39q129 0 226.5 -56.5t142.5 -138.5h4v170h160v-1425h-160v606h-4q-66 -78 -152.5 -121t-191.5 -43q-113 0 -206 38t-158.5 105.5t-102.5 160t-37 200.5zM268 479q0 -76 23.5 -140.5t69 -112.5t107.5 -75.5t140 -27.5 t140.5 27.5t107.5 75.5t68.5 112.5t23.5 140.5t-23.5 140.5t-68.5 112.5t-107.5 76t-140.5 28t-140 -28t-107.5 -76t-69 -112.5t-23.5 -140.5z" />
<glyph unicode="r" horiz-adv-x="720" d="M143 958h152q0 -39 2 -77.5t2 -79.5h4q16 35 46 67.5t71 58t92 41t111 15.5q16 0 32.5 -2t32.5 -8l-10 -162q-41 12 -86 12q-147 0 -214 -95t-67 -261v-467h-159v731q0 66 -4.5 123t-4.5 104z" />
<glyph unicode="s" horiz-adv-x="872" d="M45 154l127 98q47 -59 103.5 -94t142.5 -35q37 0 74.5 8t68.5 26.5t49.5 46t18.5 66.5t-17.5 63.5t-46 42t-65.5 28t-76 18.5q-68 14 -129.5 32.5t-107.5 48t-73.5 77t-27.5 120.5q0 70 30.5 123.5t82 88t115 53t130.5 18.5q102 0 189.5 -41t136.5 -133l-133 -88 q-31 51 -81 83t-122 32q-33 0 -66.5 -8.5t-60 -25t-44 -42t-17.5 -58.5q0 -31 19.5 -52t53 -37.5t77.5 -29t91 -20.5q63 -12 121 -31.5t101 -52.5t67.5 -82t24.5 -121q0 -82 -33 -139t-87 -93t-123 -52.5t-140 -16.5q-123 0 -212 38t-161 141z" />
<glyph unicode="t" horiz-adv-x="720" d="M25 823v135h208v273h160v-273h283v-135h-283v-479q0 -47 2 -87t16.5 -69.5t43 -47t82.5 -17.5q35 0 71.5 8t69.5 25l6 -146q-41 -18 -91 -26.5t-95 -8.5q-86 0 -137.5 22.5t-80 63.5t-38 101.5t-9.5 134.5v526h-208z" />
<glyph unicode="u" d="M152 367v591h159v-575q0 -121 53.5 -190.5t165.5 -69.5q78 0 134.5 26.5t92.5 75.5t53 117t17 150v466h160v-731q0 -66 4 -123t4 -104h-151q0 39 -2 78t-2 80h-4q-16 -35 -46 -68t-71 -58.5t-92.5 -41t-110.5 -15.5q-94 0 -162.5 29t-113.5 80t-66.5 124t-21.5 159z" />
<glyph unicode="v" horiz-adv-x="987" d="M20 958h187l299 -751h4l285 751h172l-379 -958h-176z" />
<glyph unicode="w" horiz-adv-x="1517" d="M29 958h176l219 -737h4l248 737h168l252 -737h4l217 737h172l-309 -958h-158l-272 737h-5l-241 -737h-164z" />
<glyph unicode="x" horiz-adv-x="1024" d="M6 0l393 516l-344 442h209l254 -344l240 344h194l-329 -442l395 -516h-211l-303 414l-299 -414h-199z" />
<glyph unicode="y" horiz-adv-x="987" d="M20 958h187l297 -751h4l285 751h174l-463 -1177q-25 -61 -50.5 -111.5t-61.5 -86.5t-86 -55.5t-122 -19.5q-35 0 -72.5 4.5t-70.5 20.5l20 139q25 -10 51.5 -13t61.5 -3q78 0 115 43t63 115l66 180z" />
<glyph unicode="z" horiz-adv-x="909" d="M61 0v125l564 698h-539v135h748v-122l-564 -701h578v-135h-787z" />
<glyph unicode="{" horiz-adv-x="681" d="M68 528v123q33 0 64.5 16.5t56 46t40 72.5t15.5 97v360q0 61 20.5 109.5t51 81t68.5 49t75 16.5h143v-123h-110q-33 0 -52.5 -13t-31 -36.5t-14.5 -52.5t-3 -60v-360q0 -70 -20.5 -118t-49 -78.5t-58.5 -46t-48 -19.5v-4q18 -2 48 -15.5t58.5 -43t49 -80t20.5 -125.5 v-359q0 -31 3 -59.5t14.5 -51t31 -37t52.5 -14.5h110v-122h-143q-39 0 -77 16t-68.5 49t-50 81t-19.5 110v358q0 55 -15.5 98t-40 74t-56.5 46t-64 15z" />
<glyph unicode="|" horiz-adv-x="454" d="M160 -512v2048h135v-2048h-135z" />
<glyph unicode="}" horiz-adv-x="681" d="M80 -197h110q33 0 52.5 14.5t30 37t14.5 51t4 59.5v359q0 76 20.5 126t49 79.5t58.5 43t48 15.5v4q-18 4 -48 19.5t-58.5 46t-49 78.5t-20.5 118v360q0 31 -4 60t-14.5 52.5t-30 36.5t-52.5 13h-110v123h143q37 0 75 -16.5t68.5 -49t51 -80.5t20.5 -110v-360 q0 -53 15.5 -96.5t40 -73t56.5 -46t64 -16.5v-123q-33 0 -64.5 -15t-56 -46t-40 -74t-15.5 -98v-358q0 -61 -19.5 -109.5t-50 -81.5t-68.5 -49t-77 -16h-143v122z" />
<glyph unicode="~" horiz-adv-x="1363" d="M211 578q23 33 48.5 64.5t55 57t67.5 42t85 16.5q55 0 106.5 -19.5t102.5 -42.5q59 -27 114.5 -52.5t120.5 -25.5q68 0 108 45.5t66 98.5l68 -98q-25 -33 -49.5 -65t-55 -57.5t-68.5 -42t-85 -16.5q-55 0 -106.5 19.5t-102.5 42.5q-59 27 -114.5 52.5t-120.5 25.5 q-68 0 -108 -45.5t-64 -98.5z" />
<glyph unicode="&#xa1;" horiz-adv-x="569" d="M162 885q0 51 38 87t85 36t85 -36t38 -87t-36 -87t-87 -36t-87 36t-36 87zM199 -455v1045h172v-1045h-172z" />
<glyph unicode="&#xa2;" d="M137 479q0 100 31 187.5t87 153t136 106.5t176 51v141h99v-135q98 -4 184 -42t151 -110l-127 -112q-86 104 -208 117v-713q131 8 211 119l118 -113q-63 -74 -148 -110.5t-181 -43.5v-135h-99v135q-98 12 -177 54.5t-135 108t-87 152.5t-31 189zM309 479q0 -131 70 -228 t188 -126v706q-129 -25 -193.5 -123t-64.5 -229z" />
<glyph unicode="&#xa3;" d="M117 0v160h221v516h-197v135h197v164q0 133 34 228t92 155.5t139 88.5t173 28t178 -31t152 -96l-113 -121q-47 47 -100 73.5t-121 26.5q-76 0 -126 -25.5t-80.5 -72.5t-43 -112.5t-12.5 -145.5v-160h332v-135h-332v-516h504v-160h-897z" />
<glyph unicode="&#xa4;" d="M57 303l111 113q-111 139 -111 309q0 178 111 311l-111 111l90 90l111 -109q68 53 146.5 81t164.5 28t165 -27.5t147 -81.5l110 109l90 -90l-110 -111q111 -133 110 -311q0 -170 -110 -309l110 -113l-90 -90l-110 113q-68 -53 -147 -83t-165 -30t-164.5 29.5t-146.5 83.5 l-111 -113zM217 725q0 -72 27.5 -137.5t76 -116.5t113 -81t135.5 -30q72 0 136.5 30t112.5 81t76 116.5t28 137.5q0 74 -28 140.5t-76 116.5t-112.5 79t-136.5 29t-136 -29t-112.5 -79t-76 -116.5t-27.5 -140.5z" />
<glyph unicode="&#xa5;" d="M0 1450h205l364 -670l365 670h205l-391 -670h233v-123h-307l-19 -32v-146h326v-123h-326v-356h-172v356h-325v123h325v146l-18 32h-307v123h233z" />
<glyph unicode="&#xa6;" horiz-adv-x="454" d="M160 -358v716h135v-716h-135zM160 666v716h135v-716h-135z" />
<glyph unicode="&#xa7;" d="M115 -43l157 74q29 -94 97.5 -136t160.5 -42q43 0 83 10t71 33.5t49.5 59.5t18.5 85q0 43 -19.5 74.5t-50.5 55.5t-66.5 41t-68.5 34l-250 131q-72 37 -111 102.5t-39 147.5q0 109 58.5 176t148.5 110q-72 41 -114.5 99.5t-42.5 142.5q0 82 33.5 144.5t89 103.5t126 62.5 t144.5 21.5q53 0 106.5 -11.5t101.5 -34t87 -59t63 -88.5l-153 -84q-25 68 -85.5 98.5t-125.5 30.5q-39 0 -78 -10t-69.5 -31.5t-49 -55.5t-18.5 -79q0 -100 90 -147l200 -101q53 -25 108.5 -55.5t100.5 -70t74 -91t29 -120.5q0 -94 -49.5 -162t-126.5 -111 q66 -43 103.5 -104.5t37.5 -147.5q0 -88 -36 -153.5t-94 -108.5t-134 -64.5t-154 -21.5q-133 0 -242.5 60.5t-160.5 191.5zM307 653q0 -41 16.5 -69.5t41 -51t56.5 -39t62 -30.5l183 -88q51 23 92 71t41 107q0 43 -19.5 76t-48.5 59.5t-63.5 46t-67.5 35.5l-119 59 q-31 -12 -61.5 -26.5t-55 -34.5t-41 -48t-16.5 -67z" />
<glyph unicode="&#xa8;" horiz-adv-x="491" d="M-68 1290q0 45 32 78t79 33t79 -33t32 -78q0 -47 -32 -78.5t-79 -31.5t-79 31.5t-32 78.5zM338 1290q0 45 32 78t79 33t78.5 -33t31.5 -78q0 -47 -31.5 -78.5t-78.5 -31.5t-79 31.5t-32 78.5z" />
<glyph unicode="&#xa9;" horiz-adv-x="1638" d="M57 725q0 162 60.5 302t165 241.5t243 160t293.5 58.5q156 0 294 -58.5t242.5 -160t165 -241.5t60.5 -302q0 -164 -60.5 -303t-165 -240.5t-242.5 -160t-294 -58.5t-294 58.5t-242.5 160t-165 240.5t-60.5 303zM193 725q0 -139 49 -258t133 -206t198.5 -137t245.5 -50 t245 50t199 137t134 206t49 258q0 137 -49 257t-134 207t-199 137t-245 50t-245.5 -50t-198.5 -137t-133 -207t-49 -257zM395 725q0 100 31 186t88 147.5t141 96.5t189 35q72 0 136 -19.5t115.5 -58.5t85 -97.5t46.5 -133.5h-125q-16 86 -85 142t-171 56q-76 0 -135.5 -27.5 t-99.5 -74.5t-60.5 -111.5t-20.5 -140.5q0 -72 22.5 -136.5t64.5 -113.5t100.5 -77.5t132.5 -28.5q102 0 169.5 59t82.5 150h127q-33 -147 -135.5 -233.5t-243.5 -86.5q-104 0 -188 36t-143.5 98.5t-91.5 147.5t-32 185z" />
<glyph unicode="&#xaa;" horiz-adv-x="690" d="M68 1049q0 72 39.5 110.5t97 57t123 22.5t116.5 4h48v29q0 29 -37 60.5t-113 31.5q-59 0 -109.5 -20.5t-72.5 -43.5l-64 86q47 45 112.5 67t133.5 22q147 0 209.5 -60.5t62.5 -183.5v-262q0 -23 2 -44.5t7 -43.5h-125q-6 49 -6 92h-5q-29 -57 -80 -81t-124 -24 q-94 0 -154.5 44t-60.5 137zM203 1051q0 -35 32.5 -53.5t83.5 -18.5q84 0 128.5 43t44.5 88v35h-99q-25 0 -57.5 -1t-62 -10.5t-50 -29t-20.5 -53.5z" />
<glyph unicode="&#xab;" horiz-adv-x="1024" d="M119 492l293 438l112 -74l-239 -364l239 -365l-112 -74zM500 492l293 438l112 -74l-239 -364l239 -365l-112 -74z" />
<glyph unicode="&#xac;" horiz-adv-x="1363" d="M147 713v135h1070v-569h-136v434h-934z" />
<glyph unicode="&#xad;" horiz-adv-x="681" d="M90 418v147h502v-147h-502z" />
<glyph unicode="&#xae;" horiz-adv-x="1638" d="M57 725q0 162 60.5 302t165 241.5t243 160t293.5 58.5q156 0 294 -58.5t242.5 -160t165 -241.5t60.5 -302q0 -164 -60.5 -303t-165 -240.5t-242.5 -160t-294 -58.5t-294 58.5t-242.5 160t-165 240.5t-60.5 303zM193 725q0 -139 49 -258t133 -206t198.5 -137t245.5 -50 t245 50t199 137t134 206t49 258q0 137 -49 257t-134 207t-199 137t-245 50t-245.5 -50t-198.5 -137t-133 -207t-49 -257zM528 281v890h336q311 0 312 -253q0 -121 -68 -177.5t-168 -66.5l256 -393h-145l-242 383h-145v-383h-136zM664 774h139q45 0 88 3t75.5 17.5t53 45 t20.5 84.5q0 45 -18 72.5t-47 42t-63.5 18.5t-69.5 4h-178v-287z" />
<glyph unicode="&#xaf;" horiz-adv-x="491" d="M-37 1229v123h565v-123h-565z" />
<glyph unicode="&#xb0;" horiz-adv-x="819" d="M117 1182q0 61 22.5 114.5t62.5 93.5t93 62.5t115 22.5q61 0 114.5 -22.5t93 -62.5t62 -93.5t22.5 -114.5t-22.5 -114.5t-62 -93.5t-93 -62.5t-114.5 -22.5t-114.5 22.5t-93.5 62.5t-62.5 93.5t-22.5 114.5zM227 1182q0 -31 13.5 -64t37 -59.5t57.5 -43t75 -16.5 t74.5 16.5t57 43t37 59.5t13.5 64t-13.5 63.5t-37 59t-57 43t-74.5 16.5t-75 -16.5t-57.5 -43t-37 -59t-13.5 -63.5z" />
<glyph unicode="&#xb1;" horiz-adv-x="1363" d="M147 86v135h1070v-135h-1070zM147 676v135h467v344h136v-344h467v-135h-467v-344h-136v344h-467z" />
<glyph unicode="&#xb2;" horiz-adv-x="739" d="M66 592v119l344 309q57 51 88.5 92t31.5 107q0 68 -44 106.5t-103 38.5q-66 0 -112 -37t-58 -100l-129 10q18 123 99 180.5t196 57.5q57 0 109.5 -15.5t92.5 -47.5t62.5 -80t22.5 -113q0 -53 -15.5 -94.5t-41 -77t-58.5 -66.5t-68 -61l-245 -213v-5h436v-110h-608z" />
<glyph unicode="&#xb3;" horiz-adv-x="739" d="M63 768l111 47q8 -20 22.5 -42.5t38 -41t55.5 -30t75 -11.5q68 0 122 36t54 108q0 49 -20.5 79.5t-53.5 48t-72 23.5t-76 6h-32v111h35q25 0 57.5 5t62 19.5t49 42t19.5 74.5q0 66 -43 93.5t-102 27.5q-53 0 -97.5 -18.5t-68.5 -67.5l-113 51q39 78 112.5 112t166.5 34 q55 0 106 -14.5t90 -43t61.5 -71.5t22.5 -99q0 -68 -45 -123t-117 -75v-5q92 -12 142.5 -73.5t50.5 -143.5q0 -61 -24.5 -107t-67.5 -77t-99.5 -47t-119.5 -16q-106 0 -186.5 42t-115.5 146z" />
<glyph unicode="&#xb4;" horiz-adv-x="491" d="M104 1155l213 295h226l-293 -295h-146z" />
<glyph unicode="&#xb5;" d="M152 -467v1425h159v-575q0 -121 53.5 -190.5t165.5 -69.5q78 0 134.5 26.5t92.5 75.5t53 117t17 150v466h160v-731q0 -66 4 -123t4 -104h-151q0 39 -2 78t-2 80h-4q-16 -35 -46 -68t-71 -58.5t-92.5 -41t-110.5 -15.5q-66 0 -112 11.5t-93 40.5v-494h-159z" />
<glyph unicode="&#xb6;" horiz-adv-x="1228" d="M170 1028q0 201 125 311.5t342 110.5h498v-1708h-148v1573h-242v-1573h-147v905q-94 0 -173 30t-135.5 81t-88 120.5t-31.5 149.5z" />
<glyph unicode="&#xb7;" horiz-adv-x="569" d="M162 633q0 51 36 87t87 36t87 -36t36 -87t-38 -87t-85 -36t-85 36t-38 87z" />
<glyph unicode="&#xb8;" horiz-adv-x="491" d="M25 -401l34 75q72 -33 148 -32q20 0 41.5 4t40 13t31 25.5t12.5 41.5q0 43 -36 60t-71 17q-20 0 -40.5 -5t-39.5 -11l-41 39l127 174h93l-93 -131q14 2 31 5t41 3q27 0 55.5 -8t53 -25.5t40 -44t15.5 -63.5q0 -49 -21.5 -84t-56.5 -56.5t-78 -30.5t-84 -9q-53 0 -104 10 t-98 33z" />
<glyph unicode="&#xb9;" horiz-adv-x="739" d="M117 1272l254 190h118v-870h-135v721h-4l-166 -135z" />
<glyph unicode="&#xba;" horiz-adv-x="790" d="M61 1174q0 68 25 123t70 95t106.5 61.5t132.5 21.5q72 0 133.5 -21.5t105.5 -61.5t69.5 -95.5t25.5 -122.5q0 -70 -25.5 -126.5t-69.5 -96.5t-105.5 -61.5t-133.5 -21.5t-133 21.5t-106 61.5t-70 96.5t-25 126.5zM197 1174q0 -39 13 -74t39.5 -61.5t62.5 -43t83 -16.5 q45 0 82 16.5t63.5 43t40 62.5t13.5 73t-13.5 70.5t-40 60t-63.5 43t-82 16.5q-47 0 -83 -16.5t-62.5 -43t-39.5 -60t-13 -70.5z" />
<glyph unicode="&#xbb;" horiz-adv-x="1024" d="M119 127l239 365l-239 364l112 74l293 -438l-293 -439zM500 127l239 365l-239 364l112 74l293 -438l-293 -439z" />
<glyph unicode="&#xbc;" horiz-adv-x="1708" d="M80 1272l254 190h119v-870h-136v723h-4l-166 -137zM305 0l909 1516l113 -66l-909 -1516zM979 184v129l375 557h159v-575h115v-111h-115v-184h-135v184h-399zM1102 295h276v416h-4z" />
<glyph unicode="&#xbd;" horiz-adv-x="1708" d="M68 1272l254 190h118v-870h-135v723h-4l-166 -137zM270 0l910 1516l112 -66l-909 -1516zM1032 0v119l344 309q57 51 89 92t32 107q0 68 -44 106.5t-103 38.5q-66 0 -112 -37t-58 -100l-129 10q18 123 99 180.5t196 57.5q57 0 109 -15.5t92 -47.5t62.5 -80t22.5 -113 q0 -53 -15 -94t-41 -77t-58.5 -67t-67.5 -61l-246 -213v-4h436v-111h-608z" />
<glyph unicode="&#xbe;" horiz-adv-x="1708" d="M51 768l113 47q8 -20 22.5 -42.5t38 -41t55 -30t74.5 -11.5q68 0 122 36t54 108q0 49 -20.5 79.5t-53 48t-71.5 23.5t-76 6h-33v111h33q27 0 59.5 5t61.5 19.5t49.5 42t20.5 74.5q0 66 -43 93.5t-103 27.5q-53 0 -97 -18.5t-69 -67.5l-112 51q39 78 112.5 112t165.5 34 q55 0 106.5 -14.5t90.5 -43t61.5 -71.5t22.5 -99q0 -68 -45 -123t-117 -75v-5q92 -12 142.5 -73.5t50.5 -143.5q0 -61 -25 -107t-68 -77t-99 -47t-120 -16q-106 0 -187 42t-116 146zM385 0l909 1516l113 -66l-909 -1516zM1008 184v129l374 557h160v-575h115v-111h-115v-184 h-135v184h-399zM1130 295h277v416h-4l-273 -412v-4z" />
<glyph unicode="&#xbf;" horiz-adv-x="987" d="M96 -127q0 68 19.5 122t51.5 100t74 88t89 85q33 31 52 53.5t29.5 47t13.5 54.5t3 73v94h172v-129q0 -57 -7 -94t-23.5 -67t-44 -59.5t-66.5 -68.5q-31 -33 -62.5 -64.5t-57.5 -66.5t-42 -74t-16 -88q0 -98 57 -160.5t160 -62.5q104 0 168.5 61.5t81.5 161.5l184 -20 q-14 -84 -52 -149.5t-95.5 -109.5t-131 -68t-157.5 -24t-157 24t-127 70t-85 114.5t-31 156.5zM391 885q0 51 38 87t85 36t85 -36t38 -87t-36 -87t-87 -36t-87 36t-36 87z" />
<glyph unicode="&#xc0;" horiz-adv-x="1441" d="M12 0l639 1450h162l617 -1450h-201l-148 356h-725l-149 -356h-195zM424 516h592l-287 713h-4zM424 1847h225l213 -295h-145z" />
<glyph unicode="&#xc1;" horiz-adv-x="1441" d="M12 0l639 1450h162l617 -1450h-201l-148 356h-725l-149 -356h-195zM424 516h592l-287 713h-4zM579 1552l213 295h226l-293 -295h-146z" />
<glyph unicode="&#xc2;" horiz-adv-x="1441" d="M12 0l639 1450h162l617 -1450h-201l-148 356h-725l-149 -356h-195zM399 1552l228 295h186l229 -295h-166l-161 209l-160 -209h-156zM424 516h592l-287 713h-4z" />
<glyph unicode="&#xc3;" horiz-adv-x="1441" d="M12 0l639 1450h162l617 -1450h-201l-148 356h-725l-149 -356h-195zM379 1577q6 39 21.5 78t41 68.5t60 48t82.5 18.5q47 0 89 -15.5t83 -31.5q31 -12 54 -23.5t56 -11.5q41 0 64.5 26.5t33.5 63.5h99q-6 -39 -19.5 -77t-37 -68.5t-56.5 -49t-78 -18.5q-43 0 -85 13.5 t-81 29.5q-31 12 -65.5 25.5t-69.5 13.5q-39 0 -61.5 -27.5t-32.5 -62.5h-98zM424 516h592l-287 713h-4z" />
<glyph unicode="&#xc4;" horiz-adv-x="1441" d="M12 0l639 1450h162l617 -1450h-201l-148 356h-725l-149 -356h-195zM407 1688q0 45 32 77.5t79 32.5t79 -32.5t32 -77.5q0 -47 -32 -79t-79 -32t-79 31.5t-32 79.5zM424 516h592l-287 713h-4zM813 1688q0 45 32 77.5t79 32.5t78.5 -32.5t31.5 -77.5q0 -47 -31.5 -79 t-78.5 -32t-79 31.5t-32 79.5z" />
<glyph unicode="&#xc5;" horiz-adv-x="1441" d="M12 0l639 1450h162l617 -1450h-201l-148 356h-725l-149 -356h-195zM424 516h592l-287 713h-4zM518 1698q0 41 15.5 77.5t42 64.5t64.5 44.5t81 16.5q92 0 147.5 -60.5t55.5 -142.5q0 -86 -57.5 -144.5t-145.5 -58.5t-145.5 58.5t-57.5 144.5zM604 1698q0 -51 36 -84 t81 -33t81 33t36 84q0 49 -36 83t-81 34t-81 -34t-36 -83z" />
<glyph unicode="&#xc6;" horiz-adv-x="1933" d="M-20 0l942 1450h890v-160h-602v-454h566v-160h-566v-516h627v-160h-799v393h-600l-252 -393h-206zM541 553h497v737h-24z" />
<glyph unicode="&#xc7;" horiz-adv-x="1441" d="M96 725q0 160 54.5 299t152.5 241.5t233.5 162t297.5 59.5q147 0 283 -53.5t229 -173.5l-150 -109q-66 88 -162 132t-200 44q-121 0 -222.5 -49t-175.5 -132t-114.5 -192.5t-40.5 -228.5q0 -127 40.5 -236.5t113.5 -190.5t174.5 -128t224.5 -47q133 0 237.5 52t181.5 151 l129 -109q-98 -131 -236 -192.5t-312 -61.5l-66 -94q14 2 30.5 5t41.5 3q27 0 55.5 -8t53 -25.5t40 -44t15.5 -63.5q0 -49 -21.5 -84t-56.5 -56.5t-78 -30.5t-84 -9q-53 0 -104.5 10t-98.5 33l35 75q72 -33 147 -32q20 0 42 4t40.5 13t30.5 25.5t12 41.5q0 43 -35.5 60 t-70.5 17q-20 0 -41 -5t-39 -11l-41 39l104 143q-139 14 -257.5 77t-205.5 162t-136.5 231t-49.5 286z" />
<glyph unicode="&#xc8;" horiz-adv-x="1214" d="M180 0v1450h912v-160h-740v-454h690v-160h-690v-516h776v-160h-948zM311 1847h225l213 -295h-145z" />
<glyph unicode="&#xc9;" horiz-adv-x="1214" d="M180 0v1450h912v-160h-740v-454h690v-160h-690v-516h776v-160h-948zM466 1552l213 295h226l-293 -295h-146z" />
<glyph unicode="&#xca;" horiz-adv-x="1214" d="M180 0v1450h912v-160h-740v-454h690v-160h-690v-516h776v-160h-948zM286 1552l228 295h186l229 -295h-166l-161 209l-160 -209h-156z" />
<glyph unicode="&#xcb;" horiz-adv-x="1214" d="M180 0v1450h912v-160h-740v-454h690v-160h-690v-516h776v-160h-948zM294 1688q0 45 32 77.5t79 32.5t79 -32.5t32 -77.5q0 -47 -32 -79t-79 -32t-79 31.5t-32 79.5zM700 1688q0 45 32 77.5t79 32.5t78.5 -32.5t31.5 -77.5q0 -47 -31.5 -79t-78.5 -32t-79 31.5t-32 79.5z " />
<glyph unicode="&#xcc;" horiz-adv-x="532" d="M-31 1847h225l213 -295h-145zM180 0v1450h172v-1450h-172z" />
<glyph unicode="&#xcd;" horiz-adv-x="532" d="M124 1552l213 295h226l-293 -295h-146zM180 0v1450h172v-1450h-172z" />
<glyph unicode="&#xce;" horiz-adv-x="532" d="M-56 1552l228 295h186l229 -295h-166l-161 209l-160 -209h-156zM180 0v1450h172v-1450h-172z" />
<glyph unicode="&#xcf;" horiz-adv-x="532" d="M-48 1688q0 45 32 77.5t79 32.5t79 -32.5t32 -77.5q0 -47 -32 -79t-79 -32t-79 31.5t-32 79.5zM180 0v1450h172v-1450h-172zM358 1688q0 45 32 77.5t79 32.5t78.5 -32.5t31.5 -77.5q0 -47 -31.5 -79t-78.5 -32t-79 31.5t-32 79.5z" />
<glyph unicode="&#xd0;" horiz-adv-x="1517" d="M6 688v135h148v627h557q72 0 151.5 -16.5t158.5 -52t151.5 -93t128 -138.5t88 -186.5t32.5 -238.5t-32.5 -238.5t-88 -186.5t-128 -138.5t-151.5 -93t-159 -52t-151 -16.5h-557v688h-148zM326 160h327q125 0 231.5 32.5t184.5 101t123 175t45 256.5t-45 256t-123 175 t-184.5 101.5t-231.5 32.5h-327v-467h516v-135h-516v-528z" />
<glyph unicode="&#xd1;" horiz-adv-x="1593" d="M180 0v1450h217l840 -1204h4v1204h172v-1450h-217l-840 1204h-4v-1204h-172zM455 1577q6 39 21.5 78t41 68.5t60 48t82.5 18.5q47 0 89 -15.5t83 -31.5q31 -12 54 -23.5t56 -11.5q41 0 64.5 26.5t33.5 63.5h99q-6 -39 -19.5 -77t-37 -68.5t-56.5 -49t-78 -18.5 q-43 0 -85 13.5t-81 29.5q-31 12 -65.5 25.5t-69.5 13.5q-39 0 -61.5 -27.5t-32.5 -62.5h-98z" />
<glyph unicode="&#xd2;" horiz-adv-x="1708" d="M96 725q0 164 56.5 304t158 241.5t239.5 159t304 57.5t304 -57.5t239.5 -159t158 -241.5t56.5 -304t-56.5 -304t-158 -241.5t-239.5 -159t-304 -57.5t-304 57.5t-239.5 159t-158 241.5t-56.5 304zM281 725q0 -125 42 -234.5t117.5 -191.5t181 -129t232.5 -47t232.5 47 t181 129t117.5 191.5t42 234.5t-42 234.5t-117.5 191.5t-181 129t-232.5 47t-232.5 -47t-181 -129t-117.5 -191.5t-42 -234.5zM557 1847h225l213 -295h-145z" />
<glyph unicode="&#xd3;" horiz-adv-x="1708" d="M96 725q0 164 56.5 304t158 241.5t239.5 159t304 57.5t304 -57.5t239.5 -159t158 -241.5t56.5 -304t-56.5 -304t-158 -241.5t-239.5 -159t-304 -57.5t-304 57.5t-239.5 159t-158 241.5t-56.5 304zM281 725q0 -125 42 -234.5t117.5 -191.5t181 -129t232.5 -47t232.5 47 t181 129t117.5 191.5t42 234.5t-42 234.5t-117.5 191.5t-181 129t-232.5 47t-232.5 -47t-181 -129t-117.5 -191.5t-42 -234.5zM712 1552l213 295h226l-293 -295h-146z" />
<glyph unicode="&#xd4;" horiz-adv-x="1708" d="M96 725q0 164 56.5 304t158 241.5t239.5 159t304 57.5t304 -57.5t239.5 -159t158 -241.5t56.5 -304t-56.5 -304t-158 -241.5t-239.5 -159t-304 -57.5t-304 57.5t-239.5 159t-158 241.5t-56.5 304zM281 725q0 -125 42 -234.5t117.5 -191.5t181 -129t232.5 -47t232.5 47 t181 129t117.5 191.5t42 234.5t-42 234.5t-117.5 191.5t-181 129t-232.5 47t-232.5 -47t-181 -129t-117.5 -191.5t-42 -234.5zM532 1552l228 295h186l229 -295h-166l-161 209l-160 -209h-156z" />
<glyph unicode="&#xd5;" horiz-adv-x="1708" d="M96 725q0 164 56.5 304t158 241.5t239.5 159t304 57.5t304 -57.5t239.5 -159t158 -241.5t56.5 -304t-56.5 -304t-158 -241.5t-239.5 -159t-304 -57.5t-304 57.5t-239.5 159t-158 241.5t-56.5 304zM281 725q0 -125 42 -234.5t117.5 -191.5t181 -129t232.5 -47t232.5 47 t181 129t117.5 191.5t42 234.5t-42 234.5t-117.5 191.5t-181 129t-232.5 47t-232.5 -47t-181 -129t-117.5 -191.5t-42 -234.5zM512 1577q6 39 21.5 78t41 68.5t60 48t82.5 18.5q47 0 89 -15.5t83 -31.5q31 -12 54 -23.5t56 -11.5q41 0 64.5 26.5t33.5 63.5h99 q-6 -39 -19.5 -77t-37 -68.5t-56.5 -49t-78 -18.5q-43 0 -85 13.5t-81 29.5q-31 12 -65.5 25.5t-69.5 13.5q-39 0 -61.5 -27.5t-32.5 -62.5h-98z" />
<glyph unicode="&#xd6;" horiz-adv-x="1708" d="M96 725q0 164 56.5 304t158 241.5t239.5 159t304 57.5t304 -57.5t239.5 -159t158 -241.5t56.5 -304t-56.5 -304t-158 -241.5t-239.5 -159t-304 -57.5t-304 57.5t-239.5 159t-158 241.5t-56.5 304zM281 725q0 -125 42 -234.5t117.5 -191.5t181 -129t232.5 -47t232.5 47 t181 129t117.5 191.5t42 234.5t-42 234.5t-117.5 191.5t-181 129t-232.5 47t-232.5 -47t-181 -129t-117.5 -191.5t-42 -234.5zM540 1688q0 45 32 77.5t79 32.5t79 -32.5t32 -77.5q0 -47 -32 -79t-79 -32t-79 31.5t-32 79.5zM946 1688q0 45 32 77.5t79 32.5t78.5 -32.5 t31.5 -77.5q0 -47 -31.5 -79t-78.5 -32t-79 31.5t-32 79.5z" />
<glyph unicode="&#xd7;" horiz-adv-x="1363" d="M188 223l396 398l-396 393l101 100l393 -395l395 395l99 -96l-398 -397l398 -394l-99 -100l-395 397l-395 -397z" />
<glyph unicode="&#xd8;" horiz-adv-x="1708" d="M96 725q0 164 56.5 304t158 241.5t239.5 159t304 57.5q137 0 255 -40t216 -114l162 178l86 -77l-162 -177q94 -100 147.5 -236t53.5 -296q0 -164 -56.5 -304t-158 -241.5t-239.5 -159t-304 -57.5q-143 0 -265 42t-218 120l-166 -180l-82 78l166 180q-92 102 -142.5 234 t-50.5 288zM281 725q0 -113 33.5 -212t95.5 -177l798 870q-72 57 -161 89t-193 32q-127 0 -232.5 -47t-181 -129t-117.5 -191.5t-42 -234.5zM489 254q72 -61 164 -96t201 -35q127 0 232.5 47t181 129t117.5 191.5t42 234.5q0 117 -35.5 219.5t-101.5 181.5z" />
<glyph unicode="&#xd9;" horiz-adv-x="1441" d="M174 553v897h172v-872q0 -88 18.5 -170t61.5 -145.5t114.5 -101.5t180.5 -38t180.5 38t114.5 101.5t61.5 145t18.5 170.5v872h172v-897q0 -119 -30 -225.5t-94.5 -187.5t-169 -129t-253.5 -48q-150 0 -254.5 48t-169 129t-94 187.5t-29.5 225.5zM424 1847h225l213 -295 h-145z" />
<glyph unicode="&#xda;" horiz-adv-x="1441" d="M174 553v897h172v-872q0 -88 18.5 -170t61.5 -145.5t114.5 -101.5t180.5 -38t180.5 38t114.5 101.5t61.5 145t18.5 170.5v872h172v-897q0 -119 -30 -225.5t-94.5 -187.5t-169 -129t-253.5 -48q-150 0 -254.5 48t-169 129t-94 187.5t-29.5 225.5zM579 1552l213 295h226 l-293 -295h-146z" />
<glyph unicode="&#xdb;" horiz-adv-x="1441" d="M174 553v897h172v-872q0 -88 18.5 -170t61.5 -145.5t114.5 -101.5t180.5 -38t180.5 38t114.5 101.5t61.5 145t18.5 170.5v872h172v-897q0 -119 -30 -225.5t-94.5 -187.5t-169 -129t-253.5 -48q-150 0 -254.5 48t-169 129t-94 187.5t-29.5 225.5zM399 1552l228 295h186 l229 -295h-166l-161 209l-160 -209h-156z" />
<glyph unicode="&#xdc;" horiz-adv-x="1441" d="M174 553v897h172v-872q0 -88 18.5 -170t61.5 -145.5t114.5 -101.5t180.5 -38t180.5 38t114.5 101.5t61.5 145t18.5 170.5v872h172v-897q0 -119 -30 -225.5t-94.5 -187.5t-169 -129t-253.5 -48q-150 0 -254.5 48t-169 129t-94 187.5t-29.5 225.5zM407 1688q0 45 32 77.5 t79 32.5t79 -32.5t32 -77.5q0 -47 -32 -79t-79 -32t-79 31.5t-32 79.5zM813 1688q0 45 32 77.5t79 32.5t78.5 -32.5t31.5 -77.5q0 -47 -31.5 -79t-78.5 -32t-79 31.5t-32 79.5z" />
<glyph unicode="&#xdd;" horiz-adv-x="1216" d="M-18 1450h219l407 -655l420 655h207l-541 -825v-625h-172v625zM466 1552l213 295h226l-293 -295h-146z" />
<glyph unicode="&#xde;" horiz-adv-x="1214" d="M180 0v1450h172v-256h258q100 0 191.5 -19.5t162 -65.5t112.5 -123t42 -189q0 -119 -45 -197t-115.5 -123t-154.5 -63.5t-160 -18.5h-291v-395h-172zM352 555h291q129 0 210 58.5t81 181.5t-81 181t-210 58h-291v-479z" />
<glyph unicode="&#xdf;" horiz-adv-x="1214" d="M152 0v1106q0 94 24.5 178t78.5 148.5t139 102.5t206 38q84 0 156.5 -24.5t127 -70.5t86 -114t31.5 -156q0 -117 -57 -200.5t-168 -122.5v-4q86 -8 150.5 -46t108.5 -97.5t66.5 -134.5t22.5 -157q0 -109 -36.5 -195.5t-102 -148t-156 -94.5t-194.5 -33q-33 0 -64.5 4.5 t-62.5 14.5v145q47 -16 106 -16q76 0 138.5 24.5t107.5 68.5t68.5 106.5t23.5 138.5q0 82 -26.5 146.5t-74.5 109.5t-114.5 68.5t-146.5 23.5h-47v135h45q111 0 182.5 65.5t71.5 180.5q0 111 -72 173t-178 62q-82 0 -136.5 -27.5t-86 -73.5t-45 -106.5t-13.5 -125.5v-1092 h-159z" />
<glyph unicode="&#xe0;" horiz-adv-x="1062" d="M96 260q0 119 61.5 186.5t152.5 100.5t196.5 41t193.5 8h62v29q0 104 -62.5 157.5t-175.5 53.5q-78 0 -152.5 -26t-131.5 -79l-101 105q74 76 175.5 111.5t205.5 35.5q213 0 307.5 -100.5t94.5 -304.5v-412q0 -41 4 -85t10 -81h-154q-8 33 -9 73t-1 70h-4 q-47 -74 -126 -121t-189 -47q-74 0 -138.5 18.5t-112.5 54.5t-77 89t-29 123zM236 1483h225l213 -295h-145zM268 276q0 -90 60.5 -127.5t150.5 -37.5q70 0 122 23.5t87 62.5t53.5 91t20.5 111v62h-160q-154 0 -244 -43t-90 -142z" />
<glyph unicode="&#xe1;" horiz-adv-x="1062" d="M96 260q0 119 61.5 186.5t152.5 100.5t196.5 41t193.5 8h62v29q0 104 -62.5 157.5t-175.5 53.5q-78 0 -152.5 -26t-131.5 -79l-101 105q74 76 175.5 111.5t205.5 35.5q213 0 307.5 -100.5t94.5 -304.5v-412q0 -41 4 -85t10 -81h-154q-8 33 -9 73t-1 70h-4 q-47 -74 -126 -121t-189 -47q-74 0 -138.5 18.5t-112.5 54.5t-77 89t-29 123zM268 276q0 -90 60.5 -127.5t150.5 -37.5q70 0 122 23.5t87 62.5t53.5 91t20.5 111v62h-160q-154 0 -244 -43t-90 -142zM391 1188l213 295h226l-293 -295h-146z" />
<glyph unicode="&#xe2;" horiz-adv-x="1062" d="M96 260q0 119 61.5 186.5t152.5 100.5t196.5 41t193.5 8h62v29q0 104 -62.5 157.5t-175.5 53.5q-78 0 -152.5 -26t-131.5 -79l-101 105q74 76 175.5 111.5t205.5 35.5q213 0 307.5 -100.5t94.5 -304.5v-412q0 -41 4 -85t10 -81h-154q-8 33 -9 73t-1 70h-4 q-47 -74 -126 -121t-189 -47q-74 0 -138.5 18.5t-112.5 54.5t-77 89t-29 123zM211 1188l228 295h186l229 -295h-166l-161 209l-160 -209h-156zM268 276q0 -90 60.5 -127.5t150.5 -37.5q70 0 122 23.5t87 62.5t53.5 91t20.5 111v62h-160q-154 0 -244 -43t-90 -142z" />
<glyph unicode="&#xe3;" horiz-adv-x="1062" d="M96 260q0 119 61.5 186.5t152.5 100.5t196.5 41t193.5 8h62v29q0 104 -62.5 157.5t-175.5 53.5q-78 0 -152.5 -26t-131.5 -79l-101 105q74 76 175.5 111.5t205.5 35.5q213 0 307.5 -100.5t94.5 -304.5v-412q0 -41 4 -85t10 -81h-154q-8 33 -9 73t-1 70h-4 q-47 -74 -126 -121t-189 -47q-74 0 -138.5 18.5t-112.5 54.5t-77 89t-29 123zM191 1213q6 39 21.5 77.5t41 68.5t61 48.5t81.5 18.5q47 0 89 -15.5t83 -31.5q31 -12 54 -23.5t56 -11.5q41 0 64.5 26.5t33.5 63.5h99q-6 -39 -19.5 -77t-37 -68.5t-56.5 -49t-78 -18.5 q-43 0 -85 13t-81 30q-31 12 -65.5 25.5t-69.5 13.5q-39 0 -61.5 -28t-32.5 -62h-98zM268 276q0 -90 60.5 -127.5t150.5 -37.5q70 0 122 23.5t87 62.5t53.5 91t20.5 111v62h-160q-154 0 -244 -43t-90 -142z" />
<glyph unicode="&#xe4;" horiz-adv-x="1062" d="M96 260q0 119 61.5 186.5t152.5 100.5t196.5 41t193.5 8h62v29q0 104 -62.5 157.5t-175.5 53.5q-78 0 -152.5 -26t-131.5 -79l-101 105q74 76 175.5 111.5t205.5 35.5q213 0 307.5 -100.5t94.5 -304.5v-412q0 -41 4 -85t10 -81h-154q-8 33 -9 73t-1 70h-4 q-47 -74 -126 -121t-189 -47q-74 0 -138.5 18.5t-112.5 54.5t-77 89t-29 123zM219 1323q0 45 32 78t79 33t79 -33t32 -78q0 -47 -32 -78.5t-79 -31.5t-79 31.5t-32 78.5zM268 276q0 -90 60.5 -127.5t150.5 -37.5q70 0 122 23.5t87 62.5t53.5 91t20.5 111v62h-160 q-154 0 -244 -43t-90 -142zM625 1323q0 45 32 78t79 33t78.5 -33t31.5 -78q0 -47 -31.5 -78.5t-78.5 -31.5t-79 31.5t-32 78.5z" />
<glyph unicode="&#xe5;" horiz-adv-x="1062" d="M96 260q0 119 61.5 186.5t152.5 100.5t196.5 41t193.5 8h62v29q0 104 -62.5 157.5t-175.5 53.5q-78 0 -152.5 -26t-131.5 -79l-101 105q74 76 175.5 111.5t205.5 35.5q213 0 307.5 -100.5t94.5 -304.5v-412q0 -41 4 -85t10 -81h-154q-8 33 -9 73t-1 70h-4 q-47 -74 -126 -121t-189 -47q-74 0 -138.5 18.5t-112.5 54.5t-77 89t-29 123zM268 276q0 -90 60.5 -127.5t150.5 -37.5q70 0 122 23.5t87 62.5t53.5 91t20.5 111v62h-160q-154 0 -244 -43t-90 -142zM330 1354q0 41 15.5 78t42 64.5t64.5 44t81 16.5q90 0 146.5 -60.5 t56.5 -142.5q0 -84 -57.5 -143.5t-145.5 -59.5t-145.5 59.5t-57.5 143.5zM416 1354q0 -51 36 -84t81 -33t80.5 33t35.5 84q0 49 -35.5 83t-80.5 34t-81 -34t-36 -83z" />
<glyph unicode="&#xe6;" horiz-adv-x="1744" d="M96 264q0 98 46 157.5t117 91.5t155 42t161 10h197v25q0 104 -58.5 175t-181.5 71q-88 0 -151.5 -24t-128.5 -71l-102 107q78 68 178 101.5t204 33.5q98 0 188.5 -36t143.5 -126q84 88 168 125t172 37q100 0 184.5 -34t144.5 -98.5t93 -157.5t33 -212v-51h-739 q0 -63 21.5 -118.5t58 -97.5t88 -66.5t110.5 -24.5q104 0 176 37t129 108l121 -94q-86 -111 -188.5 -155t-237.5 -44q-70 0 -128 18.5t-104 48.5t-80 66.5t-52 73.5q-57 -115 -159 -161t-224 -46q-61 0 -125 16.5t-115 51.5t-83 89t-32 132zM268 270q0 -41 19.5 -68.5 t52.5 -45t72 -25.5t80 -8q125 0 202.5 78t77.5 202v27h-240q-43 0 -89 -7t-85 -24.5t-64.5 -48.5t-25.5 -80zM920 565h567q-4 123 -80 197t-209 74q-59 0 -109.5 -24t-87 -61.5t-58 -87t-23.5 -98.5z" />
<glyph unicode="&#xe7;" horiz-adv-x="987" d="M96 479q0 109 36 201t101.5 159.5t156.5 105.5t202 38q106 0 201.5 -37t167.5 -115l-127 -112q-51 61 -110.5 89t-131.5 28q-80 0 -141.5 -28t-101.5 -77t-60.5 -113.5t-20.5 -138.5t23.5 -138.5t65.5 -113.5t101.5 -76.5t133.5 -27.5q158 0 244 119l118 -113 q-63 -72 -147 -108.5t-178 -40.5l-78 -111q14 2 30.5 5t41.5 3q27 0 55.5 -8t53 -25.5t39.5 -44t15 -63.5q0 -49 -21.5 -84t-56 -56.5t-77.5 -30.5t-84 -9q-53 0 -104.5 10t-98.5 33l35 75q72 -33 147 -32q20 0 42 4t40.5 13t30.5 25.5t12 41.5q0 43 -35.5 60t-70.5 17 q-20 0 -41 -5t-39 -11l-41 39l113 156q-100 8 -181.5 48t-138.5 105.5t-89 152.5t-32 191z" />
<glyph unicode="&#xe8;" d="M96 479q0 111 37 204t102.5 159.5t155.5 103.5t197 37q100 0 184 -34t144.5 -98.5t93 -157.5t32.5 -212v-51h-774q4 -61 30 -117.5t67 -98.5t96 -66.5t121 -24.5q104 0 175.5 37t129.5 108l121 -94q-86 -111 -188.5 -155t-237.5 -44q-113 0 -203 40t-152.5 107.5 t-96.5 160t-34 196.5zM268 565h602q-4 123 -79.5 197t-208.5 74t-215 -74t-99 -197zM273 1483h225l213 -295h-145z" />
<glyph unicode="&#xe9;" d="M96 479q0 111 37 204t102.5 159.5t155.5 103.5t197 37q100 0 184 -34t144.5 -98.5t93 -157.5t32.5 -212v-51h-774q4 -61 30 -117.5t67 -98.5t96 -66.5t121 -24.5q104 0 175.5 37t129.5 108l121 -94q-86 -111 -188.5 -155t-237.5 -44q-113 0 -203 40t-152.5 107.5 t-96.5 160t-34 196.5zM268 565h602q-4 123 -79.5 197t-208.5 74t-215 -74t-99 -197zM428 1188l213 295h226l-293 -295h-146z" />
<glyph unicode="&#xea;" d="M96 479q0 111 37 204t102.5 159.5t155.5 103.5t197 37q100 0 184 -34t144.5 -98.5t93 -157.5t32.5 -212v-51h-774q4 -61 30 -117.5t67 -98.5t96 -66.5t121 -24.5q104 0 175.5 37t129.5 108l121 -94q-86 -111 -188.5 -155t-237.5 -44q-113 0 -203 40t-152.5 107.5 t-96.5 160t-34 196.5zM248 1188l228 295h186l229 -295h-166l-161 209l-160 -209h-156zM268 565h602q-4 123 -79.5 197t-208.5 74t-215 -74t-99 -197z" />
<glyph unicode="&#xeb;" d="M96 479q0 111 37 204t102.5 159.5t155.5 103.5t197 37q100 0 184 -34t144.5 -98.5t93 -157.5t32.5 -212v-51h-774q4 -61 30 -117.5t67 -98.5t96 -66.5t121 -24.5q104 0 175.5 37t129.5 108l121 -94q-86 -111 -188.5 -155t-237.5 -44q-113 0 -203 40t-152.5 107.5 t-96.5 160t-34 196.5zM256 1323q0 45 32 78t79 33t79 -33t32 -78q0 -47 -32 -78.5t-79 -31.5t-79 31.5t-32 78.5zM268 565h602q-4 123 -79.5 197t-208.5 74t-215 -74t-99 -197zM662 1323q0 45 32 78t79 33t78.5 -33t31.5 -78q0 -47 -31.5 -78.5t-78.5 -31.5t-79 31.5 t-32 78.5z" />
<glyph unicode="&#xec;" horiz-adv-x="491" d="M-51 1483h225l213 -295h-145zM166 0v958h160v-958h-160z" />
<glyph unicode="&#xed;" horiz-adv-x="491" d="M104 1188l213 295h226l-293 -295h-146zM166 0v958h160v-958h-160z" />
<glyph unicode="&#xee;" horiz-adv-x="491" d="M-76 1188l228 295h186l229 -295h-166l-161 209l-160 -209h-156zM166 0v958h160v-958h-160z" />
<glyph unicode="&#xef;" horiz-adv-x="491" d="M-68 1323q0 45 32 78t79 33t79 -33t32 -78q0 -47 -32 -78.5t-79 -31.5t-79 31.5t-32 78.5zM166 0v958h160v-958h-160zM338 1323q0 45 32 78t79 33t78.5 -33t31.5 -78q0 -47 -31.5 -78.5t-78.5 -31.5t-79 31.5t-32 78.5z" />
<glyph unicode="&#xf0;" horiz-adv-x="1216" d="M96 479q0 113 39 205t106.5 158.5t162 103.5t204.5 37q78 0 146.5 -24.5t119.5 -75.5l3 4q-57 106 -138.5 202.5t-171.5 186.5l-219 -111l-86 84l217 109q-41 41 -88 81t-92 74l141 82q45 -37 95.5 -79.5t91.5 -83.5l219 110l94 -80l-227 -114q82 -78 155.5 -162 t130 -181.5t89 -212t32.5 -249.5q0 -125 -31.5 -229.5t-95 -179.5t-160 -117t-225.5 -42q-111 0 -205 37t-161.5 103.5t-106.5 159t-39 204.5zM268 479q0 -76 23.5 -140.5t69 -112.5t107.5 -75.5t140 -27.5t140.5 27.5t107.5 75.5t68.5 112.5t23.5 140.5t-23.5 140.5 t-68.5 112.5t-107.5 76t-140.5 28t-140 -28t-107.5 -76t-69 -112.5t-23.5 -140.5z" />
<glyph unicode="&#xf1;" d="M143 958h152q0 -39 2 -77.5t2 -79.5h4q16 35 46 67.5t71 58t92 41t111 15.5q94 0 162.5 -28.5t113.5 -80t66.5 -124t21.5 -158.5v-592h-160v575q0 121 -53 191t-166 70q-78 0 -134 -27t-92 -76t-53.5 -116.5t-17.5 -149.5v-467h-159v731q0 66 -4.5 123t-4.5 104z M228 1213q6 39 21.5 77.5t41 68.5t61 48.5t81.5 18.5q47 0 89 -15.5t83 -31.5q31 -12 54 -23.5t56 -11.5q41 0 64.5 26.5t33.5 63.5h99q-6 -39 -19.5 -77t-37 -68.5t-56.5 -49t-78 -18.5q-43 0 -85 13t-81 30q-31 12 -65.5 25.5t-69.5 13.5q-39 0 -61.5 -28t-32.5 -62h-98z " />
<glyph unicode="&#xf2;" horiz-adv-x="1216" d="M96 479q0 113 39 205t106.5 158.5t162 103.5t204.5 37q111 0 205 -37t161.5 -103.5t106.5 -158.5t39 -205t-39 -205t-106.5 -158.5t-161.5 -103.5t-205 -37t-205 37t-161.5 103.5t-106.5 158.5t-39 205zM268 479q0 -76 23.5 -140.5t69 -112.5t107.5 -75.5t140 -27.5 t140.5 27.5t107.5 75.5t68.5 112.5t23.5 140.5t-23.5 140.5t-68.5 112.5t-107.5 76t-140.5 28t-140 -28t-107.5 -76t-69 -112.5t-23.5 -140.5zM311 1483h225l213 -295h-145z" />
<glyph unicode="&#xf3;" horiz-adv-x="1216" d="M96 479q0 113 39 205t106.5 158.5t162 103.5t204.5 37q111 0 205 -37t161.5 -103.5t106.5 -158.5t39 -205t-39 -205t-106.5 -158.5t-161.5 -103.5t-205 -37t-205 37t-161.5 103.5t-106.5 158.5t-39 205zM268 479q0 -76 23.5 -140.5t69 -112.5t107.5 -75.5t140 -27.5 t140.5 27.5t107.5 75.5t68.5 112.5t23.5 140.5t-23.5 140.5t-68.5 112.5t-107.5 76t-140.5 28t-140 -28t-107.5 -76t-69 -112.5t-23.5 -140.5zM466 1188l213 295h226l-293 -295h-146z" />
<glyph unicode="&#xf4;" horiz-adv-x="1216" d="M96 479q0 113 39 205t106.5 158.5t162 103.5t204.5 37q111 0 205 -37t161.5 -103.5t106.5 -158.5t39 -205t-39 -205t-106.5 -158.5t-161.5 -103.5t-205 -37t-205 37t-161.5 103.5t-106.5 158.5t-39 205zM268 479q0 -76 23.5 -140.5t69 -112.5t107.5 -75.5t140 -27.5 t140.5 27.5t107.5 75.5t68.5 112.5t23.5 140.5t-23.5 140.5t-68.5 112.5t-107.5 76t-140.5 28t-140 -28t-107.5 -76t-69 -112.5t-23.5 -140.5zM286 1188l228 295h186l229 -295h-166l-161 209l-160 -209h-156z" />
<glyph unicode="&#xf5;" horiz-adv-x="1216" d="M96 479q0 113 39 205t106.5 158.5t162 103.5t204.5 37q111 0 205 -37t161.5 -103.5t106.5 -158.5t39 -205t-39 -205t-106.5 -158.5t-161.5 -103.5t-205 -37t-205 37t-161.5 103.5t-106.5 158.5t-39 205zM266 1213q6 39 21.5 77.5t41 68.5t61 48.5t81.5 18.5 q47 0 89 -15.5t83 -31.5q31 -12 54 -23.5t56 -11.5q41 0 64.5 26.5t33.5 63.5h99q-6 -39 -19.5 -77t-37 -68.5t-56.5 -49t-78 -18.5q-43 0 -85 13t-81 30q-31 12 -65.5 25.5t-69.5 13.5q-39 0 -61.5 -28t-32.5 -62h-98zM268 479q0 -76 23.5 -140.5t69 -112.5t107.5 -75.5 t140 -27.5t140.5 27.5t107.5 75.5t68.5 112.5t23.5 140.5t-23.5 140.5t-68.5 112.5t-107.5 76t-140.5 28t-140 -28t-107.5 -76t-69 -112.5t-23.5 -140.5z" />
<glyph unicode="&#xf6;" horiz-adv-x="1216" d="M96 479q0 113 39 205t106.5 158.5t162 103.5t204.5 37q111 0 205 -37t161.5 -103.5t106.5 -158.5t39 -205t-39 -205t-106.5 -158.5t-161.5 -103.5t-205 -37t-205 37t-161.5 103.5t-106.5 158.5t-39 205zM268 479q0 -76 23.5 -140.5t69 -112.5t107.5 -75.5t140 -27.5 t140.5 27.5t107.5 75.5t68.5 112.5t23.5 140.5t-23.5 140.5t-68.5 112.5t-107.5 76t-140.5 28t-140 -28t-107.5 -76t-69 -112.5t-23.5 -140.5zM294 1323q0 45 32 78t79 33t79 -33t32 -78q0 -47 -32 -78.5t-79 -31.5t-79 31.5t-32 78.5zM700 1323q0 45 32 78t79 33t78.5 -33 t31.5 -78q0 -47 -31.5 -78.5t-78.5 -31.5t-79 31.5t-32 78.5z" />
<glyph unicode="&#xf7;" horiz-adv-x="1363" d="M147 553v135h1070v-135h-1070zM565 283q0 49 35 82.5t82 33.5t82 -34.5t35 -81.5q0 -49 -35 -83t-82 -34t-82 35t-35 82zM565 958q0 49 35 83t82 34t82 -34.5t35 -82.5q0 -49 -35 -82.5t-82 -33.5t-82 34.5t-35 81.5z" />
<glyph unicode="&#xf8;" horiz-adv-x="1216" d="M76 4l139 143q-57 63 -88 147.5t-31 184.5q0 113 39 205t106.5 158.5t162 103.5t204.5 37q96 0 178 -27.5t148 -76.5l137 141l70 -66l-137 -141q55 -66 85.5 -149.5t30.5 -184.5q0 -113 -39 -205t-106.5 -158.5t-161.5 -103.5t-205 -37q-96 0 -178 28t-145 79l-140 -143z M268 479q0 -125 64 -213l489 498q-41 35 -95 53.5t-118 18.5q-78 0 -140 -28t-107.5 -76t-69 -112.5t-23.5 -140.5zM395 195q84 -72 213 -72q78 0 140.5 27.5t107.5 75.5t68.5 112.5t23.5 140.5q0 125 -63 213z" />
<glyph unicode="&#xf9;" d="M152 367v591h159v-575q0 -121 53.5 -190.5t165.5 -69.5q78 0 134.5 26.5t92.5 75.5t53 117t17 150v466h160v-731q0 -66 4 -123t4 -104h-151q0 39 -2 78t-2 80h-4q-16 -35 -46 -68t-71 -58.5t-92.5 -41t-110.5 -15.5q-94 0 -162.5 29t-113.5 80t-66.5 124t-21.5 159z M273 1483h225l213 -295h-145z" />
<glyph unicode="&#xfa;" d="M152 367v591h159v-575q0 -121 53.5 -190.5t165.5 -69.5q78 0 134.5 26.5t92.5 75.5t53 117t17 150v466h160v-731q0 -66 4 -123t4 -104h-151q0 39 -2 78t-2 80h-4q-16 -35 -46 -68t-71 -58.5t-92.5 -41t-110.5 -15.5q-94 0 -162.5 29t-113.5 80t-66.5 124t-21.5 159z M428 1188l213 295h226l-293 -295h-146z" />
<glyph unicode="&#xfb;" d="M152 367v591h159v-575q0 -121 53.5 -190.5t165.5 -69.5q78 0 134.5 26.5t92.5 75.5t53 117t17 150v466h160v-731q0 -66 4 -123t4 -104h-151q0 39 -2 78t-2 80h-4q-16 -35 -46 -68t-71 -58.5t-92.5 -41t-110.5 -15.5q-94 0 -162.5 29t-113.5 80t-66.5 124t-21.5 159z M248 1188l228 295h186l229 -295h-166l-161 209l-160 -209h-156z" />
<glyph unicode="&#xfc;" d="M152 367v591h159v-575q0 -121 53.5 -190.5t165.5 -69.5q78 0 134.5 26.5t92.5 75.5t53 117t17 150v466h160v-731q0 -66 4 -123t4 -104h-151q0 39 -2 78t-2 80h-4q-16 -35 -46 -68t-71 -58.5t-92.5 -41t-110.5 -15.5q-94 0 -162.5 29t-113.5 80t-66.5 124t-21.5 159z M256 1323q0 45 32 78t79 33t79 -33t32 -78q0 -47 -32 -78.5t-79 -31.5t-79 31.5t-32 78.5zM662 1323q0 45 32 78t79 33t78.5 -33t31.5 -78q0 -47 -31.5 -78.5t-78.5 -31.5t-79 31.5t-32 78.5z" />
<glyph unicode="&#xfd;" horiz-adv-x="987" d="M20 958h187l297 -751h4l285 751h174l-463 -1177q-25 -61 -50.5 -111.5t-61.5 -86.5t-86 -55.5t-122 -19.5q-35 0 -72.5 4.5t-70.5 20.5l20 139q25 -10 51.5 -13t61.5 -3q78 0 115 43t63 115l66 180zM352 1188l213 295h226l-293 -295h-146z" />
<glyph unicode="&#xfe;" horiz-adv-x="1251" d="M143 -467v2015h160v-729h4q66 78 153 121t191 43q113 0 206 -38t158.5 -105.5t102.5 -159.5t37 -201t-37 -201t-101.5 -159.5t-152.5 -105.5t-188 -38q-129 0 -226.5 56.5t-142.5 138.5h-4v-637h-160zM303 479q0 -76 23.5 -140.5t68.5 -112.5t107.5 -75.5t140.5 -27.5 t140.5 27.5t107.5 75.5t68.5 112.5t23.5 140.5t-23.5 140.5t-68.5 112.5t-107.5 76t-140.5 28t-140.5 -28t-107.5 -76t-68.5 -112.5t-23.5 -140.5z" />
<glyph unicode="&#xff;" horiz-adv-x="987" d="M20 958h187l297 -751h4l285 751h174l-463 -1177q-25 -61 -50.5 -111.5t-61.5 -86.5t-86 -55.5t-122 -19.5q-35 0 -72.5 4.5t-70.5 20.5l20 139q25 -10 51.5 -13t61.5 -3q78 0 115 43t63 115l66 180zM180 1323q0 45 32 78t79 33t79 -33t32 -78q0 -47 -32 -78.5t-79 -31.5 t-79 31.5t-32 78.5zM586 1323q0 45 32 78t79 33t78.5 -33t31.5 -78q0 -47 -31.5 -78.5t-78.5 -31.5t-79 31.5t-32 78.5z" />
<glyph unicode="&#x100;" horiz-adv-x="1441" d="M12 0l639 1450h162l617 -1450h-201l-148 356h-725l-149 -356h-195zM424 516h592l-287 713h-4zM444 1626v123h565v-123h-565z" />
<glyph unicode="&#x101;" horiz-adv-x="1062" d="M96 260q0 119 61.5 186.5t152.5 100.5t196.5 41t193.5 8h62v29q0 104 -62.5 157.5t-175.5 53.5q-78 0 -152.5 -26t-131.5 -79l-101 105q74 76 175.5 111.5t205.5 35.5q213 0 307.5 -100.5t94.5 -304.5v-412q0 -41 4 -85t10 -81h-154q-8 33 -9 73t-1 70h-4 q-47 -74 -126 -121t-189 -47q-74 0 -138.5 18.5t-112.5 54.5t-77 89t-29 123zM252 1229v123h565v-123h-565zM268 276q0 -90 60.5 -127.5t150.5 -37.5q70 0 122 23.5t87 62.5t53.5 91t20.5 111v62h-160q-154 0 -244 -43t-90 -142z" />
<glyph unicode="&#x102;" horiz-adv-x="1441" d="M12 0l639 1450h162l617 -1450h-201l-148 356h-725l-149 -356h-195zM415 1835h101q16 -80 74.5 -120t136.5 -40q92 0 143 34t74 126h98q-14 -135 -99 -202.5t-216 -67.5q-129 0 -216 67.5t-96 202.5zM424 516h592l-287 713h-4z" />
<glyph unicode="&#x103;" horiz-adv-x="1062" d="M96 260q0 119 61.5 186.5t152.5 100.5t196.5 41t193.5 8h62v29q0 104 -62.5 157.5t-175.5 53.5q-78 0 -152.5 -26t-131.5 -79l-101 105q74 76 175.5 111.5t205.5 35.5q213 0 307.5 -100.5t94.5 -304.5v-412q0 -41 4 -85t10 -81h-154q-8 33 -9 73t-1 70h-4 q-47 -74 -126 -121t-189 -47q-74 0 -138.5 18.5t-112.5 54.5t-77 89t-29 123zM198 1438h101q16 -80 74.5 -120t136.5 -40q90 0 142 35t75 125h98q-14 -135 -99 -203t-216 -68q-129 0 -216 68t-96 203zM268 276q0 -90 60.5 -127.5t150.5 -37.5q70 0 122 23.5t87 62.5t53.5 91 t20.5 111v62h-160q-154 0 -244 -43t-90 -142z" />
<glyph unicode="&#x104;" horiz-adv-x="1441" d="M12 0l639 1450h162l617 -1450h-97q-23 -16 -50.5 -41t-51 -55.5t-38.5 -66.5t-15 -73q0 -41 24.5 -68.5t73.5 -25.5q27 0 55.5 11.5t46.5 29.5l43 -84q-39 -37 -87 -58.5t-101 -21.5q-37 0 -72 12.5t-61.5 36t-42 55.5t-15.5 70q0 43 17.5 84t44 78t59.5 67t66 50 l-148 356h-725l-149 -356h-195zM424 516h592l-287 713h-4z" />
<glyph unicode="&#x105;" horiz-adv-x="1062" d="M96 260q0 119 61.5 186.5t152.5 100.5t196.5 41t193.5 8h62v29q0 104 -62.5 157.5t-175.5 53.5q-78 0 -152.5 -26t-131.5 -79l-101 105q74 76 175.5 111.5t205.5 35.5q215 0 308.5 -100.5t93.5 -304.5v-412q0 -41 4 -85t10 -81h-47q-23 -16 -50.5 -41t-51 -55.5 t-39 -66.5t-15.5 -73q0 -41 24.5 -68.5t73.5 -25.5q27 0 55.5 11.5t47.5 29.5l43 -84q-39 -37 -87 -58.5t-102 -21.5q-37 0 -71.5 12.5t-61 36t-42 55.5t-15.5 70q0 43 17.5 84t44 78t59.5 67t65 50h-2q-8 33 -9 73t-1 70h-4q-47 -74 -126 -121t-189 -47q-74 0 -138.5 18.5 t-112.5 54.5t-77 89t-29 123zM268 276q0 -90 60.5 -127.5t150.5 -37.5q70 0 122 23.5t87 62.5t53.5 91t20.5 111v62h-160q-154 0 -244 -43t-90 -142z" />
<glyph unicode="&#x106;" horiz-adv-x="1441" d="M96 725q0 160 54.5 299t152.5 241.5t233.5 162t297.5 59.5q147 0 283 -53.5t229 -173.5l-150 -109q-66 88 -162 132t-200 44q-121 0 -222.5 -49t-175.5 -132t-114.5 -192.5t-40.5 -228.5q0 -127 40.5 -236.5t113.5 -190.5t174.5 -128t224.5 -47q133 0 237.5 52t181.5 151 l129 -109q-98 -131 -236 -192.5t-312 -61.5q-156 0 -291 57.5t-234.5 159t-156 240.5t-56.5 305zM655 1552l213 295h226l-293 -295h-146z" />
<glyph unicode="&#x107;" horiz-adv-x="987" d="M96 479q0 109 36 201t101.5 159.5t156.5 105.5t202 38q106 0 201.5 -37t167.5 -115l-127 -112q-51 61 -110.5 89t-131.5 28q-80 0 -141.5 -28t-101.5 -77t-60.5 -113.5t-20.5 -138.5t23.5 -138.5t65.5 -113.5t101.5 -76.5t133.5 -27.5q158 0 244 119l118 -113 q-70 -80 -164 -117t-198 -37q-111 0 -203 37t-156.5 104.5t-100.5 160t-36 202.5zM462 1155l213 295h226l-293 -295h-146z" />
<glyph unicode="&#x108;" horiz-adv-x="1441" d="M96 725q0 160 54.5 299t152.5 241.5t233.5 162t297.5 59.5q147 0 283 -53.5t229 -173.5l-150 -109q-66 88 -162 132t-200 44q-121 0 -222.5 -49t-175.5 -132t-114.5 -192.5t-40.5 -228.5q0 -127 40.5 -236.5t113.5 -190.5t174.5 -128t224.5 -47q133 0 237.5 52t181.5 151 l129 -109q-98 -131 -236 -192.5t-312 -61.5q-156 0 -291 57.5t-234.5 159t-156 240.5t-56.5 305zM532 1552l228 295h186l229 -295h-166l-161 209l-160 -209h-156z" />
<glyph unicode="&#x109;" horiz-adv-x="987" d="M96 479q0 109 36 201t101.5 159.5t156.5 105.5t202 38q106 0 201.5 -37t167.5 -115l-127 -112q-51 61 -110.5 89t-131.5 28q-80 0 -141.5 -28t-101.5 -77t-60.5 -113.5t-20.5 -138.5t23.5 -138.5t65.5 -113.5t101.5 -76.5t133.5 -27.5q158 0 244 119l118 -113 q-70 -80 -164 -117t-198 -37q-111 0 -203 37t-156.5 104.5t-100.5 160t-36 202.5zM260 1155l228 295h186l229 -295h-166l-161 209l-160 -209h-156z" />
<glyph unicode="&#x10a;" horiz-adv-x="1441" d="M96 725q0 160 54.5 299t152.5 241.5t233.5 162t297.5 59.5q147 0 283 -53.5t229 -173.5l-150 -109q-66 88 -162 132t-200 44q-121 0 -222.5 -49t-175.5 -132t-114.5 -192.5t-40.5 -228.5q0 -127 40.5 -236.5t113.5 -190.5t174.5 -128t224.5 -47q133 0 237.5 52t181.5 151 l129 -109q-98 -131 -236 -192.5t-312 -61.5q-156 0 -291 57.5t-234.5 159t-156 240.5t-56.5 305zM702 1688q0 45 32 77.5t79 32.5t78.5 -32.5t31.5 -77.5q0 -47 -31.5 -79t-78.5 -32t-79 31.5t-32 79.5z" />
<glyph unicode="&#x10b;" horiz-adv-x="987" d="M96 479q0 109 36 201t101.5 159.5t156.5 105.5t202 38q106 0 201.5 -37t167.5 -115l-127 -112q-51 61 -110.5 89t-131.5 28q-80 0 -141.5 -28t-101.5 -77t-60.5 -113.5t-20.5 -138.5t23.5 -138.5t65.5 -113.5t101.5 -76.5t133.5 -27.5q158 0 244 119l118 -113 q-70 -80 -164 -117t-198 -37q-111 0 -203 37t-156.5 104.5t-100.5 160t-36 202.5zM477 1290q0 45 32 78t79 33t78.5 -33t31.5 -78q0 -47 -31.5 -78.5t-78.5 -31.5t-79 31.5t-32 78.5z" />
<glyph unicode="&#x10c;" horiz-adv-x="1441" d="M96 725q0 160 54.5 299t152.5 241.5t233.5 162t297.5 59.5q147 0 283 -53.5t229 -173.5l-150 -109q-66 88 -162 132t-200 44q-121 0 -222.5 -49t-175.5 -132t-114.5 -192.5t-40.5 -228.5q0 -127 40.5 -236.5t113.5 -190.5t174.5 -128t224.5 -47q133 0 237.5 52t181.5 151 l129 -109q-98 -131 -236 -192.5t-312 -61.5q-156 0 -291 57.5t-234.5 159t-156 240.5t-56.5 305zM534 1847h166l160 -209l158 209h155l-225 -295h-186z" />
<glyph unicode="&#x10d;" horiz-adv-x="987" d="M96 479q0 109 36 201t101.5 159.5t156.5 105.5t202 38q106 0 201.5 -37t167.5 -115l-127 -112q-51 61 -110.5 89t-131.5 28q-80 0 -141.5 -28t-101.5 -77t-60.5 -113.5t-20.5 -138.5t23.5 -138.5t65.5 -113.5t101.5 -76.5t133.5 -27.5q158 0 244 119l118 -113 q-70 -80 -164 -117t-198 -37q-111 0 -203 37t-156.5 104.5t-100.5 160t-36 202.5zM276 1450h166l160 -209l158 209h155l-225 -295h-186z" />
<glyph unicode="&#x10e;" horiz-adv-x="1517" d="M154 0v1450h557q72 0 151.5 -16.5t158.5 -52t151.5 -93t128 -138.5t88 -186.5t32.5 -238.5t-32.5 -238.5t-88 -186.5t-128 -138.5t-151.5 -93t-159 -52t-151 -16.5h-557zM309 1847h166l160 -209l158 209h155l-225 -295h-186zM326 160h327q125 0 231.5 32.5t184.5 101 t123 175t45 256.5t-45 256t-123 175t-184.5 101.5t-231.5 32.5h-327v-1130z" />
<glyph unicode="&#x10f;" horiz-adv-x="1251" d="M96 479q0 109 37 201t102.5 159.5t158.5 105.5t206 38q104 0 191.5 -43t152.5 -121h4v729h160v-1548h-160v170h-4q-45 -82 -142 -138.5t-227 -56.5q-100 0 -188 38t-152.5 105.5t-101.5 160t-37 200.5zM268 479q0 -76 23.5 -140.5t69 -112.5t107.5 -75.5t140 -27.5 t140.5 27.5t107.5 75.5t68.5 112.5t23.5 140.5t-23.5 140.5t-68.5 112.5t-107.5 76t-140.5 28t-140 -28t-107.5 -76t-69 -112.5t-23.5 -140.5zM1269 1087l107 363h176l-148 -363h-135z" />
<glyph unicode="&#x110;" horiz-adv-x="1517" d="M6 688v135h148v627h557q72 0 151.5 -16.5t158.5 -52t151.5 -93t128 -138.5t88 -186.5t32.5 -238.5t-32.5 -238.5t-88 -186.5t-128 -138.5t-151.5 -93t-159 -52t-151 -16.5h-557v688h-148zM326 160h327q125 0 231.5 32.5t184.5 101t123 175t45 256.5t-45 256t-123 175 t-184.5 101.5t-231.5 32.5h-327v-467h516v-135h-516v-528z" />
<glyph unicode="&#x111;" horiz-adv-x="1251" d="M96 479q0 109 37 201t102.5 159.5t158.5 105.5t206 38q104 0 191.5 -43t152.5 -121h4v348h-258v123h258v258h160v-258h147v-123h-147v-1167h-160v170h-4q-45 -82 -142 -138.5t-227 -56.5q-102 0 -189 38t-151.5 105.5t-101.5 160t-37 200.5zM268 479q0 -76 23.5 -140.5 t69 -112.5t107.5 -75.5t140 -27.5t140.5 27.5t107.5 75.5t68.5 112.5t23.5 140.5t-23.5 140.5t-68.5 112.5t-107.5 76t-140.5 28t-140 -28t-107.5 -76t-69 -112.5t-23.5 -140.5z" />
<glyph unicode="&#x112;" horiz-adv-x="1214" d="M180 0v1450h912v-160h-740v-454h690v-160h-690v-516h776v-160h-948zM369 1626v123h565v-123h-565z" />
<glyph unicode="&#x113;" d="M96 479q0 111 37 204t102.5 159.5t155.5 103.5t197 37q100 0 184 -34t144.5 -98.5t93 -157.5t32.5 -212v-51h-774q4 -61 30 -117.5t67 -98.5t96 -66.5t121 -24.5q104 0 175.5 37t129.5 108l121 -94q-86 -111 -188.5 -155t-237.5 -44q-113 0 -203 40t-152.5 107.5 t-96.5 160t-34 196.5zM268 565h602q-4 123 -79.5 197t-208.5 74t-215 -74t-99 -197zM295 1229v123h565v-123h-565z" />
<glyph unicode="&#x114;" horiz-adv-x="1214" d="M180 0v1450h912v-160h-740v-454h690v-160h-690v-516h776v-160h-948zM342 1835h101q16 -80 74.5 -120t136.5 -40q92 0 143 34t74 126h98q-14 -135 -99 -202.5t-216 -67.5q-129 0 -216 67.5t-96 202.5z" />
<glyph unicode="&#x115;" d="M96 479q0 111 37 204t102.5 159.5t155.5 103.5t197 37q100 0 184 -34t144.5 -98.5t93 -157.5t32.5 -212v-51h-774q4 -61 30 -117.5t67 -98.5t96 -66.5t121 -24.5q104 0 175.5 37t129.5 108l121 -94q-86 -111 -188.5 -155t-237.5 -44q-113 0 -203 40t-152.5 107.5 t-96.5 160t-34 196.5zM264 1438h101q16 -80 74.5 -120t136.5 -40q90 0 142 35t75 125h98q-14 -135 -99 -203t-216 -68q-129 0 -216 68t-96 203zM268 565h602q-4 123 -79.5 197t-208.5 74t-215 -74t-99 -197z" />
<glyph unicode="&#x116;" horiz-adv-x="1214" d="M180 0v1450h912v-160h-740v-454h690v-160h-690v-516h776v-160h-948zM543 1688q0 45 32 77.5t79 32.5t78.5 -32.5t31.5 -77.5q0 -47 -31.5 -79t-78.5 -32t-79 31.5t-32 79.5z" />
<glyph unicode="&#x117;" d="M96 479q0 111 37 204t102.5 159.5t155.5 103.5t197 37q100 0 184 -34t144.5 -98.5t93 -157.5t32.5 -212v-51h-774q4 -61 30 -117.5t67 -98.5t96 -66.5t121 -24.5q104 0 175.5 37t129.5 108l121 -94q-86 -111 -188.5 -155t-237.5 -44q-113 0 -203 40t-152.5 107.5 t-96.5 160t-34 196.5zM268 565h602q-4 123 -79.5 197t-208.5 74t-215 -74t-99 -197zM467 1290q0 45 32 78t79 33t78.5 -33t31.5 -78q0 -47 -31.5 -78.5t-78.5 -31.5t-79 31.5t-32 78.5z" />
<glyph unicode="&#x118;" horiz-adv-x="1214" d="M180 0v1450h912v-160h-740v-454h690v-160h-690v-516h776v-160h-106q-23 -16 -50.5 -41t-51 -55.5t-39 -66.5t-15.5 -73q0 -41 24.5 -68.5t74.5 -25.5q27 0 55.5 11.5t46.5 29.5l43 -84q-39 -37 -87 -58.5t-101 -21.5q-37 0 -72 12.5t-61.5 36t-42 55.5t-15.5 70 q0 43 17.5 84t44 78t59.5 67t66 50h-738z" />
<glyph unicode="&#x119;" d="M96 479q0 111 37 204t102.5 159.5t155.5 103.5t197 37q100 0 184 -34t144.5 -98.5t93 -157.5t32.5 -212v-51h-774q4 -61 30 -117.5t67 -98.5t96 -66.5t121 -24.5q104 0 175.5 37t129.5 108l121 -94q-66 -86 -144 -131t-170 -59q-23 -18 -46 -43t-42.5 -52.5t-32 -59.5 t-12.5 -65q0 -41 24.5 -68.5t73.5 -25.5q27 0 55.5 11.5t47.5 29.5l43 -84q-39 -37 -87 -58.5t-102 -21.5q-37 0 -71.5 12.5t-61 36t-42 55.5t-15.5 70q0 76 46 142.5t106 111.5q-113 0 -202 40t-151.5 109t-95.5 160t-33 195zM268 565h602q-4 123 -78.5 197t-209.5 74 t-216 -74t-98 -197z" />
<glyph unicode="&#x11a;" horiz-adv-x="1214" d="M180 0v1450h912v-160h-740v-454h690v-160h-690v-516h776v-160h-948zM338 1847h166l160 -209l158 209h155l-225 -295h-186z" />
<glyph unicode="&#x11b;" d="M96 479q0 111 37 204t102.5 159.5t155.5 103.5t197 37q100 0 184 -34t144.5 -98.5t93 -157.5t32.5 -212v-51h-774q4 -61 30 -117.5t67 -98.5t96 -66.5t121 -24.5q104 0 175.5 37t129.5 108l121 -94q-86 -111 -188.5 -155t-237.5 -44q-113 0 -203 40t-152.5 107.5 t-96.5 160t-34 196.5zM258 1450h166l160 -209l158 209h155l-225 -295h-186zM268 565h602q-4 123 -79.5 197t-208.5 74t-215 -74t-99 -197z" />
<glyph unicode="&#x11c;" horiz-adv-x="1593" d="M96 725q0 172 60.5 312.5t167 239.5t248 154.5t305.5 55.5q143 0 275 -43t237 -148l-129 -135q-74 80 -179.5 123t-216.5 43q-125 0 -231.5 -45t-185 -125t-122.5 -190.5t-44 -241.5q0 -129 44 -239.5t122.5 -191.5t189.5 -126t244 -45q88 0 184 21.5t176 62.5v444h-334 v160h506v-713q-125 -70 -263 -102.5t-280 -32.5q-170 0 -311 55.5t-244.5 155.5t-161 240.5t-57.5 310.5zM528 1552l228 295h186l229 -295h-166l-161 209l-160 -209h-156z" />
<glyph unicode="&#x11d;" horiz-adv-x="1251" d="M96 479q0 117 37 211t103.5 158.5t161 99.5t208.5 35q49 0 98.5 -11t95.5 -35t83 -59.5t61 -82.5h4v163h160v-915q0 -262 -134 -398.5t-388 -136.5q-141 0 -255 41t-216 142l114 131q76 -82 161 -124t196 -42q106 0 177 31.5t111.5 86t57 124t16.5 145.5v123h-4 q-57 -92 -149.5 -135t-188.5 -43q-113 0 -207 36.5t-161.5 102.5t-104.5 156t-37 196zM268 479q0 -74 27 -136t73 -108.5t107.5 -73t130.5 -26.5q82 0 145.5 29t107.5 77t66.5 110.5t22.5 131.5q0 78 -24.5 142.5t-69.5 111.5t-108.5 73t-139.5 26t-138 -28t-106.5 -76 t-69 -112.5t-24.5 -140.5zM293 1155l228 295h186l229 -295h-166l-161 209l-160 -209h-156z" />
<glyph unicode="&#x11e;" horiz-adv-x="1593" d="M96 725q0 172 60.5 312.5t167 239.5t248 154.5t305.5 55.5q143 0 275 -43t237 -148l-129 -135q-74 80 -179.5 123t-216.5 43q-125 0 -231.5 -45t-185 -125t-122.5 -190.5t-44 -241.5q0 -129 44 -239.5t122.5 -191.5t189.5 -126t244 -45q88 0 184 21.5t176 62.5v444h-334 v160h506v-713q-125 -70 -263 -102.5t-280 -32.5q-170 0 -311 55.5t-244.5 155.5t-161 240.5t-57.5 310.5zM536 1835h101q16 -80 74.5 -120t136.5 -40q92 0 143 34t74 126h98q-14 -135 -99 -202.5t-216 -67.5q-129 0 -216 67.5t-96 202.5z" />
<glyph unicode="&#x11f;" horiz-adv-x="1251" d="M96 479q0 117 37 211t103.5 158.5t161 99.5t208.5 35q49 0 98.5 -11t95.5 -35t83 -59.5t61 -82.5h4v163h160v-915q0 -262 -134 -398.5t-388 -136.5q-141 0 -255 41t-216 142l114 131q76 -82 161 -124t196 -42q106 0 177 31.5t111.5 86t57 124t16.5 145.5v123h-4 q-57 -92 -149.5 -135t-188.5 -43q-113 0 -207 36.5t-161.5 102.5t-104.5 156t-37 196zM268 479q0 -74 27 -136t73 -108.5t107.5 -73t130.5 -26.5q82 0 145.5 29t107.5 77t66.5 110.5t22.5 131.5q0 78 -24.5 142.5t-69.5 111.5t-108.5 73t-139.5 26t-138 -28t-106.5 -76 t-69 -112.5t-24.5 -140.5zM301 1438h101q16 -80 74.5 -120t136.5 -40q90 0 142 35t75 125h98q-14 -135 -99 -203t-216 -68q-129 0 -216 68t-96 203z" />
<glyph unicode="&#x120;" horiz-adv-x="1593" d="M96 725q0 172 60.5 312.5t167 239.5t248 154.5t305.5 55.5q143 0 275 -43t237 -148l-129 -135q-74 80 -179.5 123t-216.5 43q-125 0 -231.5 -45t-185 -125t-122.5 -190.5t-44 -241.5q0 -129 44 -239.5t122.5 -191.5t189.5 -126t244 -45q88 0 184 21.5t176 62.5v444h-334 v160h506v-713q-125 -70 -263 -102.5t-280 -32.5q-170 0 -311 55.5t-244.5 155.5t-161 240.5t-57.5 310.5zM739 1688q0 45 32 77.5t79 32.5t78.5 -32.5t31.5 -77.5q0 -47 -31.5 -79t-78.5 -32t-79 31.5t-32 79.5z" />
<glyph unicode="&#x121;" horiz-adv-x="1251" d="M96 479q0 117 37 211t103.5 158.5t161 99.5t208.5 35q49 0 98.5 -11t95.5 -35t83 -59.5t61 -82.5h4v163h160v-915q0 -262 -134 -398.5t-388 -136.5q-141 0 -255 41t-216 142l114 131q76 -82 161 -124t196 -42q106 0 177 31.5t111.5 86t57 124t16.5 145.5v123h-4 q-57 -92 -149.5 -135t-188.5 -43q-113 0 -207 36.5t-161.5 102.5t-104.5 156t-37 196zM268 479q0 -74 27 -136t73 -108.5t107.5 -73t130.5 -26.5q82 0 145.5 29t107.5 77t66.5 110.5t22.5 131.5q0 78 -24.5 142.5t-69.5 111.5t-108.5 73t-139.5 26t-138 -28t-106.5 -76 t-69 -112.5t-24.5 -140.5zM504 1290q0 45 32 78t79 33t78.5 -33t31.5 -78q0 -47 -31.5 -78.5t-78.5 -31.5t-79 31.5t-32 78.5z" />
<glyph unicode="&#x122;" horiz-adv-x="1593" d="M96 725q0 172 60.5 312.5t167 239.5t248 154.5t305.5 55.5q143 0 275 -43t237 -148l-129 -135q-74 80 -179.5 123t-216.5 43q-125 0 -231.5 -45t-185 -125t-122.5 -190.5t-44 -241.5q0 -129 44 -239.5t122.5 -191.5t189.5 -126t244 -45q88 0 184 21.5t176 62.5v444h-334 v160h506v-713q-125 -70 -263 -102.5t-280 -32.5q-170 0 -311 55.5t-244.5 155.5t-161 240.5t-57.5 310.5zM678 -467l106 342h176l-147 -342h-135z" />
<glyph unicode="&#x123;" horiz-adv-x="1251" d="M96 479q0 117 37 211t103.5 158.5t161 99.5t208.5 35q49 0 98.5 -11t95.5 -35t83 -59.5t61 -82.5h4v163h160v-915q0 -262 -134 -398.5t-388 -136.5q-141 0 -255 41t-216 142l114 131q76 -82 161 -124t196 -42q106 0 177 31.5t111.5 86t57 124t16.5 145.5v123h-4 q-57 -92 -149.5 -135t-188.5 -43q-113 0 -207 36.5t-161.5 102.5t-104.5 156t-37 196zM268 479q0 -74 27 -136t73 -108.5t107.5 -73t130.5 -26.5q82 0 145.5 29t107.5 77t66.5 110.5t22.5 131.5q0 78 -24.5 142.5t-69.5 111.5t-108.5 73t-139.5 26t-138 -28t-106.5 -76 t-69 -112.5t-24.5 -140.5zM534 1196l148 342h135l-107 -342h-176z" />
<glyph unicode="&#x124;" horiz-adv-x="1478" d="M180 0v1450h172v-614h774v614h172v-1450h-172v676h-774v-676h-172zM420 1552l228 295h186l229 -295h-166l-161 209l-160 -209h-156z" />
<glyph unicode="&#x125;" d="M152 0v1548h159v-723h4q16 29 45 56.5t69 50t89 37t105 14.5q94 0 162.5 -28.5t113.5 -80t66.5 -124t21.5 -158.5v-592h-160v575q0 121 -53 191t-166 70q-78 0 -134 -27t-92 -76t-53.5 -116.5t-17.5 -149.5v-467h-159zM233 1669l228 295h186l229 -295h-166l-161 209 l-160 -209h-156z" />
<glyph unicode="&#x126;" horiz-adv-x="1478" d="M180 0v1450h172v-180h774v180h172v-1450h-172v676h-774v-676h-172zM352 836h774v311h-774v-311z" />
<glyph unicode="&#x127;" d="M4 1167v123h148v258h159v-258h258v-123h-258v-342h4q16 27 45 55.5t69 51t89 37t105 14.5q94 0 162.5 -28.5t113.5 -80t66.5 -124t21.5 -158.5v-592h-160v575q0 123 -53 192t-166 69q-78 0 -134 -27t-92 -76t-53.5 -116.5t-17.5 -149.5v-467h-159v1167h-148z" />
<glyph unicode="&#x128;" horiz-adv-x="532" d="M-73 1577q6 39 21.5 78t41 68.5t60 48t82.5 18.5q47 0 89 -15.5t83 -31.5q31 -12 54 -23.5t56 -11.5q41 0 64.5 26.5t33.5 63.5h99q-6 -39 -19.5 -77t-37 -68.5t-56.5 -49t-78 -18.5q-43 0 -85 13.5t-81 29.5q-31 12 -65.5 25.5t-69.5 13.5q-39 0 -61.5 -27.5 t-32.5 -62.5h-98zM180 0v1450h172v-1450h-172z" />
<glyph unicode="&#x129;" horiz-adv-x="491" d="M-92 1180q6 39 21.5 77.5t41 68.5t61 48.5t81.5 18.5q47 0 89 -15.5t83 -31.5q31 -12 54 -23.5t56 -11.5q41 0 64.5 26.5t33.5 63.5h99q-6 -39 -19.5 -77t-37 -68.5t-56.5 -49t-78 -18.5q-43 0 -85 13t-81 30q-31 12 -65.5 25.5t-69.5 13.5q-39 0 -61.5 -28t-32.5 -62 h-98zM166 0v958h160v-958h-160z" />
<glyph unicode="&#x12a;" horiz-adv-x="532" d="M-19 1626v123h565v-123h-565zM180 0v1450h172v-1450h-172z" />
<glyph unicode="&#x12b;" horiz-adv-x="491" d="M-35 1229v123h565v-123h-565zM166 0v958h160v-958h-160z" />
<glyph unicode="&#x12c;" horiz-adv-x="532" d="M-48 1823h101q16 -80 74.5 -120t136.5 -40q90 0 142 35t75 125h98q-14 -135 -99 -203t-216 -68q-129 0 -216 68t-96 203zM180 0v1450h172v-1450h-172z" />
<glyph unicode="&#x12d;" horiz-adv-x="491" d="M-68 1336h101q16 -80 74.5 -120t136.5 -40q90 0 142 35t75 125h98q-14 -135 -99 -203t-216 -68q-129 0 -216 68t-96 203zM166 0v958h160v-958h-160z" />
<glyph unicode="&#x12e;" horiz-adv-x="532" d="M-6 -279q0 43 17.5 84t44 78t59 67t65.5 50v1450h172v-1450h-69q-23 -16 -50.5 -41t-50 -55.5t-38 -66.5t-15.5 -73q0 -41 24.5 -68.5t73.5 -25.5q27 0 55.5 11.5t47.5 29.5l43 -84q-39 -37 -87 -58.5t-102 -21.5q-37 0 -71.5 12.5t-61 36t-42 55.5t-15.5 70z" />
<glyph unicode="&#x12f;" horiz-adv-x="491" d="M4 -279q0 43 17.5 84t44 78t59.5 67t65 50h-24v958h160v-958h-31q-23 -16 -50.5 -41t-51 -55.5t-39 -66.5t-15.5 -73q0 -41 24.5 -68.5t74.5 -25.5q27 0 55.5 11.5t46.5 29.5l43 -84q-39 -37 -87 -58.5t-101 -21.5q-37 0 -72 12.5t-61.5 36t-42 55.5t-15.5 70zM129 1333 q0 47 34 82t83 35t82.5 -35t33.5 -82q0 -51 -32.5 -83.5t-83.5 -32.5t-84 32.5t-33 83.5z" />
<glyph unicode="&#x130;" horiz-adv-x="532" d="M160 1688q0 45 32 77.5t79 32.5t78.5 -32.5t31.5 -77.5q0 -47 -31.5 -79t-78.5 -32t-79 31.5t-32 79.5zM180 0v1450h172v-1450h-172z" />
<glyph unicode="&#x131;" horiz-adv-x="491" d="M166 0v958h160v-958h-160z" />
<glyph unicode="&#x132;" horiz-adv-x="1497" d="M180 0v1450h172v-1450h-172zM516 274l172 35q16 -86 70.5 -136t146.5 -50q74 0 121 26.5t72.5 69.5t36 99.5t10.5 115.5v1016h172v-1075q0 -74 -21.5 -146.5t-69.5 -132t-127 -96.5t-196 -37q-154 0 -256 78t-131 233z" />
<glyph unicode="&#x133;" horiz-adv-x="923" d="M129 1333q0 47 34 82t83 35t82.5 -35t33.5 -82q0 -51 -32.5 -83.5t-83.5 -32.5t-84 32.5t-33 83.5zM166 0v958h160v-958h-160zM362 -471l19 139q39 -12 78 -12q45 0 72.5 16.5t42 44t19.5 64.5t5 78v1099h160v-1173q0 -37 -11.5 -85t-42 -90t-87 -72t-144.5 -30 q-29 0 -56.5 4.5t-54.5 16.5zM561 1333q0 47 34 82t83 35t82.5 -35t33.5 -82q0 -51 -32.5 -83.5t-83.5 -32.5t-84 32.5t-33 83.5z" />
<glyph unicode="&#x134;" horiz-adv-x="987" d="M6 274l172 35q16 -86 70.5 -136t146.5 -50q74 0 121 26.5t72.5 69.5t36 99.5t10.5 115.5v1016h172v-1075q0 -74 -21.5 -146.5t-69.5 -132t-127 -96.5t-196 -37q-154 0 -256 78t-131 233zM393 1552l228 295h186l229 -295h-166l-161 209l-160 -209h-156z" />
<glyph unicode="&#x135;" horiz-adv-x="491" d="M-74 1155l228 295h186l229 -295h-166l-161 209l-160 -209h-156zM-70 -471l19 139q39 -12 78 -12q45 0 72.5 16.5t42 44t19.5 64.5t5 78v1099h160v-1173q0 -37 -11.5 -85t-42 -90t-87 -72t-144.5 -30q-29 0 -56.5 4.5t-54.5 16.5z" />
<glyph unicode="&#x136;" horiz-adv-x="1290" d="M180 0v1450h172v-627h25l659 627h248l-717 -662l752 -788h-252l-690 737h-25v-737h-172zM484 -467l106 342h176l-147 -342h-135z" />
<glyph unicode="&#x137;" horiz-adv-x="1024" d="M152 0v1548h159v-1011l437 421h227l-463 -436l510 -522h-236l-475 504v-504h-159zM340 -467l106 342h176l-147 -342h-135z" />
<glyph unicode="&#x139;" horiz-adv-x="1024" d="M124 1552l213 295h226l-293 -295h-146zM180 0v1450h172v-1290h664v-160h-836z" />
<glyph unicode="&#x13a;" horiz-adv-x="491" d="M131 1669l213 295h226l-293 -295h-146zM166 0v1548h160v-1548h-160z" />
<glyph unicode="&#x13b;" horiz-adv-x="1024" d="M180 0v1450h172v-1290h664v-160h-836zM397 -467l106 342h176l-147 -342h-135z" />
<glyph unicode="&#x13c;" horiz-adv-x="491" d="M96 -467l106 342h176l-147 -342h-135zM166 0v1548h160v-1548h-160z" />
<glyph unicode="&#x13d;" horiz-adv-x="1024" d="M180 0v1450h172v-1290h664v-160h-836zM454 1087l107 363h176l-148 -363h-135z" />
<glyph unicode="&#x13e;" horiz-adv-x="491" d="M166 0v1548h160v-1548h-160zM506 1087l107 363h176l-148 -363h-135z" />
<glyph unicode="&#x13f;" horiz-adv-x="1024" d="M180 0v1450h172v-1290h664v-160h-836zM663 786q0 45 32 78t79 33t78.5 -33t31.5 -78q0 -47 -31.5 -78.5t-78.5 -31.5t-79 31.5t-32 78.5z" />
<glyph unicode="&#x140;" horiz-adv-x="688" d="M166 0v1548h160v-1548h-160zM467 788q0 45 32 78t79 33t78.5 -33t31.5 -78q0 -47 -31.5 -78.5t-78.5 -31.5t-79 31.5t-32 78.5z" />
<glyph unicode="&#x141;" horiz-adv-x="1024" d="M20 315v162l160 137v836h172v-688l443 381v-162l-443 -381v-440h664v-160h-836v453z" />
<glyph unicode="&#x142;" horiz-adv-x="491" d="M0 465v168l166 166v749h160v-590l166 166v-166l-166 -165v-793h-160v631z" />
<glyph unicode="&#x143;" horiz-adv-x="1593" d="M180 0v1450h217l840 -1204h4v1204h172v-1450h-217l-840 1204h-4v-1204h-172zM651 1552l213 295h226l-293 -295h-146z" />
<glyph unicode="&#x144;" d="M143 958h152q0 -39 2 -77.5t2 -79.5h4q16 35 46 67.5t71 58t92 41t111 15.5q94 0 162.5 -28.5t113.5 -80t66.5 -124t21.5 -158.5v-592h-160v575q0 121 -53 191t-166 70q-78 0 -134 -27t-92 -76t-53.5 -116.5t-17.5 -149.5v-467h-159v731q0 66 -4.5 123t-4.5 104z M403 1155l213 295h226l-293 -295h-146z" />
<glyph unicode="&#x145;" horiz-adv-x="1593" d="M180 0v1450h217l840 -1204h4v1204h172v-1450h-217l-840 1204h-4v-1204h-172zM594 -467l106 342h176l-147 -342h-135z" />
<glyph unicode="&#x146;" d="M143 958h152q0 -39 2 -77.5t2 -79.5h4q16 35 46 67.5t71 58t92 41t111 15.5q94 0 162.5 -28.5t113.5 -80t66.5 -124t21.5 -158.5v-592h-160v575q0 121 -53 191t-166 70q-78 0 -134 -27t-92 -76t-53.5 -116.5t-17.5 -149.5v-467h-159v731q0 66 -4.5 123t-4.5 104z M379 -467l106 342h176l-147 -342h-135z" />
<glyph unicode="&#x147;" horiz-adv-x="1593" d="M180 0v1450h217l840 -1204h4v1204h172v-1450h-217l-840 1204h-4v-1204h-172zM475 1847h166l160 -209l158 209h155l-225 -295h-186z" />
<glyph unicode="&#x148;" d="M143 958h152q0 -39 2 -77.5t2 -79.5h4q16 35 46 67.5t71 58t92 41t111 15.5q94 0 162.5 -28.5t113.5 -80t66.5 -124t21.5 -158.5v-592h-160v575q0 121 -53 191t-166 70q-78 0 -134 -27t-92 -76t-53.5 -116.5t-17.5 -149.5v-467h-159v731q0 66 -4.5 123t-4.5 104z M264 1450h166l160 -209l158 209h155l-225 -295h-186z" />
<glyph unicode="&#x149;" d="M41 1087l107 363h176l-148 -363h-135zM143 958h152q0 -39 2 -77.5t2 -79.5h4q16 35 46 67.5t71 58t92 41t111 15.5q94 0 162.5 -28.5t113.5 -80t66.5 -124t21.5 -158.5v-592h-160v575q0 121 -53 191t-166 70q-78 0 -134 -27t-92 -76t-53.5 -116.5t-17.5 -149.5v-467h-159 v731q0 66 -4.5 123t-4.5 104z" />
<glyph unicode="&#x14c;" horiz-adv-x="1708" d="M96 725q0 164 56.5 304t158 241.5t239.5 159t304 57.5t304 -57.5t239.5 -159t158 -241.5t56.5 -304t-56.5 -304t-158 -241.5t-239.5 -159t-304 -57.5t-304 57.5t-239.5 159t-158 241.5t-56.5 304zM281 725q0 -125 42 -234.5t117.5 -191.5t181 -129t232.5 -47t232.5 47 t181 129t117.5 191.5t42 234.5t-42 234.5t-117.5 191.5t-181 129t-232.5 47t-232.5 -47t-181 -129t-117.5 -191.5t-42 -234.5zM573 1626v123h565v-123h-565z" />
<glyph unicode="&#x14d;" horiz-adv-x="1216" d="M96 479q0 113 39 205t106.5 158.5t162 103.5t204.5 37q111 0 205 -37t161.5 -103.5t106.5 -158.5t39 -205t-39 -205t-106.5 -158.5t-161.5 -103.5t-205 -37t-205 37t-161.5 103.5t-106.5 158.5t-39 205zM268 479q0 -76 23.5 -140.5t69 -112.5t107.5 -75.5t140 -27.5 t140.5 27.5t107.5 75.5t68.5 112.5t23.5 140.5t-23.5 140.5t-68.5 112.5t-107.5 76t-140.5 28t-140 -28t-107.5 -76t-69 -112.5t-23.5 -140.5zM325 1229v123h565v-123h-565z" />
<glyph unicode="&#x14e;" horiz-adv-x="1708" d="M96 725q0 164 56.5 304t158 241.5t239.5 159t304 57.5t304 -57.5t239.5 -159t158 -241.5t56.5 -304t-56.5 -304t-158 -241.5t-239.5 -159t-304 -57.5t-304 57.5t-239.5 159t-158 241.5t-56.5 304zM281 725q0 -125 42 -234.5t117.5 -191.5t181 -129t232.5 -47t232.5 47 t181 129t117.5 191.5t42 234.5t-42 234.5t-117.5 191.5t-181 129t-232.5 47t-232.5 -47t-181 -129t-117.5 -191.5t-42 -234.5zM538 1835h101q16 -80 74.5 -120t136.5 -40q92 0 143 34t74 126h98q-14 -135 -99 -202.5t-216 -67.5q-129 0 -216 67.5t-96 202.5z" />
<glyph unicode="&#x14f;" horiz-adv-x="1216" d="M96 479q0 113 39 205t106.5 158.5t162 103.5t204.5 37q111 0 205 -37t161.5 -103.5t106.5 -158.5t39 -205t-39 -205t-106.5 -158.5t-161.5 -103.5t-205 -37t-205 37t-161.5 103.5t-106.5 158.5t-39 205zM268 479q0 -76 23.5 -140.5t69 -112.5t107.5 -75.5t140 -27.5 t140.5 27.5t107.5 75.5t68.5 112.5t23.5 140.5t-23.5 140.5t-68.5 112.5t-107.5 76t-140.5 28t-140 -28t-107.5 -76t-69 -112.5t-23.5 -140.5zM294 1438h101q16 -80 74.5 -120t136.5 -40q90 0 142 35t75 125h98q-14 -135 -99 -203t-216 -68q-129 0 -216 68t-96 203z" />
<glyph unicode="&#x150;" horiz-adv-x="1708" d="M96 725q0 164 56.5 304t158 241.5t239.5 159t304 57.5t304 -57.5t239.5 -159t158 -241.5t56.5 -304t-56.5 -304t-158 -241.5t-239.5 -159t-304 -57.5t-304 57.5t-239.5 159t-158 241.5t-56.5 304zM281 725q0 -125 42 -234.5t117.5 -191.5t181 -129t232.5 -47t232.5 47 t181 129t117.5 191.5t42 234.5t-42 234.5t-117.5 191.5t-181 129t-232.5 47t-232.5 -47t-181 -129t-117.5 -191.5t-42 -234.5zM629 1552l205 295h196l-264 -295h-137zM948 1552l224 295h209l-293 -295h-140z" />
<glyph unicode="&#x151;" horiz-adv-x="1216" d="M96 479q0 113 39 205t106.5 158.5t162 103.5t204.5 37q111 0 205 -37t161.5 -103.5t106.5 -158.5t39 -205t-39 -205t-106.5 -158.5t-161.5 -103.5t-205 -37t-205 37t-161.5 103.5t-106.5 158.5t-39 205zM268 479q0 -76 23.5 -140.5t69 -112.5t107.5 -75.5t140 -27.5 t140.5 27.5t107.5 75.5t68.5 112.5t23.5 140.5t-23.5 140.5t-68.5 112.5t-107.5 76t-140.5 28t-140 -28t-107.5 -76t-69 -112.5t-23.5 -140.5zM379 1155l205 295h196l-264 -295h-137zM698 1155l224 295h209l-293 -295h-140z" />
<glyph unicode="&#x152;" horiz-adv-x="1972" d="M113 725q0 141 51 272t151.5 231.5t251 161t351.5 60.5h929v-160h-614v-454h577v-160h-577v-516h627v-160h-942q-201 0 -351.5 60.5t-251 161t-151.5 231.5t-51 272zM297 725q0 -104 37 -205.5t114.5 -181.5t195.5 -129t282 -49h135v1130h-135q-164 0 -282 -49 t-195.5 -129t-114.5 -181.5t-37 -205.5z" />
<glyph unicode="&#x153;" horiz-adv-x="1857" d="M74 479q0 109 35.5 201t101 159.5t157 105.5t199.5 38q129 0 225.5 -45t174.5 -147q150 193 362 192q100 0 184 -34t144.5 -98.5t93.5 -157.5t33 -212v-51h-740q0 -63 21.5 -118.5t58.5 -97.5t88.5 -66.5t110.5 -24.5q104 0 176 37t129 108l121 -94q-86 -111 -188.5 -155 t-237.5 -44q-104 0 -198.5 46.5t-157.5 150.5q-74 -98 -169.5 -147.5t-224.5 -49.5q-115 0 -207 36t-156.5 102.5t-100 159t-35.5 206.5zM246 479q0 -70 19.5 -134t59.5 -113.5t100 -79t140 -29.5q82 0 143.5 27.5t103.5 76.5t63.5 114t21.5 138q0 70 -20.5 134.5 t-60.5 113.5t-101.5 79t-141.5 30t-141 -29t-103 -77t-62.5 -112.5t-20.5 -138.5zM1044 565h568q-4 123 -80 197t-209 74q-59 0 -109.5 -24t-87 -61.5t-58 -87t-24.5 -98.5z" />
<glyph unicode="&#x154;" horiz-adv-x="1251" d="M180 0v1450h371q104 0 207.5 -12.5t185.5 -53.5t133 -119.5t51 -213.5q0 -160 -96 -258.5t-266 -124.5l412 -668h-211l-394 651h-221v-651h-172zM352 811h154q72 0 148.5 4t141 26.5t106.5 71t42 138.5q0 78 -30.5 125t-81 72.5t-113 33.5t-125.5 8h-242v-479zM444 1552 l213 295h226l-293 -295h-146z" />
<glyph unicode="&#x155;" horiz-adv-x="720" d="M143 958h152q0 -39 2 -77.5t2 -79.5h4q16 35 46 67.5t71 58t92 41t111 15.5q16 0 32.5 -2t32.5 -8l-10 -162q-41 12 -86 12q-147 0 -214 -95t-67 -261v-467h-159v731q0 66 -4.5 123t-4.5 104zM272 1155l213 295h226l-293 -295h-146z" />
<glyph unicode="&#x156;" horiz-adv-x="1251" d="M180 0v1450h371q104 0 207.5 -12.5t185.5 -53.5t133 -119.5t51 -213.5q0 -160 -96 -258.5t-266 -124.5l412 -668h-211l-394 651h-221v-651h-172zM352 811h154q72 0 148.5 4t141 26.5t106.5 71t42 138.5q0 78 -30.5 125t-81 72.5t-113 33.5t-125.5 8h-242v-479zM412 -467 l106 342h176l-147 -342h-135z" />
<glyph unicode="&#x157;" horiz-adv-x="720" d="M143 958h152q0 -39 2 -77.5t2 -79.5h4q16 35 46 67.5t71 58t92 41t111 15.5q16 0 32.5 -2t32.5 -8l-10 -162q-41 12 -86 12q-147 0 -214 -95t-67 -261v-467h-159v731q0 66 -4.5 123t-4.5 104zM164 -467l106 342h176l-147 -342h-135z" />
<glyph unicode="&#x158;" horiz-adv-x="1251" d="M180 0v1450h371q104 0 207.5 -12.5t185.5 -53.5t133 -119.5t51 -213.5q0 -160 -96 -258.5t-266 -124.5l412 -668h-211l-394 651h-221v-651h-172zM291 1847h166l160 -209l158 209h155l-225 -295h-186zM352 811h154q72 0 148.5 4t141 26.5t106.5 71t42 138.5 q0 78 -30.5 125t-81 72.5t-113 33.5t-125.5 8h-242v-479z" />
<glyph unicode="&#x159;" horiz-adv-x="720" d="M61 1450h166l160 -209l158 209h155l-225 -295h-186zM143 958h152q0 -39 2 -77.5t2 -79.5h4q16 35 46 67.5t71 58t92 41t111 15.5q16 0 32.5 -2t32.5 -8l-10 -162q-41 12 -86 12q-147 0 -214 -95t-67 -261v-467h-159v731q0 66 -4.5 123t-4.5 104z" />
<glyph unicode="&#x15a;" d="M78 164l147 121q47 -80 131 -121t179 -41q55 0 111 16.5t101.5 48t74 78.5t28.5 109q0 68 -22.5 109.5t-69.5 72.5t-119 55.5t-168 57.5q-78 25 -143.5 56.5t-113.5 77.5t-75.5 110.5t-27.5 154.5q0 104 41 182t110.5 130.5t157.5 79t184 26.5q123 0 224.5 -38 t181.5 -132l-142 -123q-43 70 -114.5 101.5t-149.5 31.5q-57 0 -112.5 -14.5t-99.5 -43t-70.5 -75.5t-26.5 -111q0 -49 15.5 -87t50 -68.5t94 -57t145.5 -53.5q84 -27 163 -57.5t139.5 -77.5t96 -117.5t35.5 -177.5q0 -109 -43 -188.5t-113.5 -132t-162.5 -78t-191 -25.5 q-63 0 -126.5 11.5t-122 35t-109.5 61.5t-88 93zM454 1552l213 295h226l-293 -295h-146z" />
<glyph unicode="&#x15b;" horiz-adv-x="872" d="M45 154l127 98q47 -59 103.5 -94t142.5 -35q37 0 74.5 8t68.5 26.5t49.5 46t18.5 66.5t-17.5 63.5t-46 42t-65.5 28t-76 18.5q-68 14 -129.5 32.5t-107.5 48t-73.5 77t-27.5 120.5q0 70 30.5 123.5t82 88t115 53t130.5 18.5q102 0 189.5 -41t136.5 -133l-133 -88 q-31 51 -81 83t-122 32q-33 0 -66.5 -8.5t-60 -25t-44 -42t-17.5 -58.5q0 -31 19.5 -52t53 -37.5t77.5 -29t91 -20.5q63 -12 121 -31.5t101 -52.5t67.5 -82t24.5 -121q0 -82 -33 -139t-87 -93t-123 -52.5t-140 -16.5q-123 0 -212 38t-161 141zM309 1155l213 295h226 l-293 -295h-146z" />
<glyph unicode="&#x15c;" d="M78 164l147 121q47 -80 131 -121t179 -41q55 0 111 16.5t101.5 48t74 78.5t28.5 109q0 68 -22.5 109.5t-69.5 72.5t-119 55.5t-168 57.5q-78 25 -143.5 56.5t-113.5 77.5t-75.5 110.5t-27.5 154.5q0 104 41 182t110.5 130.5t157.5 79t184 26.5q123 0 224.5 -38 t181.5 -132l-142 -123q-43 70 -114.5 101.5t-149.5 31.5q-57 0 -112.5 -14.5t-99.5 -43t-70.5 -75.5t-26.5 -111q0 -49 15.5 -87t50 -68.5t94 -57t145.5 -53.5q84 -27 163 -57.5t139.5 -77.5t96 -117.5t35.5 -177.5q0 -109 -43 -188.5t-113.5 -132t-162.5 -78t-191 -25.5 q-63 0 -126.5 11.5t-122 35t-109.5 61.5t-88 93zM278 1552l228 295h186l229 -295h-166l-161 209l-160 -209h-156z" />
<glyph unicode="&#x15d;" horiz-adv-x="872" d="M45 154l127 98q47 -59 103.5 -94t142.5 -35q37 0 74.5 8t68.5 26.5t49.5 46t18.5 66.5t-17.5 63.5t-46 42t-65.5 28t-76 18.5q-68 14 -129.5 32.5t-107.5 48t-73.5 77t-27.5 120.5q0 70 30.5 123.5t82 88t115 53t130.5 18.5q102 0 189.5 -41t136.5 -133l-133 -88 q-31 51 -81 83t-122 32q-33 0 -66.5 -8.5t-60 -25t-44 -42t-17.5 -58.5q0 -31 19.5 -52t53 -37.5t77.5 -29t91 -20.5q63 -12 121 -31.5t101 -52.5t67.5 -82t24.5 -121q0 -82 -33 -139t-87 -93t-123 -52.5t-140 -16.5q-123 0 -212 38t-161 141zM135 1155l228 295h186 l229 -295h-166l-161 209l-160 -209h-156z" />
<glyph unicode="&#x15e;" d="M78 164l147 121q47 -80 131 -121t179 -41q55 0 111 16.5t101.5 48t74 78.5t28.5 109q0 68 -22.5 109.5t-69.5 72.5t-119 55.5t-168 57.5q-78 25 -143.5 56.5t-113.5 77.5t-75.5 110.5t-27.5 154.5q0 104 41 182t110.5 130.5t157.5 79t184 26.5q123 0 224.5 -38 t181.5 -132l-142 -123q-43 70 -114.5 101.5t-149.5 31.5q-57 0 -112.5 -14.5t-99.5 -43t-70.5 -75.5t-26.5 -111q0 -49 15.5 -87t50 -68.5t94 -57t145.5 -53.5q84 -27 163 -57.5t139.5 -77.5t96 -117.5t35.5 -177.5q0 -96 -34.5 -170t-93 -126t-136.5 -83t-164 -41l-69 -98 q14 2 30.5 5t40.5 3q27 0 55.5 -8t53 -25.5t40 -44t15.5 -63.5q0 -49 -21.5 -84t-56.5 -56.5t-78 -30.5t-84 -9q-53 0 -104 10t-98 33l35 75q68 -33 147 -32q20 0 41.5 4t40 13t31 25.5t12.5 41.5q0 43 -36 60t-71 17q-20 0 -40.5 -5t-38.5 -11l-41 39l100 137 q-61 2 -123.5 14.5t-119 36t-105.5 60.5t-84 90z" />
<glyph unicode="&#x15f;" horiz-adv-x="872" d="M45 154l127 98q47 -59 103.5 -94t142.5 -35q37 0 74.5 8t68.5 26.5t49.5 46t18.5 66.5t-17.5 63.5t-46 42t-65.5 28t-76 18.5q-68 14 -129.5 32.5t-107.5 48t-73.5 77t-27.5 120.5q0 70 30.5 123.5t82 88t115 53t130.5 18.5q104 0 190.5 -41t135.5 -133l-133 -88 q-31 51 -81 83t-122 32q-33 0 -66.5 -8.5t-60 -25t-44 -42t-17.5 -58.5q0 -29 19.5 -51t53 -38.5t77.5 -29t91 -20.5q63 -12 121 -31.5t101 -52.5t67.5 -82t24.5 -121t-25.5 -124t-69.5 -88.5t-100.5 -57t-118.5 -26.5l-77 -111q14 2 30.5 5t40.5 3q27 0 55.5 -8t53 -25.5 t40 -44t15.5 -63.5q0 -49 -21.5 -84t-56.5 -56.5t-78 -30.5t-83 -9q-53 0 -104.5 10t-98.5 33l35 75q68 -33 147 -32q20 0 42 4t40 13t30.5 25.5t12.5 41.5q0 43 -36 60t-71 17q-20 0 -40.5 -5t-38.5 -11l-41 39l108 149q-111 4 -195.5 42t-150.5 137z" />
<glyph unicode="&#x160;" d="M78 164l147 121q47 -80 131 -121t179 -41q55 0 111 16.5t101.5 48t74 78.5t28.5 109q0 68 -22.5 109.5t-69.5 72.5t-119 55.5t-168 57.5q-78 25 -143.5 56.5t-113.5 77.5t-75.5 110.5t-27.5 154.5q0 104 41 182t110.5 130.5t157.5 79t184 26.5q123 0 224.5 -38 t181.5 -132l-142 -123q-43 70 -114.5 101.5t-149.5 31.5q-57 0 -112.5 -14.5t-99.5 -43t-70.5 -75.5t-26.5 -111q0 -49 15.5 -87t50 -68.5t94 -57t145.5 -53.5q84 -27 163 -57.5t139.5 -77.5t96 -117.5t35.5 -177.5q0 -109 -43 -188.5t-113.5 -132t-162.5 -78t-191 -25.5 q-63 0 -126.5 11.5t-122 35t-109.5 61.5t-88 93zM250 1847h166l160 -209l158 209h155l-225 -295h-186z" />
<glyph unicode="&#x161;" horiz-adv-x="872" d="M45 154l127 98q47 -59 103.5 -94t142.5 -35q37 0 74.5 8t68.5 26.5t49.5 46t18.5 66.5t-17.5 63.5t-46 42t-65.5 28t-76 18.5q-68 14 -129.5 32.5t-107.5 48t-73.5 77t-27.5 120.5q0 70 30.5 123.5t82 88t115 53t130.5 18.5q102 0 189.5 -41t136.5 -133l-133 -88 q-31 51 -81 83t-122 32q-33 0 -66.5 -8.5t-60 -25t-44 -42t-17.5 -58.5q0 -31 19.5 -52t53 -37.5t77.5 -29t91 -20.5q63 -12 121 -31.5t101 -52.5t67.5 -82t24.5 -121q0 -82 -33 -139t-87 -93t-123 -52.5t-140 -16.5q-123 0 -212 38t-161 141zM116 1483h166l160 -209 l158 209h155l-225 -295h-186z" />
<glyph unicode="&#x162;" horiz-adv-x="1175" d="M23 1290v160h1130v-160h-479v-1290h-172v1290h-479zM348 -401l35 75q72 -33 148 -32q20 0 41.5 4t40 13t31 25.5t12.5 41.5q0 43 -36 60t-71 17q-20 0 -40.5 -5t-39.5 -11l-41 39l127 174h92l-92 -131q14 2 30.5 5t41.5 3q27 0 55.5 -8t53 -25.5t40 -44t15.5 -63.5 q0 -49 -21.5 -84t-56.5 -56.5t-78 -30.5t-84 -9q-53 0 -104 10t-99 33z" />
<glyph unicode="&#x163;" horiz-adv-x="720" d="M25 823v135h208v273h160v-273h283v-135h-283v-479q0 -47 2 -87t16.5 -69.5t43 -47t82.5 -17.5q35 0 71.5 8t69.5 25l6 -146q-41 -18 -91 -26.5t-95 -8.5q-86 0 -137.5 22.5t-80 63.5t-38 101.5t-9.5 134.5v526h-208zM225 -401l35 75q72 -33 148 -32q20 0 41.5 4t40 13 t31 25.5t12.5 41.5q0 43 -36 60t-71 17q-20 0 -40.5 -5t-39.5 -11l-41 39l127 174h92l-92 -131q14 2 30.5 5t41.5 3q27 0 55.5 -8t53 -25.5t40 -44t15.5 -63.5q0 -49 -21.5 -84t-56.5 -56.5t-78 -30.5t-84 -9q-53 0 -104 10t-99 33z" />
<glyph unicode="&#x164;" horiz-adv-x="1175" d="M23 1290v160h1130v-160h-479v-1290h-172v1290h-479zM268 1847h166l160 -209l158 209h155l-225 -295h-186z" />
<glyph unicode="&#x165;" horiz-adv-x="720" d="M25 823v135h208v273h160v-273h283v-135h-283v-479q0 -47 2 -87t16.5 -69.5t43 -47t82.5 -17.5q35 0 71.5 8t69.5 25l6 -146q-41 -18 -91 -26.5t-95 -8.5q-86 0 -137.5 22.5t-80 63.5t-38 101.5t-9.5 134.5v526h-208zM526 1087l107 363h176l-148 -363h-135z" />
<glyph unicode="&#x166;" horiz-adv-x="1175" d="M23 1290v160h1130v-160h-479v-329h305v-123h-305v-838h-172v838h-293v123h293v329h-479z" />
<glyph unicode="&#x167;" horiz-adv-x="720" d="M25 823v135h208v273h160v-273h283v-135h-283v-133h244v-123h-244v-223q0 -47 2 -87t16.5 -69.5t43 -47t82.5 -17.5q35 0 71.5 8t69.5 25l6 -146q-41 -18 -91 -26.5t-95 -8.5q-86 0 -137.5 22.5t-80 63.5t-38 101.5t-9.5 134.5v270h-161v123h161v133h-208z" />
<glyph unicode="&#x168;" horiz-adv-x="1441" d="M174 553v897h172v-872q0 -88 18.5 -170t61.5 -145.5t114.5 -101.5t180.5 -38t180.5 38t114.5 101.5t61.5 145t18.5 170.5v872h172v-897q0 -119 -30 -225.5t-94.5 -187.5t-169 -129t-253.5 -48q-150 0 -254.5 48t-169 129t-94 187.5t-29.5 225.5zM381 1577q6 39 21.5 78 t41 68.5t60 48t82.5 18.5q47 0 89 -15.5t83 -31.5q31 -12 54 -23.5t56 -11.5q41 0 64.5 26.5t33.5 63.5h99q-6 -39 -19.5 -77t-37 -68.5t-56.5 -49t-78 -18.5q-43 0 -85 13.5t-81 29.5q-31 12 -65.5 25.5t-69.5 13.5q-39 0 -61.5 -27.5t-32.5 -62.5h-98z" />
<glyph unicode="&#x169;" d="M152 367v591h159v-575q0 -121 53.5 -190.5t165.5 -69.5q78 0 134.5 26.5t92.5 75.5t53 117t17 150v466h160v-731q0 -66 4 -123t4 -104h-151q0 39 -2 78t-2 80h-4q-16 -35 -46 -68t-71 -58.5t-92.5 -41t-110.5 -15.5q-94 0 -162.5 29t-113.5 80t-66.5 124t-21.5 159z M234 1180q6 39 21.5 77.5t41 68.5t61 48.5t81.5 18.5q47 0 89 -15.5t83 -31.5q31 -12 54 -23.5t56 -11.5q41 0 64.5 26.5t33.5 63.5h99q-6 -39 -19.5 -77t-37 -68.5t-56.5 -49t-78 -18.5q-43 0 -85 13t-81 30q-31 12 -65.5 25.5t-69.5 13.5q-39 0 -61.5 -28t-32.5 -62h-98z " />
<glyph unicode="&#x16a;" horiz-adv-x="1441" d="M174 553v897h172v-872q0 -88 18.5 -170t61.5 -145.5t114.5 -101.5t180.5 -38t180.5 38t114.5 101.5t61.5 145t18.5 170.5v872h172v-897q0 -119 -30 -225.5t-94.5 -187.5t-169 -129t-253.5 -48q-150 0 -254.5 48t-169 129t-94 187.5t-29.5 225.5zM440 1626v123h565v-123 h-565z" />
<glyph unicode="&#x16b;" d="M152 367v591h159v-575q0 -121 53.5 -190.5t165.5 -69.5q78 0 134.5 26.5t92.5 75.5t53 117t17 150v466h160v-731q0 -66 4 -123t4 -104h-151q0 39 -2 78t-2 80h-4q-16 -35 -46 -68t-71 -58.5t-92.5 -41t-110.5 -15.5q-94 0 -162.5 29t-113.5 80t-66.5 124t-21.5 159z M293 1229v123h565v-123h-565z" />
<glyph unicode="&#x16c;" horiz-adv-x="1441" d="M174 553v897h172v-872q0 -88 18.5 -170t61.5 -145.5t114.5 -101.5t180.5 -38t180.5 38t114.5 101.5t61.5 145t18.5 170.5v872h172v-897q0 -119 -30 -225.5t-94.5 -187.5t-169 -129t-253.5 -48q-150 0 -254.5 48t-169 129t-94 187.5t-29.5 225.5zM409 1835h101 q16 -80 74.5 -120t136.5 -40q92 0 143 34t74 126h98q-14 -135 -99 -202.5t-216 -67.5q-129 0 -216 67.5t-96 202.5z" />
<glyph unicode="&#x16d;" d="M152 367v591h159v-575q0 -121 53.5 -190.5t165.5 -69.5q78 0 134.5 26.5t92.5 75.5t53 117t17 150v466h160v-731q0 -66 4 -123t4 -104h-151q0 39 -2 78t-2 80h-4q-16 -35 -46 -68t-71 -58.5t-92.5 -41t-110.5 -15.5q-94 0 -162.5 29t-113.5 80t-66.5 124t-21.5 159z M262 1438h101q16 -80 74.5 -120t136.5 -40q90 0 142 35t75 125h98q-14 -135 -99 -203t-216 -68q-129 0 -216 68t-96 203z" />
<glyph unicode="&#x16e;" horiz-adv-x="1441" d="M174 553v897h172v-872q0 -88 18.5 -170t61.5 -145.5t114.5 -101.5t180.5 -38t180.5 38t114.5 101.5t61.5 145t18.5 170.5v872h172v-897q0 -119 -30 -225.5t-94.5 -187.5t-169 -129t-253.5 -48q-150 0 -254.5 48t-169 129t-94 187.5t-29.5 225.5zM520 1698q0 41 15.5 77.5 t42 64.5t64.5 44.5t81 16.5q92 0 147.5 -60.5t55.5 -142.5q0 -86 -57.5 -144.5t-145.5 -58.5t-145.5 58.5t-57.5 144.5zM606 1698q0 -51 36 -84t81 -33t80.5 33t35.5 84q0 49 -35.5 83t-80.5 34t-81 -34t-36 -83z" />
<glyph unicode="&#x16f;" d="M152 367v591h159v-575q0 -121 53.5 -190.5t165.5 -69.5q78 0 134.5 26.5t92.5 75.5t53 117t17 150v466h160v-731q0 -66 4 -123t4 -104h-151q0 39 -2 78t-2 80h-4q-16 -35 -46 -68t-71 -58.5t-92.5 -41t-110.5 -15.5q-94 0 -162.5 29t-113.5 80t-66.5 124t-21.5 159z M373 1321q0 41 15.5 78t42 64.5t64.5 44t81 16.5q90 0 146.5 -60.5t56.5 -142.5q0 -84 -57.5 -143.5t-145.5 -59.5t-145.5 59.5t-57.5 143.5zM459 1321q0 -51 36 -84t81 -33t80.5 33t35.5 84q0 49 -35.5 83t-80.5 34t-81 -34t-36 -83z" />
<glyph unicode="&#x170;" horiz-adv-x="1441" d="M174 553v897h172v-872q0 -88 18.5 -170t61.5 -145.5t114.5 -101.5t180.5 -38t180.5 38t114.5 101.5t61.5 145t18.5 170.5v872h172v-897q0 -119 -30 -225.5t-94.5 -187.5t-169 -129t-253.5 -48q-150 0 -254.5 48t-169 129t-94 187.5t-29.5 225.5zM471 1552l205 295h196 l-264 -295h-137zM790 1552l224 295h209l-293 -295h-140z" />
<glyph unicode="&#x171;" d="M152 367v591h159v-575q0 -121 53.5 -190.5t165.5 -69.5q78 0 134.5 26.5t92.5 75.5t53 117t17 150v466h160v-731q0 -66 4 -123t4 -104h-151q0 39 -2 78t-2 80h-4q-16 -35 -46 -68t-71 -58.5t-92.5 -41t-110.5 -15.5q-94 0 -162.5 29t-113.5 80t-66.5 124t-21.5 159z M328 1155l205 295h196l-264 -295h-137zM647 1155l224 295h209l-293 -295h-140z" />
<glyph unicode="&#x172;" horiz-adv-x="1441" d="M174 553v897h172v-872q0 -88 18.5 -170t61.5 -145.5t114.5 -101.5t180.5 -38q106 0 179 38t116 101.5t61.5 145t18.5 170.5v872h172v-897q0 -111 -25.5 -210t-81 -178t-143.5 -131t-213 -67q-41 -37 -77 -90t-36 -113q0 -41 24.5 -68.5t74.5 -25.5q27 0 55 11.5t47 29.5 l43 -84q-39 -37 -87 -58.5t-101 -21.5q-37 0 -72 12.5t-61.5 36t-42 55.5t-15.5 70q0 72 41 134.5t94 107.5q-141 4 -240.5 53.5t-161 130t-89 185t-27.5 221.5z" />
<glyph unicode="&#x173;" d="M152 367v591h159v-575q0 -123 53.5 -191.5t165.5 -68.5q78 0 134.5 26.5t92.5 75.5t53 117t17 150v466h160v-731q0 -66 4 -123t4 -104h-47q-23 -16 -50.5 -41t-51 -55.5t-38.5 -66.5t-15 -73q0 -41 24.5 -68.5t73.5 -25.5q27 0 55.5 11.5t46.5 29.5l43 -84 q-39 -37 -87 -58.5t-101 -21.5q-37 0 -72 12.5t-61.5 36t-42 55.5t-15.5 70q0 43 17.5 84t44 78t59.5 67t66 50q0 39 -2 78t-2 80h-4q-16 -35 -46 -68t-71 -58.5t-92.5 -41t-110.5 -15.5q-94 0 -162.5 29t-113.5 80t-66.5 124t-21.5 159z" />
<glyph unicode="&#x174;" horiz-adv-x="1972" d="M12 1450h191l329 -1204h5l356 1204h192l355 -1204h4l336 1204h180l-426 -1450h-186l-359 1229h-4l-360 -1229h-189zM665 1552l228 295h186l229 -295h-166l-161 209l-160 -209h-156z" />
<glyph unicode="&#x175;" horiz-adv-x="1517" d="M29 958h176l219 -737h4l248 737h168l252 -737h4l217 737h172l-309 -958h-158l-272 737h-5l-241 -737h-164zM434 1155l228 295h186l229 -295h-166l-161 209l-160 -209h-156z" />
<glyph unicode="&#x176;" horiz-adv-x="1216" d="M-18 1450h219l407 -655l420 655h207l-541 -825v-625h-172v625zM286 1552l228 295h186l229 -295h-166l-161 209l-160 -209h-156z" />
<glyph unicode="&#x177;" horiz-adv-x="987" d="M20 958h187l297 -751h4l285 751h174l-463 -1177q-25 -61 -50.5 -111.5t-61.5 -86.5t-86 -55.5t-122 -19.5q-35 0 -72.5 4.5t-70.5 20.5l20 139q25 -10 51.5 -13t61.5 -3q78 0 115 43t63 115l66 180zM188 1155l228 295h186l229 -295h-166l-161 209l-160 -209h-156z" />
<glyph unicode="&#x178;" horiz-adv-x="1216" d="M-18 1450h219l407 -655l420 655h207l-541 -825v-625h-172v625zM294 1688q0 45 32 77.5t79 32.5t79 -32.5t32 -77.5q0 -47 -32 -79t-79 -32t-79 31.5t-32 79.5zM700 1688q0 45 32 77.5t79 32.5t78.5 -32.5t31.5 -77.5q0 -47 -31.5 -79t-78.5 -32t-79 31.5t-32 79.5z" />
<glyph unicode="&#x179;" horiz-adv-x="1175" d="M59 0v154l838 1136h-825v160h1034v-147l-838 -1143h848v-160h-1057zM477 1552l213 295h226l-293 -295h-146z" />
<glyph unicode="&#x17a;" horiz-adv-x="909" d="M61 0v125l564 698h-539v135h748v-122l-564 -701h578v-135h-787zM303 1155l213 295h226l-293 -295h-146z" />
<glyph unicode="&#x17b;" horiz-adv-x="1175" d="M59 0v154l838 1136h-825v160h1034v-147l-838 -1143h848v-160h-1057zM500 1688q0 45 32 77.5t79 32.5t78.5 -32.5t31.5 -77.5q0 -47 -31.5 -79t-78.5 -32t-79 31.5t-32 79.5z" />
<glyph unicode="&#x17c;" horiz-adv-x="909" d="M61 0v125l564 698h-539v135h748v-122l-564 -701h578v-135h-787zM368 1290q0 45 32 78t79 33t78.5 -33t31.5 -78q0 -47 -31.5 -78.5t-78.5 -31.5t-79 31.5t-32 78.5z" />
<glyph unicode="&#x17d;" horiz-adv-x="1175" d="M59 0v154l838 1136h-825v160h1034v-147l-838 -1143h848v-160h-1057zM268 1847h166l160 -209l158 209h155l-225 -295h-186z" />
<glyph unicode="&#x17e;" horiz-adv-x="909" d="M61 0v125l564 698h-539v135h748v-122l-564 -701h578v-135h-787zM135 1483h166l160 -209l158 209h155l-225 -295h-186z" />
<glyph unicode="&#x192;" d="M-20 -246l73 129q23 -16 50.5 -23t56.5 -7q49 0 79.5 20.5t49 52t28 70.5t15.5 76l123 663h-222v135h248l43 226q14 74 35 142.5t58.5 120.5t96 84t146.5 32q109 0 205 -58l-76 -127q-27 16 -56.5 26.5t-60.5 10.5q-49 0 -80.5 -21.5t-51 -55t-30 -74.5t-18.5 -80 l-43 -226h234v-135h-258l-133 -704q-14 -72 -38 -131.5t-63 -102.5t-96 -67.5t-139 -24.5q-47 0 -92.5 12.5t-83.5 36.5z" />
<glyph unicode="&#x2c6;" horiz-adv-x="491" d="M-76 1155l228 295h186l229 -295h-166l-161 209l-160 -209h-156z" />
<glyph unicode="&#x2c7;" horiz-adv-x="491" d="M-74 1450h166l160 -209l158 209h155l-225 -295h-186z" />
<glyph unicode="&#x2d8;" horiz-adv-x="491" d="M-68 1438h101q16 -80 74.5 -120t136.5 -40q90 0 142 35t75 125h98q-14 -135 -99 -203t-216 -68q-129 0 -216 68t-96 203z" />
<glyph unicode="&#x2d9;" horiz-adv-x="491" d="M135 1290q0 45 32 78t79 33t78.5 -33t31.5 -78q0 -47 -31.5 -78.5t-78.5 -31.5t-79 31.5t-32 78.5z" />
<glyph unicode="&#x2da;" horiz-adv-x="491" d="M43 1321q0 41 15.5 78t42 64.5t64.5 44t81 16.5q90 0 146.5 -60.5t56.5 -142.5q0 -84 -57.5 -143.5t-145.5 -59.5t-145.5 59.5t-57.5 143.5zM129 1321q0 -51 36 -84t81 -33t80.5 33t35.5 84q0 49 -35.5 83t-80.5 34t-81 -34t-36 -83z" />
<glyph unicode="&#x2db;" horiz-adv-x="491" d="M37 -279q0 43 17.5 84t44 78t59 67t65.5 50h105q-23 -16 -50.5 -41t-51 -55.5t-39 -66.5t-15.5 -73q0 -41 24.5 -68.5t73.5 -25.5q27 0 55.5 11.5t47.5 29.5l43 -84q-39 -37 -87 -58.5t-102 -21.5q-37 0 -71.5 12.5t-61 36t-42 55.5t-15.5 70z" />
<glyph unicode="&#x2dc;" horiz-adv-x="491" d="M-96 1180q6 39 21.5 77.5t41 68.5t61 48.5t81.5 18.5q47 0 89 -15.5t83 -31.5q31 -12 54 -23.5t56 -11.5q41 0 64.5 26.5t33.5 63.5h99q-6 -39 -19.5 -77t-37 -68.5t-56.5 -49t-78 -18.5q-43 0 -85 13t-81 30q-31 12 -65.5 25.5t-69.5 13.5q-39 0 -61.5 -28t-32.5 -62 h-98z" />
<glyph unicode="&#x2dd;" horiz-adv-x="491" d="M-45 1155l205 295h196l-264 -295h-137zM274 1155l224 295h209l-293 -295h-140z" />
<glyph unicode="&#x3a9;" horiz-adv-x="1523" d="M96 0v119h404v168q-96 27 -171 82t-127 129.5t-79 165t-27 188.5q0 137 52.5 252t142.5 197.5t208.5 129t252.5 46.5q131 0 249.5 -46.5t207.5 -129t141.5 -197.5t52.5 -250q0 -98 -26.5 -189.5t-78 -167t-126 -130t-173.5 -80.5v-168h404v-119h-514v371q92 16 162.5 58 t119 105.5t72 143.5t23.5 172q0 111 -40 203t-109.5 158.5t-164 103.5t-202.5 37q-109 0 -203 -38t-164 -104.5t-110 -159t-40 -200.5q0 -90 24 -171t72 -144.5t118.5 -106.5t162.5 -57v-371h-514z" />
<glyph unicode="&#x3c0;" horiz-adv-x="1153" d="M66 838v120h1011v-120h-155v-625q0 -45 11 -78t66 -33q43 0 86 21v-100q-35 -16 -64.5 -25.5t-66.5 -9.5q-59 0 -93 19.5t-49 53t-18 76.5t-3 90v611h-451v-838h-131v838h-143z" />
<glyph unicode="&#x2000;" horiz-adv-x="982" />
<glyph unicode="&#x2001;" horiz-adv-x="1964" />
<glyph unicode="&#x2002;" horiz-adv-x="982" />
<glyph unicode="&#x2003;" horiz-adv-x="1964" />
<glyph unicode="&#x2004;" horiz-adv-x="654" />
<glyph unicode="&#x2005;" horiz-adv-x="491" />
<glyph unicode="&#x2006;" horiz-adv-x="327" />
<glyph unicode="&#x2007;" horiz-adv-x="327" />
<glyph unicode="&#x2008;" horiz-adv-x="245" />
<glyph unicode="&#x2009;" horiz-adv-x="392" />
<glyph unicode="&#x200a;" horiz-adv-x="109" />
<glyph unicode="&#x2010;" horiz-adv-x="681" d="M90 418v147h502v-147h-502z" />
<glyph unicode="&#x2011;" horiz-adv-x="681" d="M90 418v147h502v-147h-502z" />
<glyph unicode="&#x2012;" horiz-adv-x="681" d="M90 418v147h502v-147h-502z" />
<glyph unicode="&#x2013;" horiz-adv-x="1024" d="M0 418v147h1024v-147h-1024z" />
<glyph unicode="&#x2014;" horiz-adv-x="2048" d="M0 418v147h2048v-147h-2048z" />
<glyph unicode="&#x2018;" horiz-adv-x="569" d="M123 958l168 492h155l-137 -492h-186z" />
<glyph unicode="&#x2019;" horiz-adv-x="569" d="M123 958l137 492h186l-167 -492h-156z" />
<glyph unicode="&#x201a;" horiz-adv-x="569" d="M123 -283l137 492h186l-167 -492h-156z" />
<glyph unicode="&#x201c;" horiz-adv-x="1062" d="M178 958l168 492h156l-137 -492h-187zM561 958l168 492h156l-137 -492h-187z" />
<glyph unicode="&#x201d;" horiz-adv-x="1062" d="M178 958l137 492h187l-168 -492h-156zM561 958l137 492h187l-168 -492h-156z" />
<glyph unicode="&#x201e;" horiz-adv-x="1062" d="M178 -283l137 492h187l-168 -492h-156zM561 -283l137 492h187l-168 -492h-156z" />
<glyph unicode="&#x2020;" d="M72 899v135h417v416h160v-416h418v-135h-418v-1157h-160v1157h-417z" />
<glyph unicode="&#x2021;" d="M84 135v135h405v652h-405v135h405v393h160v-393h406v-135h-406v-652h406v-135h-406v-393h-160v393h-405z" />
<glyph unicode="&#x2022;" horiz-adv-x="1024" d="M150 725q0 76 28.5 141.5t77.5 114.5t114.5 77.5t141.5 28.5t141.5 -28.5t114.5 -77.5t77.5 -114.5t28.5 -141.5t-28.5 -141.5t-77.5 -114.5t-114.5 -78t-141.5 -29t-141.5 29t-114.5 78t-77.5 114.5t-28.5 141.5z" />
<glyph unicode="&#x2026;" horiz-adv-x="2048" d="M219 111q0 51 36 86.5t87 35.5t87 -35.5t36 -86.5t-38 -87t-85 -36t-85 35.5t-38 87.5zM901 111q0 51 36 86.5t87 35.5t87 -35.5t36 -86.5t-38 -87t-85 -36t-85 35.5t-38 87.5zM1583 111q0 51 36 86.5t87 35.5t87 -35.5t36 -86.5t-38 -87t-85 -36t-85 35.5t-38 87.5z" />
<glyph unicode="&#x202f;" horiz-adv-x="392" />
<glyph unicode="&#x2030;" horiz-adv-x="2084" d="M37 1153q0 66 25.5 124t69.5 102t102.5 70t123.5 26q66 0 124.5 -26t102.5 -70t69.5 -102t25.5 -124q0 -68 -25.5 -126t-68.5 -101t-101.5 -69t-126.5 -26t-126 26t-101 69t-68.5 101t-25.5 126zM166 0l909 1516l113 -66l-909 -1516zM172 1153q0 -37 15.5 -70.5t41 -59.5 t59.5 -41t70 -15q37 0 71 15t59.5 41t41 59.5t15.5 70.5t-15.5 70.5t-41 59.5t-59.5 41t-71 15t-70.5 -15t-59 -41t-41 -59.5t-15.5 -70.5zM668 297q0 66 25.5 124t69.5 102t102.5 69.5t123.5 25.5q66 0 124 -25.5t102.5 -69.5t70 -102.5t25.5 -123.5q0 -68 -25.5 -126 t-68.5 -101t-101.5 -69t-126.5 -26t-126 26t-101 69t-68.5 101t-25.5 126zM803 297q0 -37 15.5 -70.5t41 -59.5t59 -41t70.5 -15t71 15t59.5 41t41 59.5t15.5 70.5t-15.5 70.5t-41 59.5t-59.5 41t-71 15t-70.5 -15t-59 -41t-41 -59.5t-15.5 -70.5zM1405 297q0 66 25.5 124 t69.5 102t102.5 69.5t123.5 25.5q66 0 124.5 -25.5t102.5 -69.5t69.5 -102.5t25.5 -123.5q0 -68 -25.5 -126t-68.5 -101t-101.5 -69t-126.5 -26t-126 26t-101 69t-68.5 101t-25.5 126zM1540 295q0 -37 15.5 -71t41 -59.5t59.5 -40.5t70 -15q37 0 71 15t59.5 40.5t41 59.5 t15.5 71t-15.5 70.5t-41 59.5t-59.5 41t-71 15t-70.5 -15t-59 -41t-41 -59.5t-15.5 -70.5z" />
<glyph unicode="&#x2039;" horiz-adv-x="643" d="M119 492l293 438l112 -74l-239 -364l239 -365l-112 -74z" />
<glyph unicode="&#x203a;" horiz-adv-x="643" d="M119 127l239 365l-239 364l112 74l293 -438l-293 -439z" />
<glyph unicode="&#x2044;" horiz-adv-x="342" d="M-340 0l909 1516l113 -66l-909 -1516z" />
<glyph unicode="&#x205f;" horiz-adv-x="491" />
<glyph unicode="&#x20ac;" horiz-adv-x="1187" d="M25 485l41 113h100q-2 20 -4 53t-2 62q0 35 2 72.5t6 62.5h-141l41 113h116q29 125 86.5 223t136 165.5t177 102.5t209.5 35q86 0 165.5 -17.5t139.5 -48.5l-51 -125q-104 61 -261 62q-180 0 -294.5 -105.5t-157.5 -291.5h614l-37 -113h-596q-4 -31 -7 -64.5t-3 -68.5 q0 -25 2 -58.5t6 -58.5h525l-37 -113h-473q16 -90 57 -161.5t101.5 -124t137 -80t162.5 -27.5q80 0 149 19.5t130 62.5l59 -115q-139 -96 -356 -96q-125 0 -225.5 44t-175 117t-121.5 167t-66 194h-155z" />
<glyph unicode="&#x2122;" horiz-adv-x="2027" d="M131 1315v135h668v-135h-267v-709h-135v709h-266zM969 606v844h215l252 -641l252 641h208v-844h-135v709h-4l-278 -709h-93l-278 709h-4v-709h-135z" />
<glyph unicode="&#x2202;" horiz-adv-x="1015" d="M63 434q0 88 27 168t78 139.5t125 94t168 34.5q100 0 188 -47t152 -125q0 27 1 53.5t1 53.5q0 86 -17.5 183t-59.5 181t-112.5 139.5t-177.5 55.5q-72 0 -124 -26.5t-105 -67.5l-74 88q66 57 137.5 88t159.5 31q98 0 174 -32t131.5 -87t93 -128t60 -155t33 -167 t10.5 -165q0 -113 -16.5 -247t-65.5 -249.5t-140.5 -193.5t-238.5 -78q-96 0 -172 38t-128 101.5t-80 146.5t-28 173zM193 430q0 -61 17 -122.5t53 -112t88 -81t122 -30.5q88 0 147.5 49t96.5 123t53.5 157.5t20.5 155.5q-55 74 -137.5 130.5t-180.5 56.5q-70 0 -122 -27 t-88 -72t-53 -104t-17 -123z" />
<glyph unicode="&#x2206;" horiz-adv-x="1372" d="M31 0l575 1458h152l588 -1458h-1315zM217 127h932l-469 1194z" />
<glyph unicode="&#x220f;" horiz-adv-x="1456" d="M145 -438v2048h1168v-2048h-135v1921h-897v-1921h-136z" />
<glyph unicode="&#x2211;" horiz-adv-x="1236" d="M51 -326l674 918l-645 903v115h1079v-127h-905l633 -891l-672 -905h969v-125h-1133v112z" />
<glyph unicode="&#x221a;" horiz-adv-x="1009" d="M-16 315l204 99l324 -680l387 1876h129l-430 -2048h-135l-336 696l-94 -45z" />
<glyph unicode="&#x221e;" horiz-adv-x="1597" d="M104 592q0 70 25 129t68 103t101 69t128 25q57 0 108.5 -20.5t98.5 -54.5t90 -78t84 -93q39 45 80 89t87 78.5t99 56.5t119 22q68 0 122 -24t94 -65t61.5 -100t21.5 -129v-2q0 -74 -26.5 -134.5t-69.5 -103.5t-99.5 -65.5t-117.5 -22.5q-98 0 -183.5 60.5t-193.5 183.5 q-41 -47 -83 -91t-89 -78t-100.5 -54.5t-116.5 -20.5q-61 0 -117.5 25t-98.5 68t-67 101t-25 126zM207 590q2 -92 61.5 -156.5t157.5 -64.5h2q49 0 93 21.5t83 54t74 70.5t67 73q-35 43 -69.5 85t-74.5 75.5t-86 54t-101 20.5q-49 0 -88 -18.5t-64.5 -51t-40 -74.5 t-14.5 -89zM858 598q102 -115 173 -172t155 -57q49 0 86 19.5t63.5 51t40 71.5t13.5 81q0 111 -57.5 171t-149.5 60h-2q-53 0 -99.5 -24.5t-86.5 -60.5t-74.5 -74.5t-61.5 -65.5z" />
<glyph unicode="&#x222b;" horiz-adv-x="1112" d="M207 -340q0 29 19.5 47.5t47.5 18.5q27 0 41.5 -12.5t23.5 -27t17.5 -26.5t20.5 -12q20 0 32.5 26.5t19.5 66.5t10 86t3 83v63l2 43v1014q0 47 -2 108.5t1 126t14.5 126t39 110.5t73.5 79t118 30q23 0 48.5 -5.5t47 -17.5t34.5 -31.5t13 -48.5q0 -35 -21.5 -52t-53.5 -17 q-29 0 -43.5 12t-23.5 27.5t-17 29t-23 13.5q-25 0 -39 -27t-21 -67t-10.5 -87t-2 -91t2.5 -76.5t1 -43.5v-1032q0 -66 -2.5 -157t-25 -174.5t-73.5 -142t-149 -58.5q-43 0 -83 22.5t-40 73.5z" />
<glyph unicode="&#x2248;" horiz-adv-x="1363" d="M145 178q8 53 25.5 104.5t46.5 92.5t73 65.5t107 24.5q68 0 143.5 -23.5t151.5 -51.5t147.5 -51.5t131.5 -23.5q72 0 108.5 47.5t50.5 112.5h91q-6 -53 -23.5 -104.5t-48.5 -91t-76 -63t-106 -23.5q-68 0 -143.5 23.5t-151.5 51t-146.5 51t-126.5 23.5q-70 0 -110.5 -50 t-50.5 -114h-93zM145 528q6 53 23.5 104.5t48.5 91.5t76 64.5t106 24.5q68 0 142.5 -23.5t150.5 -51t147.5 -51t131.5 -23.5q74 0 110.5 47t51.5 112h88q-6 -53 -23.5 -104t-48.5 -90t-75 -62.5t-105 -23.5q-68 0 -143.5 23.5t-152.5 51t-147.5 51t-126.5 23.5 q-70 0 -110.5 -50t-50.5 -114h-93z" />
<glyph unicode="&#x2260;" horiz-adv-x="1363" d="M168 246v123h371l139 266h-510v123h577l158 301l107 -58l-129 -243h315v-123h-381l-141 -266h522v-123h-588l-155 -295l-107 55l127 240h-305z" />
<glyph unicode="&#x2264;" horiz-adv-x="1363" d="M168 12v121h1028v-121h-1028zM168 606v133l1028 387v-133l-858 -321l858 -318v-133z" />
<glyph unicode="&#x2265;" horiz-adv-x="1363" d="M168 12v121h1028v-121h-1028zM168 221v133l860 318l-860 321v133l1028 -387v-133z" />
<glyph unicode="&#x25ca;" horiz-adv-x="1214" d="M195 729l346 801h129l350 -801l-350 -801h-129zM328 729l278 -666l281 666l-281 666z" />
<glyph unicode="&#x25fc;" horiz-adv-x="962" d="M0 0v963h963v-963h-963z" />
<glyph unicode="&#xf8ff;" horiz-adv-x="1048" d="M0 0v1470h1049v-1470h-1049zM102 102h844v1264h-844v-1264zM254 967q14 147 90 213.5t186 66.5q111 0 182.5 -72.5t71.5 -195.5q0 -66 -25.5 -120t-103.5 -126q-76 -68 -88 -106q-12 -41 -12 -148h-94l-4 35q0 115 26 166q14 27 37 56.5t58 64.5q66 61 84 97t18 73 q0 74 -46 124t-110 50q-63 0 -109 -45t-59 -150zM455 240v137h114v-137h-114z" />
<glyph unicode="&#xfb01;" horiz-adv-x="1099" d="M25 823v135h208v216q0 88 16.5 160.5t56.5 125.5t105.5 83t161.5 30q31 0 66 -6t57 -19l-22 -143q-57 20 -109 20q-61 0 -96 -21.5t-52.5 -59t-20.5 -91t-3 -114.5v-181h234v-135h-234v-823h-160v823h-208zM737 1333q0 47 34 82t83 35t83 -35t34 -82q0 -51 -33 -83.5 t-84 -32.5t-84 32.5t-33 83.5zM774 0v958h160v-958h-160z" />
<glyph unicode="&#xfb02;" horiz-adv-x="1099" d="M25 823v135h208v216q0 88 16.5 160.5t56.5 125.5t105.5 83t161.5 30q31 0 66 -6t57 -19l-22 -143q-57 20 -109 20q-61 0 -96 -21.5t-52.5 -59t-20.5 -91t-3 -114.5v-181h234v-135h-234v-823h-160v823h-208zM774 0v1548h160v-1548h-160z" />
</font>
</defs>
</svg>
