<?xml version="1.0" standalone="no"?>
<!DOCTYPE svg PUBLIC "-//W3C//DTD SVG 1.1//EN" "http://www.w3.org/Graphics/SVG/1.1/DTD/svg11.dtd" >
<svg xmlns="http://www.w3.org/2000/svg">
<metadata></metadata>
<defs>
<font id="dhbook_oblique" horiz-adv-x="1138" >
<font-face units-per-em="2048" ascent="1638" descent="-410" />
<missing-glyph horiz-adv-x="569" />
<glyph horiz-adv-x="0" />
<glyph unicode="&#xd;" horiz-adv-x="681" />
<glyph unicode=" "  horiz-adv-x="569" />
<glyph unicode="&#x09;" horiz-adv-x="569" />
<glyph unicode="&#xa0;" horiz-adv-x="569" />
<glyph unicode="!" horiz-adv-x="569" d="M188.5 98q6.5 43 41 77t83.5 34t76 -34t21 -77t-42 -76.5t-85 -33.5t-75 33.5t-19.5 76.5zM266 393l150 1057h147l-149 -1057h-148z" />
<glyph unicode="&#x22;" horiz-adv-x="1062" d="M457 969l69 481h123l-69 -481h-123zM754 969l69 481h123l-69 -481h-123z" />
<glyph unicode="#" d="M133 438l19 123h225l90 332h-221l18 123h240l121 434h125l-121 -434h272l121 434h125l-121 -434h184l-18 -123h-203l-90 -332h195l-19 -123h-211l-123 -438h-125l123 438h-272l-123 -438h-125l123 438h-209zM502 561h272l90 332h-272z" />
<glyph unicode="$" d="M115 188l135 88q27 -43 62.5 -75.5t74.5 -55t77 -34t71 -11.5l79 572q-68 20 -133 52t-115.5 79t-76 114.5t-13.5 161.5q12 88 55.5 160t106 123t138 81t151.5 36l21 143h98l-19 -139q74 0 129.5 -14.5t97.5 -39t72.5 -56.5t55.5 -64l-129 -99q-33 72 -101.5 106 t-144.5 32l-76 -547q72 -27 141.5 -60.5t122 -84t79 -121t11.5 -170.5q-12 -86 -54 -157t-104.5 -122t-143.5 -82t-169 -37l-20 -139h-98l18 135q-141 8 -245.5 72.5t-153.5 152.5zM424 1083q-6 -53 8 -92t43 -68.5t71 -52t91 -41.5l72 517q-111 -8 -190 -82t-95 -181z M633 102q39 0 88 12.5t93 43t78 81t46 126.5q16 104 -50.5 172.5t-178.5 105.5z" />
<glyph unicode="%" horiz-adv-x="1705" d="M235.5 1116q10.5 76 47 141.5t92 113.5t125 76t145.5 28t138.5 -28t103.5 -76t60 -113.5t9 -141.5t-48 -141.5t-93 -113.5t-124.5 -75.5t-145.5 -27.5t-138.5 27.5t-103.5 75.5t-59.5 113.5t-8 141.5zM336 -8l1139 1521l96 -55l-1135 -1521zM358 1116q-8 -51 5.5 -94 t41 -75t67.5 -49t89 -17t94 17t82 49t63 75t34 94q6 51 -6.5 94t-41 75t-68.5 49.5t-89 17.5t-94.5 -17.5t-82 -49.5t-62 -75t-32.5 -94zM954.5 334q10.5 76 48 141.5t93 113.5t125 75.5t145.5 27.5t138.5 -27.5t103.5 -75.5t59 -113.5t8 -141.5t-48 -141.5t-93 -113.5 t-125 -76t-145 -28q-76 0 -138.5 28t-103.5 76t-59.5 113.5t-8 141.5zM1077 334q-6 -51 6.5 -94t41 -75t68.5 -49.5t89 -17.5t94 17.5t82 49.5t62.5 75t31.5 94t-6 94t-40.5 75t-68.5 49t-89 17t-94.5 -17t-82 -49t-62.5 -75t-32 -94z" />
<glyph unicode="&#x26;" horiz-adv-x="1441" d="M152 377q10 80 47 145.5t89 117.5t117.5 93t135.5 72q-27 35 -52.5 74t-43 80.5t-25.5 89t0 96.5q10 82 47 145.5t92 107.5t124 66.5t146 22.5q72 0 133.5 -21.5t102.5 -62.5t60.5 -101.5t9.5 -140.5q-10 -72 -47 -128t-89.5 -102t-115 -82t-121.5 -65l285 -344l247 344 h166l-330 -448l279 -336h-209l-174 213q-106 -117 -219 -183.5t-260 -66.5q-90 0 -169 27.5t-133.5 81t-81 130.5t-11.5 175zM311 375q-10 -61 7.5 -112.5t53.5 -87.5t87 -56.5t110 -20.5t109.5 16.5t96.5 45t88 67.5t83 84l-325 402q-78 -41 -132.5 -77t-91.5 -76 t-57.5 -85t-28.5 -100zM565 1139q-6 -37 6.5 -77t31 -75t40 -64.5t37.5 -43.5q45 25 95 50t95 58t77 76t40 98q12 86 -39 138.5t-135 52.5q-92 0 -162.5 -57.5t-85.5 -155.5z" />
<glyph unicode="'" horiz-adv-x="532" d="M340 969l70 481h122l-69 -481h-123z" />
<glyph unicode="(" horiz-adv-x="532" d="M193 590q35 238 143 477.5t282 439.5l101 -69q-80 -104 -144.5 -202.5t-113.5 -200t-82 -210t-51.5 -235.5t-15.5 -233.5t22.5 -205t54.5 -194.5t84 -203l-119 -82q-111 193 -153.5 430.5t-7.5 487.5z" />
<glyph unicode=")" horiz-adv-x="532" d="M-20 -258q80 104 144 202.5t112.5 200t81 210t51 235.5t16.5 233.5t-21.5 204.5t-54.5 194.5t-84 202.5l119 82q111 -193 153 -430t7 -487q-33 -238 -141.5 -477.5t-282.5 -440.5z" />
<glyph unicode="*" horiz-adv-x="909" d="M223 1135l60 114l272 -92l43 293h123l-43 -293l301 92l27 -114l-301 -93l149 -247l-111 -74l-151 254l-225 -254l-86 74l219 247z" />
<glyph unicode="+" horiz-adv-x="1363" d="M238 559l18 123h461l63 461h123l-63 -461h460l-18 -123h-461l-63 -461h-123l63 461h-460z" />
<glyph unicode="," horiz-adv-x="569" d="M92 -287l205 482h166l-234 -482h-137z" />
<glyph unicode="-" horiz-adv-x="681" d="M137 424l19 135h526l-18 -135h-527z" />
<glyph unicode="." horiz-adv-x="569" d="M188.5 98q6.5 43 41 77t83.5 34t76 -34t21 -77t-42 -76.5t-85 -33.5t-75 33.5t-19.5 76.5z" />
<glyph unicode="/" horiz-adv-x="757" d="M10 2l830 1485l110 -41l-827 -1483z" />
<glyph unicode="0" d="M163 472q1 132 17.5 253t53 253t105.5 242.5t175 182.5t262 72t242 -72t124 -182.5t38 -243.5q0 -131 -16.5 -252t-53.5 -253t-106.5 -242.5t-176 -182.5t-262.5 -72t-241.5 72t-123.5 182.5t-37 242.5zM310 532.5q-5 -106.5 16.5 -200.5t81 -157.5t178.5 -63.5 t195.5 63.5t124.5 157.5t73 200.5t37 192.5t17 192.5t-16.5 200.5t-80.5 157.5t-178 63.5t-197 -63.5t-126 -157.5t-71.5 -200.5t-36 -192.5t-17.5 -192.5z" />
<glyph unicode="1" d="M375 1147l411 303h132l-205 -1450h-148l178 1266l-292 -230z" />
<glyph unicode="2" d="M98 0l25 170l659 588q37 33 75 69.5t71 77.5t55.5 86t28.5 94q8 59 -7.5 106.5t-48 80.5t-82 50t-106.5 17q-111 0 -197 -61t-125 -166l-153 16q27 80 74 144.5t110.5 109.5t139 69t159.5 24q88 0 164 -24t129 -71t79 -117.5t13 -164.5q-12 -84 -47 -154t-85 -131 t-110.5 -116.5t-121.5 -108.5l-521 -453h762l-18 -135h-922z" />
<glyph unicode="3" d="M115 268l164 47q23 -104 88 -154t196 -50q61 0 119.5 20.5t105 58t78 91t39.5 116.5q12 82 -11.5 138.5t-69.5 91.5t-109.5 50t-134.5 15h-64l19 135h75q63 0 124 14.5t108 46.5t79.5 83t43.5 123q16 117 -45.5 181t-188.5 64q-92 0 -168 -41t-131 -118l-121 65 q82 117 191.5 173.5t242.5 56.5q86 0 159 -25t123 -73t73.5 -118.5t11.5 -160.5q-8 -59 -34.5 -112.5t-66.5 -96.5t-89.5 -75t-100.5 -48l4 -4q61 -12 107.5 -46t76 -83t41 -110.5t3.5 -129.5q-14 -100 -62.5 -178t-119 -131t-158.5 -81t-183 -28q-160 0 -268 70t-147 223z " />
<glyph unicode="4" d="M127 344l23 168l718 938h41h148l-137 -971h208l-18 -135h-209l-49 -344h-147l49 344h-627zM268 479h504l115 824h-4z" />
<glyph unicode="5" d="M131 233l154 64q31 -86 97.5 -136t162.5 -50q70 0 132 25.5t112.5 68.5t84 102.5t44.5 126.5q10 76 -7.5 139.5t-59.5 109.5t-103.5 70.5t-139.5 24.5t-157.5 -21.5t-153.5 -58.5l121 752h143h596l-20 -135h-594l-70 -436q49 18 100.5 26t100.5 8q102 0 181 -34.5 t131 -97t73.5 -147.5t7.5 -185q-14 -104 -63.5 -191.5t-124 -150t-169 -97.5t-198.5 -35q-137 0 -238.5 65.5t-142.5 192.5z" />
<glyph unicode="6" d="M158 424q16 121 65 211t115 178l481 637h174l-483 -623l2 -4q41 25 100.5 37t108.5 12q94 0 171 -33.5t127 -93t72.5 -141.5t8.5 -180q-14 -100 -61.5 -182t-118 -141.5t-161.5 -92.5t-194 -33q-102 0 -184 33t-136.5 92.5t-78 141.5t-8.5 182zM305 424q-10 -70 6.5 -127 t53 -99t93 -64.5t128.5 -22.5t134 22.5t110.5 64.5t80 99t42 127t-5 127t-52.5 98t-93.5 64.5t-127.5 23.5q-72 0 -134.5 -23.5t-111.5 -64.5t-81 -98t-42 -127z" />
<glyph unicode="7" d="M221 0l780 1315h-706l20 135h861l-21 -135l-768 -1315h-166z" />
<glyph unicode="8" d="M166 387q20 143 108 245.5t215 135.5v4q-45 16 -80.5 48t-58 75t-32 94t-1.5 107q12 86 55.5 156.5t106 119.5t139 76t158.5 27t151.5 -27t119 -76t72 -119.5t9.5 -156.5q-16 -111 -88.5 -201t-173.5 -123v-4q117 -33 177.5 -135.5t39.5 -245.5q-14 -94 -62 -170 t-119 -130t-158 -83t-179 -29t-171 29t-134 83t-81.5 130t-12.5 170zM315 408q-10 -63 5.5 -117.5t50.5 -94.5t89 -62.5t126 -22.5q70 0 130 22.5t106 62.5t76 94.5t40 117.5q8 63 -6 117.5t-49 94t-90.5 62.5t-124.5 23q-72 0 -132.5 -23t-106.5 -62.5t-75.5 -94 t-38.5 -117.5zM463 1083.5q-8 -55.5 5 -102.5t44 -81t75 -53.5t99 -19.5q111 0 194 71.5t99 184.5t-47.5 184.5t-173.5 71.5q-55 0 -104.5 -19.5t-89.5 -53t-66.5 -80.5t-34.5 -102.5z" />
<glyph unicode="9" d="M242 1026q14 100 61 182t118 141.5t162 92.5t193 33t184 -33t136.5 -92.5t78 -141.5t9.5 -182q-16 -121 -64.5 -211t-113.5 -178l-482 -637h-174l484 623l-5 4q-39 -25 -98 -37t-108 -12q-94 0 -171 33.5t-127.5 93t-73 141.5t-9.5 180zM389 1026q-10 -70 6.5 -127 t53 -99t93 -64.5t128.5 -22.5t134 22.5t111.5 64.5t80 99t40.5 127t-5 127t-52 98t-93.5 64.5t-127.5 23.5q-72 0 -134.5 -23.5t-111.5 -64.5t-81 -98t-42 -127z" />
<glyph unicode=":" horiz-adv-x="569" d="M188.5 98q6.5 43 41 77t83.5 34t76 -34t21 -77t-42 -76.5t-85 -33.5t-75 33.5t-19.5 76.5zM295 858q6 43 41 77t84 34t75.5 -34t20.5 -77t-42 -76.5t-85 -33.5t-74.5 33.5t-19.5 76.5z" />
<glyph unicode=";" horiz-adv-x="569" d="M92 -287l205 482h166l-234 -482h-137zM313 858q6 43 41 77t84 34t76 -34t21 -77t-42 -76.5t-85 -33.5t-75 33.5t-20 76.5z" />
<glyph unicode="&#x3c;" horiz-adv-x="1363" d="M240 573l14 95l1112 487l-16 -123l-936 -411l819 -412l-16 -123z" />
<glyph unicode="=" horiz-adv-x="1363" d="M217 406l16 122h1045l-16 -122h-1045zM260 713l16 123h1045l-16 -123h-1045z" />
<glyph unicode="&#x3e;" horiz-adv-x="1363" d="M172 86l16 123l938 412l-821 411l17 123l976 -487l-14 -95z" />
<glyph unicode="?" horiz-adv-x="987" d="M256 1135q47 162 173 251t286 89q82 0 149.5 -24t113.5 -69t67.5 -112.5t9 -153.5t-45 -145.5t-75.5 -103.5t-91 -78.5t-91 -74.5t-75 -91.5t-42 -124.5l-14 -105h-148l25 170q8 55 39.5 101.5t73.5 86.5t90.5 76.5t90.5 78.5t73.5 89t39.5 109q14 104 -43 169.5 t-164 65.5q-104 0 -181 -61t-109 -162zM407.5 98q6.5 43 41 77t83.5 34t76 -34t21 -77t-42 -76.5t-85 -33.5t-75 33.5t-19.5 76.5z" />
<glyph unicode="@" horiz-adv-x="1638" d="M190.5 725q22.5 160 102.5 299t198.5 242.5t266 162t305.5 58.5q141 0 262 -46t204 -130t122 -200t20 -253q-18 -133 -80.5 -239.5t-144.5 -182.5t-170 -115.5t-158 -39.5q-127 0 -125 120h-4q-55 -49 -118.5 -84.5t-155.5 -35.5q-131 0 -198.5 85t-49.5 222 q14 106 63.5 209.5t124 185.5t170 132t203.5 50q76 0 133.5 -36.5t75.5 -131.5h4l64 129h114l-252 -577q-12 -27 -21 -54.5t-13 -50.5q-2 -16 9 -28.5t34 -12.5q53 0 113.5 38t113.5 100.5t92 142.5t51 166q16 117 -19.5 213t-106 165.5t-169 108.5t-204.5 39 q-133 0 -257 -54t-224.5 -144.5t-167 -208t-85 -244.5t15 -245t109.5 -208t184.5 -144t241.5 -54q76 0 153 16t149.5 49t137 78t113.5 105h129q-61 -84 -140 -151t-170 -113t-189.5 -70.5t-198.5 -24.5q-158 0 -288 58.5t-220 162t-131 242.5t-18.5 299zM604 600 q-12 -86 35 -141.5t131 -55.5q68 0 131.5 44.5t115.5 110t87 141.5t43 139q12 88 -29 146t-106 58q-76 -4 -144.5 -46t-124 -106.5t-92.5 -141t-47 -148.5z" />
<glyph unicode="A" horiz-adv-x="1404" d="M0 0l836 1450h143l426 -1450h-172l-107 381h-741l-213 -381h-172zM459 516h628l-204 762z" />
<glyph unicode="B" horiz-adv-x="1290" d="M197 0l204 1450h146h287q90 0 170.5 -18.5t139.5 -61.5q60 -42 89 -112q19 -46 19 -107q0 -31 -5 -66q-16 -119 -95 -203.5t-204 -113.5l-2 -4q152 -12 226 -108q58 -74 58 -185q0 -33 -5 -70q-4 -23 -16.5 -61.5t-38 -83.5t-68.5 -90t-106.5 -82t-151.5 -60.5 t-205 -23.5h-295h-147zM362 135h283q80 0 151.5 16.5t128 50.5t93.5 85t47 123q4 28 4 54q1 102 -65 158q-82 70 -261 70h-301zM459 815h297q53 0 107.5 13.5t100.5 44t78.5 78.5t42.5 118q1 9 1 21q0 18 -2 43q-3 41 -28.5 81.5t-83 70.5t-161.5 30h-283z" />
<glyph unicode="C" horiz-adv-x="1441" d="M200 725q22 166 99.5 305t193 240.5t262 159t308.5 57.5q68 0 134.5 -13.5t127.5 -41t114.5 -70.5t92.5 -105l-141 -96q-16 35 -51 70t-81.5 61.5t-101.5 43t-113 16.5q-139 0 -256.5 -51.5t-206.5 -137.5t-145 -199q-58 -114 -76 -239q-8 -53 -7 -103q1 -70 15 -136 q26 -114 90 -199.5t167.5 -137t242.5 -51.5q57 0 115.5 10.5t115 35t112 66.5t104.5 105l108 -86q-45 -55 -106.5 -104t-136 -85t-158.5 -56.5t-174 -20.5q-162 0 -292 57.5t-217 159t-124 240.5q-23 86 -23 183q-1 59 8 122z" />
<glyph unicode="D" horiz-adv-x="1517" d="M176 0l205 1450h147h334q135 0 265 -45t226.5 -136t144.5 -227q32 -91 32 -202q0 -55 -8 -115q-25 -182 -113 -317.5t-209 -226.5t-264 -136t-279 -45h-333h-148zM342 135h287q166 0 295 50.5t221 133t146.5 188t70.5 218.5q5 42 5 83q-1 70 -15 136q-24 106 -93 188 t-183.5 132.5t-280.5 50.5h-287z" />
<glyph unicode="E" horiz-adv-x="1214" d="M197 0l204 1450h146h753l-20 -135h-752l-69 -494h702l-18 -135h-703l-78 -551h777l-19 -135h-776h-147z" />
<glyph unicode="F" d="M197 0l204 1450h148h727l-21 -135h-727l-69 -494h676l-19 -135h-676l-96 -686h-147z" />
<glyph unicode="G" horiz-adv-x="1593" d="M200 725q23 166 100 305t192.5 240.5t262 159t308.5 57.5q174 0 294 -48t204 -147l-127 -108q-63 78 -158.5 123t-231.5 45q-139 0 -256.5 -51.5t-206.5 -137.5t-145.5 -199.5t-75.5 -238.5q-7 -53 -7 -103q0 -70 15 -136q25 -113 89.5 -199t168 -137.5t242.5 -51.5 q113 0 220.5 28t195.5 75l68 485h-346l18 135h346h148l-99 -710q-133 -72 -285.5 -110t-285.5 -38q-162 0 -292 57.5t-217 159t-124 240.5q-23 86 -23 183q0 59 8 122z" />
<glyph unicode="H" horiz-adv-x="1478" d="M197 0l204 1450h148l-90 -629h790l90 629h148l-205 -1450h-147l96 686h-791l-96 -686h-147z" />
<glyph unicode="I" horiz-adv-x="540" d="M197 0l204 1450h148l-205 -1450h-147z" />
<glyph unicode="J" horiz-adv-x="987" d="M66 266l153 31q8 -92 56.5 -145.5t146.5 -53.5q80 0 134 32t89 82t53.5 114.5t28.5 132.5l141 991h148l-150 -1053q-10 -74 -40.5 -150.5t-87 -139t-140.5 -103.5t-201 -41q-150 0 -238.5 77t-92.5 226z" />
<glyph unicode="K" horiz-adv-x="1290" d="M197 0l204 1450h148l-90 -629h2h18l772 629h211l-825 -657l661 -793h-217l-608 748h-22h-2l-105 -748h-147z" />
<glyph unicode="L" horiz-adv-x="1024" d="M197 0l204 1450h148l-187 -1315h676l-18 -135h-676h-147z" />
<glyph unicode="M" horiz-adv-x="1822" d="M197 0l204 1450h146h80l323 -1180l656 1180h75h150l-205 -1450h-147l176 1253h-4l-701 -1253h-78l-348 1253h-4l-176 -1253h-147z" />
<glyph unicode="N" horiz-adv-x="1593" d="M197 0l204 1450h146h39l690 -1229h4l174 1229h148l-205 -1450h-148h-37l-690 1241h-4l-174 -1241h-147z" />
<glyph unicode="O" horiz-adv-x="1708" d="M200 725q22 166 99.5 305t193 240.5t262 159t308.5 57.5t292 -57.5t217 -159t125 -240.5q24 -87 24 -184q0 -59 -9 -121q-23 -166 -100.5 -305t-193 -240.5t-262 -159t-308.5 -57.5t-292 57.5t-217 159t-124 240.5q-23 86 -23 183q-1 59 8 122zM360 725q-8 -53 -7 -103 q1 -70 15 -136q26 -114 90 -199.5t167.5 -137t242.5 -51.5t257 51.5t207 137.5t145.5 199.5t74.5 238.5q8 52 8 103q0 70 -15 136q-25 114 -89.5 199.5t-168 137t-243.5 51.5q-139 0 -256.5 -51.5t-206.5 -137.5t-146 -199.5t-75 -238.5z" />
<glyph unicode="P" horiz-adv-x="1175" d="M197 0l204 1450h142h280q221 0 335 -96q92 -78 92 -220q0 -34 -5 -71q-29 -197 -169 -293t-363 -96h-275l-94 -674h-147zM459 809h237q98 0 169 20.5t117 54.5t70.5 80t32.5 99q2 18 2 35q0 32 -7 62q-11 46 -48 81t-102.5 54.5t-163.5 19.5h-238z" />
<glyph unicode="Q" horiz-adv-x="1708" d="M202 744q23 161 98 297.5t187.5 235.5t254 154.5t298.5 55.5q156 0 283 -55.5t211 -154.5t120 -235q22 -84 22 -177q0 -59 -9 -122q-29 -197 -131 -353.5t-293 -250.5l-2 -4h438l-18 -135h-830q-158 0 -283.5 55.5t-209.5 154.5t-121 236q-23 84 -23 179q0 57 8 119z M362 743q-6 -49 -6 -96q0 -69 14 -135q23 -109 84.5 -192.5t161 -134t234.5 -50.5q133 0 246.5 50.5t198.5 134t140.5 193.5t72.5 231q6 49 6 97q0 68 -14 133q-23 109 -84.5 193t-161 134.5t-232.5 50.5q-135 0 -247.5 -50.5t-199 -134.5t-142 -193.5t-71.5 -230.5z" />
<glyph unicode="R" horiz-adv-x="1214" d="M197 0l204 1450h146h301q220 0 334 -96q92 -79 93 -222q0 -33 -5 -69q-23 -152 -132.5 -255t-291.5 -120l321 -688h-180l-303 674h-246l-94 -674h-147zM459 809h262q98 0 169 20.5t117 54.5t70.5 80t32.5 99q2 18 2 35q0 32 -7 62q-11 46 -48 81t-102.5 54.5t-163.5 19.5 h-263z" />
<glyph unicode="S" d="M127 178l147 96q35 -80 113 -128t193 -48q55 0 112.5 17.5t106.5 51.5t84 83t45 112q3 22 3 42q1 48 -17 84q-24 50 -72.5 84t-112 56.5t-130.5 45t-129 51.5t-108 73q-48 44 -70 110q-14 40 -13 92q0 35 6 75q14 104 65 182t124 129.5t161 76t176 24.5q123 0 218 -39 t167 -137l-143 -101q-74 141 -260 142q-57 0 -114.5 -15.5t-106 -47.5t-83 -82t-43.5 -117q-3 -21 -3 -41q-1 -47 17 -81q24 -48 73 -81t112.5 -55.5t130 -46t129 -52t108.5 -73.5q47 -46 69 -112q14 -40 13 -93q1 -34 -5 -72q-14 -98 -67.5 -177t-129.5 -132.5t-165 -82 t-175 -28.5q-133 0 -245.5 50t-180.5 165z" />
<glyph unicode="T" horiz-adv-x="1175" d="M213 1315l20 135h482h149h488l-21 -135h-485l-184 -1315h-148l184 1315h-485z" />
<glyph unicode="U" horiz-adv-x="1404" d="M243 350q-3 37 -3 73q0 61 8 118l129 909h147l-127 -893q-8 -61 -9 -111q0 -36 5 -68q10 -75 37 -126t64.5 -81t77.5 -46t78 -21.5t67 -5.5q41 0 108.5 13.5t135 59.5t124 137t78.5 249l127 893h148l-129 -909q-12 -90 -48 -191.5t-108 -187.5t-183.5 -142.5 t-273.5 -56.5q-164 0 -258 56.5t-141 142.5t-54 188z" />
<glyph unicode="V" horiz-adv-x="1251" d="M199 1450h163l287 -1229h4l650 1229h159l-770 -1450h-147z" />
<glyph unicode="W" horiz-adv-x="1933" d="M205 1450h164l172 -1241h4l540 1241h177l188 -1241h4l520 1241h164l-633 -1450h-172l-190 1241h-4l-539 -1241h-172z" />
<glyph unicode="X" horiz-adv-x="1290" d="M12 0l637 762l-391 688h199l313 -580l487 580h185l-590 -688l426 -762h-195l-350 657l-536 -657h-185z" />
<glyph unicode="Y" horiz-adv-x="1175" d="M176 1450h184l336 -684l529 684h184l-659 -825l-88 -625h-148l88 625z" />
<glyph unicode="Z" d="M47 0l16 123l1016 1192h-835l20 135h1020l-18 -123l-1014 -1192h858l-18 -135h-1045z" />
<glyph unicode="[" horiz-adv-x="532" d="M88 -319l256 1818h133h199l-17 -110h-196l-223 -1598h196l-16 -110h-199h-133z" />
<glyph unicode="\" horiz-adv-x="757" d="M213 1446l123 41l412 -1485l-125 -39z" />
<glyph unicode="]" horiz-adv-x="532" d="M23 -319l16 110h197l223 1598h-197l17 110h198h133l-256 -1818h-133h-198z" />
<glyph unicode="^" horiz-adv-x="1363" d="M244 563l594 887h98l344 -887h-127l-289 740l-493 -740h-127z" />
<glyph unicode="_" horiz-adv-x="1024" d="M-37 -256l14 102h1024l-14 -102h-1024z" />
<glyph unicode="`" horiz-adv-x="491" d="M184 1450h187l161 -295h-120z" />
<glyph unicode="a" horiz-adv-x="1062" d="M135 256q16 117 86 183.5t165 99t199.5 41t190.5 8.5h68l4 24q4 30 4 56q0 192 -215 192q-168 0 -309 -112l-68 96q76 68 182.5 103.5t241.5 35.5q70 0 131.5 -20.5t103.5 -62.5t61 -106q12 -39 12 -87q0 -30 -5 -64l-59 -428q-8 -55 -11.5 -115.5t-3.5 -99.5h-131 q-1 14 -1 29q0 22 2 47q3 41 10 80h-5q-72 -96 -159.5 -138.5t-204.5 -42.5q-63 0 -120.5 17.5t-97.5 53.5t-60 88q-14 35 -14 78q0 21 3 44zM285 274q-2 -14 -2 -27q0 -29 10 -53q14 -34 44 -55.5t68.5 -31t79.5 -9.5q74 0 132.5 24.5t99.5 66.5t66.5 98.5t35.5 120.5 l10 69h-69q-51 0 -128 -5t-150.5 -24.5t-130 -60.5t-66.5 -113z" />
<glyph unicode="b" horiz-adv-x="1251" d="M147 0l218 1548h135l-105 -749h4q39 49 89.5 84t102.5 57.5t105.5 32.5t100.5 10q113 0 200.5 -38t146 -105.5t82.5 -159.5q16 -59 16 -124q0 -37 -5 -77q-16 -109 -66.5 -201t-127 -159.5t-176 -105.5t-212.5 -38q-47 0 -97 10.5t-97 33t-86 57.5t-66 84h-4l-22 -160 h-136zM344 479q-5 -30 -5 -59q1 -46 13 -90q20 -70 63.5 -121t109 -81t149.5 -30t154.5 30t125 81t89.5 120.5t47 149.5q5 34 5 66q1 43 -9 83q-16 70 -56.5 121.5t-103 81t-146.5 29.5t-157.5 -29.5t-132 -81t-96.5 -121t-50 -149.5z" />
<glyph unicode="c" horiz-adv-x="987" d="M166 479q14 109 63.5 202t124 160.5t174.5 105.5q95 36 203 36h12q98 -2 183.5 -42t144.5 -124l-123 -84q-27 53 -84 90t-137 37h-11q-78 0 -144 -26q-70 -28 -124.5 -80t-88 -122.5t-45.5 -152.5q-6 -37 -6 -71q0 -44 8 -82q16 -70 55 -121t103 -80q59 -27 136 -27h11 q80 0 147.5 37t108.5 90l100 -84q-84 -84 -180.5 -124t-194.5 -42h-12q-110 0 -194 36q-89 38 -145 105q-57 68 -79 162q-13 55 -13 114q0 42 7 87z" />
<glyph unicode="d" horiz-adv-x="1251" d="M150 479q14 109 65 201t128 159.5t175 105.5t211 38q47 0 98.5 -10t97.5 -32.5t86 -57.5t66 -84h4l105 749h135l-217 -1548h-135l22 160h-4q-41 -49 -90 -84t-102.5 -57.5t-106.5 -33t-100 -10.5q-113 0 -201 38t-146.5 105.5t-82.5 159.5q-14 55 -15 115q0 42 7 86z M297 479q-5 -36 -5 -69q0 -42 8 -80q15 -70 55 -121t103.5 -81t147.5 -30q82 0 157 30t133 81t96 120.5t50 149.5q5 31 5 61q1 46 -11 88q-20 70 -64 121.5t-110.5 81t-148.5 29.5q-84 0 -155 -29.5t-125 -81t-89 -121t-47 -149.5z" />
<glyph unicode="e" d="M166 479q14 109 64.5 201t125 159.5t167.5 105.5t196 38q109 0 189.5 -39t129.5 -104q48 -64 68 -151q11 -51 12 -105q0 -39 -6 -80l-10 -62h-799q-1 -12 0 -23q1 -59 17 -112q20 -63 60 -109t98.5 -73t129.5 -27q109 0 195 50.5t135 115.5l92 -86q-100 -109 -210.5 -156 t-229.5 -47q-106 0 -191.5 38t-142.5 105q-58 68 -82 160q-15 56 -14 118q0 40 6 83zM324 553h647q4 28 4 54q1 100 -55 168q-70 85 -218 85q-66 0 -130 -25.5t-116.5 -68.5t-88 -98.5t-43.5 -114.5z" />
<glyph unicode="f" horiz-adv-x="606" d="M145 836l19 122h203l36 263q27 190 126.5 271t244.5 81q29 0 57.5 -4t57.5 -10l-41 -123q-25 6 -50.5 10t-52.5 4q-55 0 -93 -18.5t-60.5 -52t-35.5 -79t-19 -96.5l-35 -246h227l-18 -122h-228l-116 -836h-136l117 836h-203z" />
<glyph unicode="g" horiz-adv-x="1251" d="M78 -299l117 106q47 -80 136 -128t206 -48q102 0 178 30t127 81t79.5 119.5t41.5 146.5l22 172h-4q-78 -98 -178.5 -139t-204.5 -41t-190 37t-144.5 101.5t-85.5 154.5q-17 59 -17 124q0 34 5 71q14 104 64.5 194t124 157.5t167.5 105.5t201 38q43 0 90 -8t92 -28.5 t87 -56.5t77 -91h4l23 159h135l-133 -950q-12 -78 -44 -166t-98.5 -161.5t-174 -123t-269.5 -49.5q-281 0 -434 193zM315 492q-4 -28 -4 -54q0 -46 11 -88q18 -67 59 -117.5t101.5 -80t135.5 -29.5q74 0 145 26.5t128 74.5t96 116t47 152q4 30 4 59q0 43 -9 83 q-15 66 -55 116.5t-103.5 80t-147.5 29.5q-76 0 -144.5 -29.5t-124 -80t-92.5 -116.5t-47 -142z" />
<glyph unicode="h" d="M147 0l218 1548h135l-105 -743h4q27 39 67 71.5t86 56t96 37t97 13.5q184 1 259 -97q57 -74 57 -196q0 -39 -6 -82l-86 -608h-135l73 530q9 60 9 110q0 18 -1 32q-4 62 -27.5 103.5t-70.5 63t-123 21.5q-10 0 -58 -8t-105.5 -45t-108.5 -110.5t-70 -204.5l-69 -492h-136z " />
<glyph unicode="i" horiz-adv-x="491" d="M178 0l135 958h136l-136 -958h-135zM334 1327q6 43 41 70.5t71 27.5q38 1 64 -27q22 -22 21 -56q0 -7 -1 -15q-6 -43 -40.5 -70.5t-71.5 -27.5q-38 -1 -64 27q-22 22 -21 56q0 7 1 15z" />
<glyph unicode="j" horiz-adv-x="491" d="M-129 -471l35 117l6 -2q16 -4 34.5 -8.5t35.5 -4.5q49 0 80.5 18.5t50 48.5t28 64.5t13.5 69.5l159 1126h136l-162 -1148q-4 -20 -12.5 -70.5t-40 -102t-93 -90.5t-168.5 -39q-55 0 -102 21zM334 1327q6 43 41 70.5t71 27.5q37 0 64 -27q21 -23 21 -56q0 -7 -1 -15 q-6 -43 -40.5 -70.5t-71.5 -27.5t-64 27q-21 23 -21 56q0 7 1 15z" />
<glyph unicode="k" horiz-adv-x="987" d="M147 0l218 1548h135l-144 -1022l514 432h203l-538 -438l454 -520h-209l-426 504l-71 -504h-136z" />
<glyph unicode="l" horiz-adv-x="491" d="M178 0l217 1548h135l-217 -1548h-135z" />
<glyph unicode="m" horiz-adv-x="1744" d="M147 0l105 745q8 53 12 106.5t8 106.5h146l-21 -145h4q31 41 70 73t83 53.5t90 32.5t89 11q39 0 82 -8t81 -29.5t68.5 -60.5t47.5 -101q27 45 65.5 82t83.5 63.5t94.5 40t98.5 13.5q184 1 259 -97q56 -73 57 -193q0 -40 -7 -85l-86 -608h-135l78 559q8 57 8 103 q0 14 -1 26q-3 55 -25.5 94t-66.5 58.5t-114 19.5q-76 0 -131 -29.5t-94 -79t-62.5 -111.5t-32.5 -130l-71 -510h-135l77 559q8 59 8 106v23q-2 55 -25.5 94t-67.5 58.5t-113 19.5q-12 0 -57.5 -8t-97.5 -45t-100 -110.5t-67 -204.5l-69 -492h-136z" />
<glyph unicode="n" d="M147 0l105 748q6 39 11 98t9 112h140q-2 -39 -7 -76.5t-10 -76.5h4q27 39 67 71.5t86 56t96 37t97 13.5q184 1 259 -97q57 -74 57 -196q0 -39 -6 -82l-86 -608h-135l73 530q9 60 9 110q0 18 -1 32q-4 62 -27.5 103.5t-70.5 63t-123 21.5q-10 0 -58 -8t-105.5 -45 t-108.5 -110.5t-70 -204.5l-69 -492h-136z" />
<glyph unicode="o" horiz-adv-x="1214" d="M166 479q14 109 65.5 201t128 159.5t175 105.5t208.5 38q113 0 201 -38t146 -105q60 -68 84 -160q16 -59 15 -124q0 -37 -5 -77q-16 -109 -66.5 -201t-127.5 -159.5t-176 -105.5t-212 -38q-111 0 -199 38t-146 105q-59 68 -83 160q-15 56 -14 118q0 40 6 83zM314 479 q-6 -36 -6 -69q0 -42 8 -80q16 -70 56 -121t102.5 -81t146.5 -30t154.5 30t124.5 81t89 120.5t47 149.5q5 34 5 67q0 42 -9 82q-16 70 -56 121.5t-102.5 81t-146.5 29.5t-154.5 -29.5t-124 -81t-88 -121t-46.5 -149.5z" />
<glyph unicode="p" horiz-adv-x="1251" d="M66 -590l217 1548h135l-23 -159h4q39 49 89.5 84t102.5 57.5t105.5 32.5t100.5 10q113 0 200.5 -38t146 -105.5t82.5 -159.5q16 -59 16 -124q0 -37 -5 -77q-16 -109 -66.5 -201t-127 -159.5t-176 -105.5t-212.5 -38q-47 0 -97 10.5t-97 33t-86 57.5t-66 84h-4l-104 -750 h-135zM344 479q-5 -30 -5 -59q0 -47 13 -90q19 -70 63 -121t109.5 -81t149.5 -30t154.5 30t125 81t89.5 120.5t47 149.5q5 34 5 66q0 43 -9 83q-17 70 -57 121.5t-102.5 81t-146.5 29.5t-157.5 -29.5t-132 -81t-96.5 -121t-50 -149.5z" />
<glyph unicode="q" horiz-adv-x="1251" d="M150 479q14 109 65 201t128 159.5t175 105.5t211 38q47 0 98.5 -10t97.5 -32.5t86 -57.5t66 -84h4l23 159h135l-217 -1548h-135l104 750h-4q-41 -49 -90 -84t-102.5 -57.5t-106.5 -33t-100 -10.5q-113 0 -201 38t-146.5 105.5t-82.5 159.5q-15 55 -15 115q0 42 7 86z M297 479q-5 -36 -5 -69q0 -42 8 -80q15 -70 55 -121t103.5 -81t147.5 -30q82 0 157 30t133 81t96 120.5t50 149.5q5 31 5 61q0 46 -11 88q-20 70 -64 121.5t-110.5 81t-148.5 29.5q-84 0 -155 -29.5t-125 -81t-89 -121t-47 -149.5z" />
<glyph unicode="r" horiz-adv-x="679" d="M162 0l92 659q8 63 15 129t20 170h133l-25 -178h4q20 39 51 75t73 64.5t94.5 46t115.5 17.5q57 0 101 -12l-48 -133q-25 10 -75 10q-78 0 -137.5 -30t-102.5 -76t-68.5 -99t-31.5 -102l-76 -541h-135z" />
<glyph unicode="s" horiz-adv-x="872" d="M90 162l129 80q33 -66 89.5 -105t142.5 -39q41 0 82.5 9.5t76.5 29t58.5 50t29.5 71.5q4 37 -6 61.5t-32.5 42t-54.5 28.5t-68 22l-127 30q-25 6 -64 20.5t-74.5 43.5t-58.5 75q-16 31 -16 72q0 19 4 41q10 74 47 129.5t91 90t120.5 52t134.5 17.5q100 0 181 -39 t116 -133l-133 -80q-23 59 -69 94t-120 35q-35 0 -71.5 -8t-67.5 -25.5t-52.5 -44t-27.5 -65.5q-2 -13 -2 -24q0 -49 35 -75q43 -30 135 -53l133 -33q95 -23 153 -91q46 -55 47 -132q0 -19 -3 -39q-12 -78 -52 -134t-97.5 -92t-127 -52.5t-139.5 -16.5q-111 0 -200 42 t-142 145z" />
<glyph unicode="t" horiz-adv-x="679" d="M145 836l19 122h203l36 271h136l-37 -271h276l-18 -122h-277l-77 -566q-5 -33 -5 -58q0 -16 2 -28q5 -34 20 -52.5t40.5 -26t56.5 -7.5q35 0 73 10.5t71 26.5l-11 -125q-82 -35 -188 -35q-39 0 -79 10.5t-70 38.5q-32 28 -48 78q-10 29 -9 68q0 28 5 61l84 605h-203z" />
<glyph unicode="u" d="M197 350l86 608h135l-76 -530q-7 -57 -7 -105q0 -19 1 -37q4 -62 27.5 -103.5t70.5 -63t123 -21.5q6 0 31.5 3t59.5 14.5t73 35t74.5 64.5t63.5 102.5t40 149.5l70 491h135l-107 -747q-4 -39 -9 -98.5t-9 -112.5h-139q2 39 6 77t10 77h-4q-29 -39 -69 -72t-86 -56.5 t-96 -37t-97 -13.5q-184 -1 -258 97q-55 73 -55 192q0 41 6 86z" />
<glyph unicode="v" horiz-adv-x="987" d="M164 958h162l190 -806h4l420 806h154l-525 -958h-151z" />
<glyph unicode="w" horiz-adv-x="1478" d="M164 958h160l110 -778h4l367 778h139l146 -778h4l331 778h160l-438 -958h-152l-143 786h-4l-365 -786h-151z" />
<glyph unicode="x" horiz-adv-x="987" d="M0 0l467 512l-285 446h185l215 -358l305 358h168l-398 -446l330 -512h-184l-262 420l-369 -420h-172z" />
<glyph unicode="y" horiz-adv-x="987" d="M-12 -477l32 131q23 -12 47.5 -17.5t53.5 -5.5q72 0 119 45t90 127l94 185l-256 970h170l188 -792l406 792h164l-650 -1208q-59 -111 -134.5 -176.5t-200.5 -65.5q-31 0 -63 2.5t-60 12.5z" />
<glyph unicode="z" horiz-adv-x="872" d="M47 0l14 98l664 738h-532l18 122h729l-14 -98l-666 -737h582l-17 -123h-778z" />
<glyph unicode="{" horiz-adv-x="532" d="M98 528l19 123q70 0 133 59.5t80 168.5l51 364q10 72 35.5 121t60.5 79t77 43t85 13h131l-18 -123h-115q-37 0 -60.5 -15t-36 -40t-18.5 -55.5t-10 -59.5l-49 -352q-10 -74 -40 -124t-63.5 -79.5t-65.5 -43t-50 -15.5l-2 -4q18 -2 46.5 -15.5t54.5 -43t40 -80t4 -123.5 l-49 -353q-4 -29 -6 -59.5t4 -55t25.5 -40t56.5 -15.5h114l-18 -122h-131q-43 0 -82 13t-64.5 43t-37 79t-0.5 121l51 364q6 53 -3 95t-30.5 72t-52.5 45t-66 15z" />
<glyph unicode="|" horiz-adv-x="454" d="M160 -37l223 1585h123l-223 -1585h-123z" />
<glyph unicode="}" horiz-adv-x="532" d="M-72 -319l19 122h114q37 0 60.5 15.5t36 40t18.5 55.5t10 59l50 353q10 74 39.5 124t63.5 79.5t65.5 43t50.5 15.5l2 4q-18 2 -47 15.5t-54.5 43t-40 79.5t-4.5 124l49 352q4 29 6.5 59.5t-4 55.5t-26 40t-55.5 15h-115l18 123h131q43 0 82 -13t64.5 -43t37 -79t1.5 -121 l-51 -364q-8 -53 2 -96.5t31.5 -72t52 -44t65.5 -15.5l-18 -123q-70 0 -134.5 -59t-78.5 -168l-52 -364q-10 -72 -35.5 -121t-60.5 -79t-77 -43t-85 -13h-131z" />
<glyph unicode="~" horiz-adv-x="1363" d="M262 569q27 33 59.5 67t70.5 61.5t82 45t93 17.5q33 0 55.5 -1t44 -7.5t46 -18.5t59.5 -33q25 -14 48.5 -30.5t49 -30.5t52 -24.5t55.5 -10.5q35 0 68.5 15.5t62.5 39t53.5 49t40.5 46.5l74 -82q-29 -33 -60.5 -67t-69.5 -61.5t-82 -45t-93 -17.5q-33 0 -55.5 1t-44 7.5 t-46 18.5t-59.5 33q-47 29 -97.5 62.5t-107.5 33.5q-35 0 -68.5 -15.5t-62.5 -39t-53.5 -49t-40.5 -46.5z" />
<glyph unicode="&#xa1;" horiz-adv-x="569" d="M145 -467l148 1057h147l-147 -1057h-148zM299 885q6 43 41 76.5t84 33.5t75.5 -33.5t20.5 -76.5t-42 -77t-85 -34t-74.5 34t-19.5 77z" />
<glyph unicode="&#xa2;" d="M227.5 479.5q14.5 98.5 55.5 184.5t105.5 152.5t150.5 108.5t188 52l18 129h99l-19 -125q92 -4 172 -45t136 -119l-123 -84q-23 49 -76 85t-125 40l-107 -758q74 4 136.5 40t99.5 85l100 -84q-78 -78 -169 -118.5t-185 -45.5l-16 -124h-99l19 129q-98 10 -173 52 t-121 108.5t-63.5 152.5t-3 184.5zM375 344.5q10 -63.5 39.5 -113t77 -82t112.5 -45.5l107 750q-68 -12 -125.5 -45t-101.5 -82t-71.5 -112.5t-37.5 -135t0 -135z" />
<glyph unicode="&#xa3;" d="M172 0l16 123h209l80 563h-196l18 123h197l24 178q14 98 47 186.5t91.5 155t147.5 106.5t216 40q90 0 169 -29t132 -94l-111 -105q-35 47 -88 76t-125 29q-94 0 -155.5 -39t-98 -97.5t-55 -124t-24.5 -116.5l-23 -166h344l-18 -123h-344l-80 -563h518l-16 -123h-519h-149 h-207z" />
<glyph unicode="&#xa4;" d="M106 305l123 109q-43 68 -60 146.5t-3 164.5q10 86 49 165t102 146l-92 109l103 90l92 -109q76 53 159 81t164 28q82 0 157 -27.5t134 -81.5l125 109l78 -90l-125 -109q45 -68 62.5 -146.5t3.5 -164.5q-23 -172 -154 -311l94 -109l-102 -90l-94 109q-76 -53 -158 -81 t-164 -28t-157.5 27.5t-135.5 81.5l-123 -109zM301 725q-12 -80 7.5 -150.5t62.5 -123t106.5 -83t140.5 -30.5q76 0 148 30.5t129 83t96 123t51 150.5q10 80 -8 150.5t-61 123t-106.5 83t-139.5 30.5q-78 0 -149.5 -30.5t-130 -83t-97.5 -123t-49 -150.5z" />
<glyph unicode="&#xa5;" d="M201 1450h174l301 -696l498 696h174l-519 -700h252l-14 -111h-319l-19 -25l-22 -157h333l-14 -111h-334l-49 -346h-147l49 346h-334l14 111h334l23 157l-11 25h-319l14 111h254z" />
<glyph unicode="&#xa6;" horiz-adv-x="454" d="M160 -37l88 619h123l-88 -619h-123zM297 930l86 618h123l-86 -618h-123z" />
<glyph unicode="&#xa7;" d="M121 -49l143 65q20 -96 90 -137t156 -41q41 0 84 10.5t81 35t65.5 64.5t35.5 99q10 63 -23.5 105.5t-93.5 74.5l-262 138q-74 39 -117.5 103t-29.5 163q16 102 84.5 167.5t167.5 106.5q-18 14 -43 33.5t-45.5 48.5t-31.5 69t-3 95q10 80 48 140.5t93 101.5t123 61.5 t139 20.5q137 0 221 -56.5t105 -136.5l-129 -61q-8 20 -22.5 42.5t-39 42t-59.5 33t-82 13.5q-72 0 -118 -22.5t-74.5 -53.5t-41 -61.5t-14.5 -47.5q-10 -76 32 -117.5t108 -76.5l209 -115q80 -45 127 -111.5t30 -173.5q-12 -94 -70.5 -159.5t-144.5 -108.5 q70 -53 93.5 -110.5t11.5 -145.5q-12 -86 -53.5 -148.5t-100.5 -104.5t-132 -61.5t-146 -19.5q-137 0 -237.5 57.5t-133.5 178.5zM399 641q-6 -43 10.5 -74.5t45 -55.5t63.5 -42t66 -33l125 -65q57 23 111 72t65 110q6 45 -6.5 79t-37 60.5t-56 46t-64.5 35.5l-109 53 l-37 -14q-61 -25 -113 -65.5t-63 -106.5z" />
<glyph unicode="&#xa8;" horiz-adv-x="491" d="M131 1325q6 41 39 73t80 32t71.5 -32t18.5 -73t-39 -72.5t-80 -31.5t-71.5 31.5t-18.5 72.5zM524 1325q6 41 39 73t80 32t71.5 -32t18.5 -73t-38.5 -72.5t-80.5 -31.5q-47 0 -71.5 31.5t-18.5 72.5z" />
<glyph unicode="&#xa9;" horiz-adv-x="1638" d="M152 721q25 164 105.5 304t199 242.5t266 161t305.5 58.5q156 0 288 -58.5t222 -160t132 -239.5t20 -300q-23 -164 -104 -304t-200.5 -242.5t-268 -161t-304.5 -58.5q-158 0 -289 58.5t-221 160t-132 239.5t-19 300zM274 721q-18 -137 16 -255t108.5 -205t185 -137 t245.5 -50t259 50t224.5 138t167 208t87.5 259q18 137 -15.5 256t-108.5 206t-185.5 136t-245.5 49t-259 -50t-224.5 -137t-167.5 -207t-87 -261zM495.5 725q14.5 100 57.5 186t109.5 147.5t155.5 96.5t194 35q74 0 136 -19.5t108.5 -58.5t72 -97.5t25.5 -135.5h-115 q-4 86 -69.5 143t-172.5 57q-78 0 -143.5 -27.5t-114.5 -74.5t-79.5 -110.5t-41.5 -137.5q-10 -72 4.5 -136.5t51.5 -114.5t94 -79.5t133 -29.5q106 0 187 60t110 149h117q-55 -147 -171 -233.5t-257 -86.5q-104 0 -183 36t-130.5 98.5t-72 147.5t-6 185z" />
<glyph unicode="&#xaa;" horiz-adv-x="690" d="M209 1038q6 47 29.5 85t69.5 64.5t116 41t172 14.5h45l2 17q10 57 -20.5 86.5t-94.5 29.5q-55 0 -102 -16.5t-88 -44.5l-55 76q61 51 125.5 67.5t130.5 16.5q76 0 124 -19.5t72.5 -47.5t31.5 -60.5t5 -57.5l-41 -280q-4 -35 -5 -69t-3 -60h-111l4 73h-2 q-33 -41 -87 -63.5t-126 -22.5q-41 0 -78.5 10.5t-65.5 32t-41 53t-7 74.5zM334 1044q-6 -41 28.5 -59t79.5 -18q53 0 88 17t55.5 44t30 58.5t13.5 58.5h-27q-27 0 -70 -2t-84.5 -11.5t-74.5 -30t-39 -57.5z" />
<glyph unicode="&#xab;" horiz-adv-x="987" d="M176 492l346 428l86 -68l-284 -360l184 -361l-107 -68zM549 492l346 428l86 -68l-285 -360l185 -361l-107 -68z" />
<glyph unicode="&#xac;" horiz-adv-x="1363" d="M260 713l16 123h922h123l-80 -570h-123l64 447h-922z" />
<glyph unicode="&#xad;" horiz-adv-x="681" d="M137 424l19 135h526l-18 -135h-527z" />
<glyph unicode="&#xae;" horiz-adv-x="1638" d="M152 721q25 164 105.5 304t199 242.5t266 161t305.5 58.5q156 0 288 -58.5t222 -160t132 -239.5t20 -300q-23 -164 -104 -304t-200.5 -242.5t-268 -161t-304.5 -58.5q-158 0 -289 58.5t-221 160t-132 239.5t-19 300zM274 721q-18 -137 16 -255t108.5 -205t185 -137 t245.5 -50t259 50t224.5 138t167 208t87.5 259q18 137 -15.5 256t-108.5 206t-185.5 136t-245.5 49t-259 -50t-224.5 -137t-167.5 -207t-87 -261zM573 279l125 882h119h205q160 0 226.5 -60.5t47.5 -193.5q-8 -59 -32.5 -102t-59.5 -71.5t-80 -44t-94 -21.5l199 -389h-133 l-189 378h-157l-54 -378h-123zM766 768h152q45 0 89 3t78.5 17.5t58 43t32.5 81.5q6 45 -8.5 73t-41 42t-61.5 18.5t-70 4.5h-190z" />
<glyph unicode="&#xaf;" horiz-adv-x="491" d="M141 1229l17 110h553l-17 -110h-553z" />
<glyph unicode="&#xb0;" horiz-adv-x="819" d="M268 1169q8 66 40 122.5t78 97.5t105.5 63.5t124.5 22.5q66 0 119 -22.5t88 -63.5t49.5 -97.5t6.5 -122.5q-10 -66 -41 -122t-77 -97t-105.5 -63.5t-125.5 -22.5t-119 22.5t-87.5 63.5t-50 97.5t-5.5 121.5zM366.5 1169q-6.5 -43 5 -80.5t35 -65.5t59.5 -44t79 -16t83 16 t71.5 44t53 65.5t27.5 80.5t-5 81t-34.5 65.5t-59.5 44t-79 16.5t-83 -16.5t-71.5 -44t-53 -65.5t-28 -81z" />
<glyph unicode="&#xb1;" horiz-adv-x="1363" d="M174 98l16 123h1045l-16 -123h-1045zM260 711l16 123h461l45 319h123l-45 -319h461l-16 -123h-461l-43 -310h-123l43 310h-461z" />
<glyph unicode="&#xb2;" horiz-adv-x="739" d="M154 592l16 117l397 335q47 41 92.5 89.5t53.5 107.5q4 25 -6.5 47.5t-31 40t-47 26.5t-53.5 9q-68 0 -121 -34t-75 -81l-113 19q35 100 121 153.5t197 53.5q57 0 106 -14.5t85 -42t53.5 -70.5t9.5 -99q-6 -49 -29 -92t-55.5 -80t-71.5 -69.5t-78 -65.5l-301 -240h465 l-14 -110h-600z" />
<glyph unicode="&#xb3;" horiz-adv-x="739" d="M176 756l115 61q16 -61 56 -94t126 -33q31 0 62.5 12.5t59.5 32t46 45t23 51.5q2 25 -2.5 52.5t-26 51t-62.5 39t-108 15.5h-59l14 111h49q84 0 149.5 33.5t75.5 103.5q8 55 -28.5 91t-100.5 36q-59 0 -101 -19.5t-89 -74.5l-86 67q63 78 133 108t156 30q55 0 102 -15.5 t81 -44.5t50 -70.5t8 -95.5q-10 -72 -66.5 -126t-129.5 -76v-5q92 -16 133 -74.5t30 -138.5q-8 -59 -38.5 -106t-75.5 -79t-102.5 -48t-118.5 -16q-104 0 -176 42t-99 134z" />
<glyph unicode="&#xb4;" horiz-adv-x="491" d="M283 1155l247 295h187l-314 -295h-120z" />
<glyph unicode="&#xb5;" d="M82 -467l201 1425h135l-76 -530q-25 -176 21.5 -253t193.5 -77q61 0 117.5 24.5t102.5 72t78 116t44 156.5l70 491h135l-107 -747q-6 -53 -10 -105.5t-8 -105.5h-145l22 156h-4q-29 -37 -69 -70t-86 -57.5t-96 -39t-97 -14.5q-139 0 -217 60l-70 -502h-135z" />
<glyph unicode="&#xb6;" horiz-adv-x="1228" d="M244 1028q29 201 169 311.5t357 110.5h92h258h135l-241 -1708h-135l225 1597h-254l-225 -1597h-136l127 905q-94 0 -167.5 30t-123 81t-72 120.5t-9.5 149.5z" />
<glyph unicode="&#xb7;" horiz-adv-x="569" d="M264 643q6 43 42 77t85 34t74.5 -34t19.5 -77t-40.5 -77t-84.5 -34q-49 0 -75.5 34t-20.5 77z" />
<glyph unicode="&#xb8;" horiz-adv-x="491" d="M-27 -395l43 73q63 -37 146 -36q45 0 89 20.5t52 71.5q0 8 -2 22.5t-11 27.5t-27.5 22.5t-49.5 9.5q-29 0 -51.5 -6.5t-44.5 -16.5l-33 35l152 172h83l-108 -123l2 -2q18 6 35.5 10t40.5 4q61 0 104 -39.5t33 -113.5q-6 -47 -32.5 -82t-63.5 -56.5t-80 -31.5t-84 -10 q-106 0 -193 49z" />
<glyph unicode="&#xb9;" horiz-adv-x="739" d="M291 1280l264 182h111l-121 -870h-123l104 747l-188 -137z" />
<glyph unicode="&#xba;" horiz-adv-x="788" d="M227 1169q8 66 41 122.5t82 97.5t113.5 63.5t136.5 22.5q74 0 131 -22.5t95 -63.5t54.5 -97.5t8.5 -122.5q-10 -66 -42 -120t-81 -95t-112.5 -63.5t-137.5 -22.5q-72 0 -130 22.5t-96 63.5t-55.5 95.5t-7.5 119.5zM350 1169q-10 -84 38 -143t140 -59q45 0 86 16t73 44 t52.5 64.5t26.5 77.5q6 43 -4 80t-33.5 65.5t-60.5 45t-82 16.5q-92 0 -158 -60.5t-78 -146.5z" />
<glyph unicode="&#xbb;" horiz-adv-x="987" d="M143 131l287 361l-186 360l106 68l228 -428l-349 -429zM516 131l287 361l-187 360l107 68l227 -428l-348 -429z" />
<glyph unicode="&#xbc;" horiz-adv-x="1708" d="M311 1280l264 182h111l-121 -870h-123l105 747l-189 -137zM313 0l1137 1516l96 -64l-1134 -1518zM965 193l18 126l444 551h150l-80 -567h123l-16 -110h-123l-27 -193h-123l27 193h-393zM1092 303h282l62 445h-4z" />
<glyph unicode="&#xbd;" horiz-adv-x="1708" d="M260 1280l264 182h111l-121 -870h-123l105 747l-189 -137zM262 0l1137 1516l96 -64l-1135 -1518zM1028 0l16 117l398 336q47 39 92 88t55 108q2 25 -8 47.5t-30.5 40t-47 26.5t-53.5 9q-68 0 -121 -33.5t-76 -81.5l-112 19q35 100 122 153.5t197 53.5q57 0 106.5 -14.5 t84.5 -42t52 -70.5t9 -99q-6 -49 -28.5 -92t-55.5 -79.5t-71.5 -69.5t-77.5 -66l-299 -239h465l-17 -111h-600z" />
<glyph unicode="&#xbe;" horiz-adv-x="1708" d="M197 756l112 61q16 -61 56.5 -94t126.5 -33q31 0 62.5 12.5t59 32t46 45t22.5 51.5q2 25 -2 52.5t-25.5 51t-62.5 39t-109 15.5h-59l14 111h49q84 0 149.5 34.5t76.5 110.5q8 49 -29 84t-100 35q-59 0 -101.5 -19.5t-89.5 -74.5l-86 67q63 78 133 108t156 30 q55 0 102 -15.5t81 -44.5t50.5 -70.5t8.5 -95.5q-10 -72 -66.5 -126t-130.5 -76v-5q92 -16 133 -74.5t31 -138.5q-8 -59 -39 -106t-76 -79t-102.5 -48t-118.5 -16q-104 0 -176 42t-96 134zM395 0l1137 1516l96 -64l-1134 -1518zM1006 193l18 126l444 551h150l-80 -567h123 l-16 -110h-123l-27 -193h-123l27 193h-393zM1133 303h282l62 445h-4z" />
<glyph unicode="&#xbf;" horiz-adv-x="987" d="M71.5 -133q12.5 86 45.5 145.5t76 103.5t91 78.5t90 74.5t73.5 90.5t41.5 125.5l15 105h147l-22 -170q-10 -57 -41 -102.5t-74 -85t-91 -76.5t-90 -79t-73 -90t-39 -108q-8 -53 3.5 -96t39 -74t69.5 -48t95 -17q104 0 181 61.5t110 161.5l151 -19q-23 -80 -67.5 -143 t-106 -107t-134.5 -67t-152 -23q-82 0 -149.5 24t-114 69t-67 112.5t-8 153.5zM498 885q6 43 40.5 76.5t84.5 33.5q49 0 75.5 -33.5t20.5 -76.5t-42 -77t-85 -34t-74.5 34t-19.5 77z" />
<glyph unicode="&#xc0;" horiz-adv-x="1404" d="M0 0l836 1450h143l426 -1450h-172l-107 381h-741l-213 -381h-172zM459 516h628l-204 762zM692 1808h187l161 -295h-120z" />
<glyph unicode="&#xc1;" horiz-adv-x="1404" d="M0 0l836 1450h143l426 -1450h-172l-107 381h-741l-213 -381h-172zM459 516h628l-204 762zM791 1513l247 295h187l-314 -295h-120z" />
<glyph unicode="&#xc2;" horiz-adv-x="1404" d="M0 0l836 1450h143l426 -1450h-172l-107 381h-741l-213 -381h-172zM459 516h628l-204 762zM610 1513l267 295h163l181 -295h-135l-140 221l-200 -221h-136z" />
<glyph unicode="&#xc3;" horiz-adv-x="1404" d="M0 0l836 1450h143l426 -1450h-172l-107 381h-741l-213 -381h-172zM459 516h628l-204 762zM588 1538q12 39 30.5 77.5t45 68.5t61.5 48.5t82 18.5q37 0 72 -14.5t69 -32.5q35 -16 68 -32t63 -16q47 0 74 32t41 71h88q-12 -41 -30.5 -79t-44 -67.5t-61.5 -48t-81 -18.5 q-37 0 -72.5 15.5t-70.5 31.5q-35 18 -67 32.5t-64 14.5q-47 0 -74 -31.5t-41 -70.5h-88z" />
<glyph unicode="&#xc4;" horiz-adv-x="1404" d="M0 0l836 1450h143l426 -1450h-172l-107 381h-741l-213 -381h-172zM459 516h628l-204 762zM639 1683q6 41 39 73t80 32t71.5 -32t18.5 -73t-39 -72.5t-80 -31.5t-71.5 31.5t-18.5 72.5zM1032 1683q6 41 39 73t80 32t71.5 -32t18.5 -73t-38.5 -72.5t-80.5 -31.5 q-47 0 -71.5 31.5t-18.5 72.5z" />
<glyph unicode="&#xc5;" horiz-adv-x="1404" d="M0 0l836 1450h143l426 -1450h-172l-107 381h-741l-213 -381h-172zM459 516h628l-204 762zM743.5 1689q6.5 41 27 77t51 61.5t68.5 41t79 15.5q39 0 72.5 -15.5t57 -41t34 -61.5t4.5 -77t-26.5 -76.5t-51.5 -62.5t-69 -41t-76 -14q-41 0 -74 14t-56.5 41t-35 62.5t-5 76.5 zM817 1689q-6 -51 25 -86t82 -35t92 35t47 86q8 51 -22.5 86t-81.5 35t-92.5 -35t-49.5 -86z" />
<glyph unicode="&#xc6;" horiz-adv-x="1933" d="M0 0l1149 1450h100h150h602l-21 -135h-602l-69 -494h565l-19 -135h-565l-78 -551h627l-18 -135h-627h-147l57 406h-610l-320 -406h-174zM598 541h524l109 774h-23z" />
<glyph unicode="&#xc7;" horiz-adv-x="1441" d="M200.5 725q22.5 166 99.5 305t192.5 240.5t262 159t308.5 57.5q68 0 134.5 -13.5t127.5 -41t114.5 -70.5t92.5 -105l-141 -96q-16 35 -51 70t-81.5 61.5t-101.5 43t-113 16.5q-139 0 -256.5 -51.5t-206.5 -137.5t-145.5 -199.5t-75 -238.5t7 -238.5t90 -199.5t168 -137.5 t242.5 -51.5q57 0 115.5 10.5t115 35t112 66.5t104.5 105l108 -86q-45 -55 -106.5 -104t-136 -85t-158.5 -56.5t-174 -20.5q-23 0 -45 2l-76 -88l2 -2q18 6 35.5 10t40.5 4q61 0 104 -39.5t33 -113.5q-6 -47 -32.5 -82t-63.5 -56.5t-80 -31.5t-84 -10q-106 0 -193 49l43 73 q63 -37 146 -36q45 0 89 20.5t52 71.5q0 8 -2 22.5t-11 27.5t-27.5 22.5t-49.5 9.5q-29 0 -51.5 -6.5t-44.5 -16.5l-33 35l127 143q-92 14 -172 49q-129 57 -216 159t-124 241t-14.5 305z" />
<glyph unicode="&#xc8;" horiz-adv-x="1214" d="M197 0l204 1450h146h753l-20 -135h-752l-69 -494h702l-18 -135h-703l-78 -551h777l-19 -135h-776h-147zM598 1808h187l161 -295h-120z" />
<glyph unicode="&#xc9;" horiz-adv-x="1214" d="M197 0l204 1450h146h753l-20 -135h-752l-69 -494h702l-18 -135h-703l-78 -551h777l-19 -135h-776h-147zM697 1513l247 295h187l-314 -295h-120z" />
<glyph unicode="&#xca;" horiz-adv-x="1214" d="M197 0l204 1450h146h753l-20 -135h-752l-69 -494h702l-18 -135h-703l-78 -551h777l-19 -135h-776h-147zM516 1513l267 295h163l181 -295h-135l-140 221l-200 -221h-136z" />
<glyph unicode="&#xcb;" horiz-adv-x="1214" d="M197 0l204 1450h146h753l-20 -135h-752l-69 -494h702l-18 -135h-703l-78 -551h777l-19 -135h-776h-147zM545 1683q6 41 39 73t80 32t71.5 -32t18.5 -73t-39 -72.5t-80 -31.5t-71.5 31.5t-18.5 72.5zM938 1683q6 41 39 73t80 32t71.5 -32t18.5 -73t-38.5 -72.5 t-80.5 -31.5q-47 0 -71.5 31.5t-18.5 72.5z" />
<glyph unicode="&#xcc;" horiz-adv-x="540" d="M197 0l204 1450h148l-205 -1450h-147zM260 1808h187l161 -295h-120z" />
<glyph unicode="&#xcd;" horiz-adv-x="540" d="M197 0l204 1450h148l-205 -1450h-147zM359 1513l247 295h187l-314 -295h-120z" />
<glyph unicode="&#xce;" horiz-adv-x="540" d="M178 1513l267 295h163l181 -295h-135l-140 221l-200 -221h-136zM197 0l204 1450h148l-205 -1450h-147z" />
<glyph unicode="&#xcf;" horiz-adv-x="540" d="M197 0l204 1450h148l-205 -1450h-147zM207 1683q6 41 39 73t80 32t71.5 -32t18.5 -73t-39 -72.5t-80 -31.5t-71.5 31.5t-18.5 72.5zM600 1683q6 41 39 73t80 32t71.5 -32t18.5 -73t-38.5 -72.5t-80.5 -31.5q-47 0 -71.5 31.5t-18.5 72.5z" />
<glyph unicode="&#xd0;" horiz-adv-x="1517" d="M127 711l14 110h150l90 629h147h334q135 0 265 -45t226.5 -136t144.5 -227.5t24 -316.5q-25 -182 -113 -317.5t-209 -226.5t-264 -136t-279 -45h-333h-148l100 711h-149zM342 135h287q166 0 295 50.5t221 133t146.5 188t70.5 218.5q14 113 -9.5 218.5t-93 188t-184 133 t-280.5 50.5h-287l-70 -494h529l-15 -110h-528z" />
<glyph unicode="&#xd1;" horiz-adv-x="1593" d="M197 0l204 1450h146h39l690 -1229h4l174 1229h148l-205 -1450h-148h-37l-690 1241h-4l-174 -1241h-147zM682 1538q12 39 30.5 77.5t45 68.5t61.5 48.5t82 18.5q37 0 72 -14.5t69 -32.5q35 -16 68 -32t63 -16q47 0 74 32t41 71h88q-12 -41 -30.5 -79t-44 -67.5t-61.5 -48 t-81 -18.5q-37 0 -72.5 15.5t-70.5 31.5q-35 18 -67 32.5t-64 14.5q-47 0 -74 -31.5t-41 -70.5h-88z" />
<glyph unicode="&#xd2;" horiz-adv-x="1708" d="M200.5 725q22.5 166 99.5 305t192.5 240.5t262 159t308.5 57.5t292 -57.5t217 -159t125 -240.5t15 -305t-100.5 -305t-193 -240.5t-262 -159t-308.5 -57.5t-292 57.5t-217 159t-124 240.5t-14.5 305zM360.5 725q-18.5 -125 7 -238.5t90 -199.5t168 -137.5t242.5 -51.5 t257 51.5t207 137.5t145.5 199.5t74.5 238.5t-7 238.5t-89.5 199.5t-168 137.5t-243.5 51.5q-139 0 -256.5 -51.5t-206.5 -137.5t-145.5 -199.5t-75 -238.5zM843 1808h187l161 -295h-120z" />
<glyph unicode="&#xd3;" horiz-adv-x="1708" d="M200.5 725q22.5 166 99.5 305t192.5 240.5t262 159t308.5 57.5t292 -57.5t217 -159t125 -240.5t15 -305t-100.5 -305t-193 -240.5t-262 -159t-308.5 -57.5t-292 57.5t-217 159t-124 240.5t-14.5 305zM360.5 725q-18.5 -125 7 -238.5t90 -199.5t168 -137.5t242.5 -51.5 t257 51.5t207 137.5t145.5 199.5t74.5 238.5t-7 238.5t-89.5 199.5t-168 137.5t-243.5 51.5q-139 0 -256.5 -51.5t-206.5 -137.5t-145.5 -199.5t-75 -238.5zM942 1513l247 295h187l-314 -295h-120z" />
<glyph unicode="&#xd4;" horiz-adv-x="1708" d="M200.5 725q22.5 166 99.5 305t192.5 240.5t262 159t308.5 57.5t292 -57.5t217 -159t125 -240.5t15 -305t-100.5 -305t-193 -240.5t-262 -159t-308.5 -57.5t-292 57.5t-217 159t-124 240.5t-14.5 305zM360.5 725q-18.5 -125 7 -238.5t90 -199.5t168 -137.5t242.5 -51.5 t257 51.5t207 137.5t145.5 199.5t74.5 238.5t-7 238.5t-89.5 199.5t-168 137.5t-243.5 51.5q-139 0 -256.5 -51.5t-206.5 -137.5t-145.5 -199.5t-75 -238.5zM761 1513l267 295h163l181 -295h-135l-140 221l-200 -221h-136z" />
<glyph unicode="&#xd5;" horiz-adv-x="1708" d="M200.5 725q22.5 166 99.5 305t192.5 240.5t262 159t308.5 57.5t292 -57.5t217 -159t125 -240.5t15 -305t-100.5 -305t-193 -240.5t-262 -159t-308.5 -57.5t-292 57.5t-217 159t-124 240.5t-14.5 305zM360.5 725q-18.5 -125 7 -238.5t90 -199.5t168 -137.5t242.5 -51.5 t257 51.5t207 137.5t145.5 199.5t74.5 238.5t-7 238.5t-89.5 199.5t-168 137.5t-243.5 51.5q-139 0 -256.5 -51.5t-206.5 -137.5t-145.5 -199.5t-75 -238.5zM739 1538q12 39 30.5 77.5t45 68.5t61.5 48.5t82 18.5q37 0 72 -14.5t69 -32.5q35 -16 68 -32t63 -16q47 0 74 32 t41 71h88q-12 -41 -30.5 -79t-44 -67.5t-61.5 -48t-81 -18.5q-37 0 -72.5 15.5t-70.5 31.5q-35 18 -67 32.5t-64 14.5q-47 0 -74 -31.5t-41 -70.5h-88z" />
<glyph unicode="&#xd6;" horiz-adv-x="1708" d="M200.5 725q22.5 166 99.5 305t192.5 240.5t262 159t308.5 57.5t292 -57.5t217 -159t125 -240.5t15 -305t-100.5 -305t-193 -240.5t-262 -159t-308.5 -57.5t-292 57.5t-217 159t-124 240.5t-14.5 305zM360.5 725q-18.5 -125 7 -238.5t90 -199.5t168 -137.5t242.5 -51.5 t257 51.5t207 137.5t145.5 199.5t74.5 238.5t-7 238.5t-89.5 199.5t-168 137.5t-243.5 51.5q-139 0 -256.5 -51.5t-206.5 -137.5t-145.5 -199.5t-75 -238.5zM790 1683q6 41 39 73t80 32t71.5 -32t18.5 -73t-39 -72.5t-80 -31.5t-71.5 31.5t-18.5 72.5zM1183 1683q6 41 39 73 t80 32t71.5 -32t18.5 -73t-38.5 -72.5t-80.5 -31.5q-47 0 -71.5 31.5t-18.5 72.5z" />
<glyph unicode="&#xd7;" horiz-adv-x="1363" d="M311 295l373 326l-281 327l99 86l280 -325l369 325l76 -86l-371 -327l279 -326l-101 -88l-276 325l-373 -325z" />
<glyph unicode="&#xd8;" horiz-adv-x="1708" d="M143 33l181 168q-80 100 -113 233t-10 291q23 166 99.5 305t192 240.5t262 159t308.5 57.5q141 0 257 -43t204 -123l178 166l65 -70l-178 -168q80 -100 113 -233t10 -291q-23 -166 -100.5 -305t-193 -240.5t-262 -159t-308.5 -57.5q-141 0 -257 44t-202 122l-180 -166z M360 725q-16 -117 4.5 -223.5t75.5 -190.5l969 903q-66 66 -156 102t-209 36q-139 0 -256.5 -51.5t-206.5 -137.5t-145.5 -199.5t-75.5 -238.5zM502 236q66 -66 157 -102t209 -36q139 0 257 51.5t207 137.5t145.5 199.5t74.5 238.5q16 117 -5 222.5t-77 191.5z" />
<glyph unicode="&#xd9;" horiz-adv-x="1404" d="M243 349.5q-7 101.5 5 191.5l129 909h147l-127 -893q-14 -104 -4 -179t37 -126t64.5 -81t77.5 -46t78 -21.5t67 -5.5q41 0 108.5 13.5t135 59.5t124 137t78.5 249l127 893h148l-129 -909q-12 -90 -48 -191.5t-108 -187.5t-183.5 -142.5t-273.5 -56.5q-164 0 -258 56.5 t-141 142.5t-54 187.5zM692 1808h187l161 -295h-120z" />
<glyph unicode="&#xda;" horiz-adv-x="1404" d="M243 349.5q-7 101.5 5 191.5l129 909h147l-127 -893q-14 -104 -4 -179t37 -126t64.5 -81t77.5 -46t78 -21.5t67 -5.5q41 0 108.5 13.5t135 59.5t124 137t78.5 249l127 893h148l-129 -909q-12 -90 -48 -191.5t-108 -187.5t-183.5 -142.5t-273.5 -56.5q-164 0 -258 56.5 t-141 142.5t-54 187.5zM791 1513l247 295h187l-314 -295h-120z" />
<glyph unicode="&#xdb;" horiz-adv-x="1404" d="M243 349.5q-7 101.5 5 191.5l129 909h147l-127 -893q-14 -104 -4 -179t37 -126t64.5 -81t77.5 -46t78 -21.5t67 -5.5q41 0 108.5 13.5t135 59.5t124 137t78.5 249l127 893h148l-129 -909q-12 -90 -48 -191.5t-108 -187.5t-183.5 -142.5t-273.5 -56.5q-164 0 -258 56.5 t-141 142.5t-54 187.5zM610 1513l267 295h163l181 -295h-135l-140 221l-200 -221h-136z" />
<glyph unicode="&#xdc;" horiz-adv-x="1404" d="M243 349.5q-7 101.5 5 191.5l129 909h147l-127 -893q-14 -104 -4 -179t37 -126t64.5 -81t77.5 -46t78 -21.5t67 -5.5q41 0 108.5 13.5t135 59.5t124 137t78.5 249l127 893h148l-129 -909q-12 -90 -48 -191.5t-108 -187.5t-183.5 -142.5t-273.5 -56.5q-164 0 -258 56.5 t-141 142.5t-54 187.5zM639 1683q6 41 39 73t80 32t71.5 -32t18.5 -73t-39 -72.5t-80 -31.5t-71.5 31.5t-18.5 72.5zM1032 1683q6 41 39 73t80 32t71.5 -32t18.5 -73t-38.5 -72.5t-80.5 -31.5q-47 0 -71.5 31.5t-18.5 72.5z" />
<glyph unicode="&#xdd;" horiz-adv-x="1175" d="M176 1450h184l336 -684l529 684h184l-659 -825l-88 -625h-148l88 625zM676 1513l247 295h187l-314 -295h-120z" />
<glyph unicode="&#xde;" horiz-adv-x="1175" d="M197 0l204 1450h148l-45 -320h327q90 0 165 -23.5t124 -71.5t71.5 -120.5t8.5 -171t-56 -171t-106.5 -122t-145.5 -73t-171 -23.5h-328l-49 -354h-147zM414 489h237q57 0 121 6.5t119 32t96 76.5t53.5 139t-14.5 138.5t-75 76t-110.5 31.5t-119.5 6h-238z" />
<glyph unicode="&#xdf;" horiz-adv-x="1214" d="M172 0l156 1114q12 90 46 173t92 146.5t147 101.5t212 38q82 0 150.5 -24.5t115 -70.5t67 -114t7.5 -154q-33 -240 -282 -325l-2 -4q90 -8 150.5 -45t96 -95.5t46 -131t-2.5 -152.5q-16 -109 -63 -198t-120 -152.5t-167 -97.5t-203 -34q-29 0 -58.5 3.5t-57.5 13.5 l16 117q25 -6 49.5 -8.5t48.5 -2.5q164 0 274.5 94.5t133.5 266.5q27 186 -71.5 272t-288.5 86l18 123q61 0 117.5 13.5t101.5 43t75 77.5t40 118q16 123 -47.5 190.5t-167.5 67.5q-82 0 -142.5 -30.5t-100.5 -78t-62.5 -104.5t-30.5 -111l-158 -1126h-135z" />
<glyph unicode="&#xe0;" horiz-adv-x="1062" d="M135 256q16 117 86 183.5t165 99t199.5 41t190.5 8.5h68l4 24q33 248 -211 248q-168 0 -309 -112l-68 96q76 68 182.5 103.5t241.5 35.5q70 0 131.5 -20.5t103.5 -62.5t61 -105.5t7 -151.5l-59 -428q-8 -55 -11.5 -115.5t-3.5 -99.5h-131q-2 35 1 76t10 80h-5 q-72 -96 -159.5 -138.5t-204.5 -42.5q-63 0 -120.5 17.5t-97.5 53.5t-60.5 88t-10.5 122zM285 274q-6 -47 8 -80.5t44 -55t68.5 -31t79.5 -9.5q74 0 132.5 24.5t99.5 66.5t66.5 98.5t35.5 120.5l10 69h-69q-51 0 -128 -5t-150.5 -24.5t-130 -60.5t-66.5 -113zM471 1450h187 l161 -295h-120z" />
<glyph unicode="&#xe1;" horiz-adv-x="1062" d="M135 256q16 117 86 183.5t165 99t199.5 41t190.5 8.5h68l4 24q33 248 -211 248q-168 0 -309 -112l-68 96q76 68 182.5 103.5t241.5 35.5q70 0 131.5 -20.5t103.5 -62.5t61 -105.5t7 -151.5l-59 -428q-8 -55 -11.5 -115.5t-3.5 -99.5h-131q-2 35 1 76t10 80h-5 q-72 -96 -159.5 -138.5t-204.5 -42.5q-63 0 -120.5 17.5t-97.5 53.5t-60.5 88t-10.5 122zM285 274q-6 -47 8 -80.5t44 -55t68.5 -31t79.5 -9.5q74 0 132.5 24.5t99.5 66.5t66.5 98.5t35.5 120.5l10 69h-69q-51 0 -128 -5t-150.5 -24.5t-130 -60.5t-66.5 -113zM570 1155 l247 295h187l-314 -295h-120z" />
<glyph unicode="&#xe2;" horiz-adv-x="1062" d="M135 256q16 117 86 183.5t165 99t199.5 41t190.5 8.5h68l4 24q33 248 -211 248q-168 0 -309 -112l-68 96q76 68 182.5 103.5t241.5 35.5q70 0 131.5 -20.5t103.5 -62.5t61 -105.5t7 -151.5l-59 -428q-8 -55 -11.5 -115.5t-3.5 -99.5h-131q-2 35 1 76t10 80h-5 q-72 -96 -159.5 -138.5t-204.5 -42.5q-63 0 -120.5 17.5t-97.5 53.5t-60.5 88t-10.5 122zM285 274q-6 -47 8 -80.5t44 -55t68.5 -31t79.5 -9.5q74 0 132.5 24.5t99.5 66.5t66.5 98.5t35.5 120.5l10 69h-69q-51 0 -128 -5t-150.5 -24.5t-130 -60.5t-66.5 -113zM389 1155 l267 295h163l181 -295h-135l-140 221l-200 -221h-136z" />
<glyph unicode="&#xe3;" horiz-adv-x="1062" d="M135 256q16 117 86 183.5t165 99t199.5 41t190.5 8.5h68l4 24q33 248 -211 248q-168 0 -309 -112l-68 96q76 68 182.5 103.5t241.5 35.5q70 0 131.5 -20.5t103.5 -62.5t61 -105.5t7 -151.5l-59 -428q-8 -55 -11.5 -115.5t-3.5 -99.5h-131q-2 35 1 76t10 80h-5 q-72 -96 -159.5 -138.5t-204.5 -42.5q-63 0 -120.5 17.5t-97.5 53.5t-60.5 88t-10.5 122zM285 274q-6 -47 8 -80.5t44 -55t68.5 -31t79.5 -9.5q74 0 132.5 24.5t99.5 66.5t66.5 98.5t35.5 120.5l10 69h-69q-51 0 -128 -5t-150.5 -24.5t-130 -60.5t-66.5 -113zM367 1180 q12 39 30.5 77.5t45 68.5t61.5 48.5t82 18.5q37 0 72 -14.5t69 -32.5q35 -16 68 -32t63 -16q47 0 74 32t41 71h88q-12 -41 -30.5 -79t-44 -67.5t-61.5 -48t-81 -18.5q-37 0 -72.5 15.5t-70.5 31.5q-35 18 -67 32.5t-64 14.5q-47 0 -74 -31.5t-41 -70.5h-88z" />
<glyph unicode="&#xe4;" horiz-adv-x="1062" d="M135 256q16 117 86 183.5t165 99t199.5 41t190.5 8.5h68l4 24q33 248 -211 248q-168 0 -309 -112l-68 96q76 68 182.5 103.5t241.5 35.5q70 0 131.5 -20.5t103.5 -62.5t61 -105.5t7 -151.5l-59 -428q-8 -55 -11.5 -115.5t-3.5 -99.5h-131q-2 35 1 76t10 80h-5 q-72 -96 -159.5 -138.5t-204.5 -42.5q-63 0 -120.5 17.5t-97.5 53.5t-60.5 88t-10.5 122zM285 274q-6 -47 8 -80.5t44 -55t68.5 -31t79.5 -9.5q74 0 132.5 24.5t99.5 66.5t66.5 98.5t35.5 120.5l10 69h-69q-51 0 -128 -5t-150.5 -24.5t-130 -60.5t-66.5 -113zM418 1325 q6 41 39 73t80 32t71.5 -32t18.5 -73t-39 -72.5t-80 -31.5t-71.5 31.5t-18.5 72.5zM811 1325q6 41 39 73t80 32t71.5 -32t18.5 -73t-38.5 -72.5t-80.5 -31.5q-47 0 -71.5 31.5t-18.5 72.5z" />
<glyph unicode="&#xe5;" horiz-adv-x="1062" d="M135 256q16 117 86 183.5t165 99t199.5 41t190.5 8.5h68l4 24q33 248 -211 248q-168 0 -309 -112l-68 96q76 68 182.5 103.5t241.5 35.5q70 0 131.5 -20.5t103.5 -62.5t61 -105.5t7 -151.5l-59 -428q-8 -55 -11.5 -115.5t-3.5 -99.5h-131q-2 35 1 76t10 80h-5 q-72 -96 -159.5 -138.5t-204.5 -42.5q-63 0 -120.5 17.5t-97.5 53.5t-60.5 88t-10.5 122zM285 274q-6 -47 8 -80.5t44 -55t68.5 -31t79.5 -9.5q74 0 132.5 24.5t99.5 66.5t66.5 98.5t35.5 120.5l10 69h-69q-51 0 -128 -5t-150.5 -24.5t-130 -60.5t-66.5 -113zM522.5 1331 q6.5 41 27 77t51 61.5t68.5 41t79 15.5q39 0 72.5 -15.5t57 -41t34 -61.5t4.5 -77t-26.5 -76.5t-51.5 -62.5t-69 -41t-76 -14q-41 0 -74 14t-56.5 41t-35 62.5t-5 76.5zM596 1331q-6 -51 25 -86t82 -35t92 35t47 86q8 51 -22.5 86t-81.5 35t-92.5 -35t-49.5 -86z" />
<glyph unicode="&#xe6;" horiz-adv-x="1744" d="M135 256q12 96 63.5 154.5t123 90t156.5 42t165 10.5h227l9 59q8 76 -13.5 124t-56.5 76t-75 38t-66 10q-170 0 -308 -115l-69 99q78 66 180 102.5t219 36.5q55 0 103.5 -14.5t87.5 -39t64.5 -58t37.5 -72.5q59 86 160.5 135t206.5 49q106 0 182 -37t122 -101.5 t62.5 -152.5t1.5 -188l-10 -62h-719l-2 -18q-10 -66 1 -125t41 -103t79 -71t115 -27q61 0 109 12.5t86 34t68 50t56 59.5l96 -84q-92 -100 -204.5 -147.5t-225.5 -47.5q-53 0 -104 13.5t-94 41t-76 69.5t-51 100q-90 -121 -200 -172.5t-259 -51.5q-63 0 -120.5 17.5 t-97.5 53.5t-60.5 88t-10.5 122zM285 274q-6 -47 8 -80.5t44 -55t68.5 -31t79.5 -9.5q74 0 136.5 24.5t110.5 67.5t79 102.5t41 131.5l2 18h-281q-43 0 -91 -8t-89 -27.5t-71.5 -51t-36.5 -81.5zM1006 553h583q8 68 -4 124t-45 97t-84 63.5t-119 22.5q-61 0 -116.5 -23.5 t-100.5 -64.5t-75.5 -97.5t-38.5 -121.5z" />
<glyph unicode="&#xe7;" horiz-adv-x="987" d="M166 479q14 109 63.5 202t124 160.5t174 105.5t215.5 36q98 -2 183.5 -42t144.5 -124l-123 -84q-27 53 -84 90t-137 37q-84 2 -154.5 -26.5t-125 -80t-88 -122t-46 -152.5t3 -152.5t54.5 -121.5t102.5 -80t147.5 -27q80 0 147.5 37t108.5 90l100 -84q-84 -84 -180.5 -124 t-194.5 -42h-16l-86 -98l2 -2q18 6 35.5 10t40.5 4q61 0 104 -39.5t33 -113.5q-6 -47 -33 -82t-63.5 -56.5t-79.5 -31.5t-84 -10q-106 0 -193 49l43 73q63 -37 146 -36q45 0 89 20.5t52 71.5q0 8 -2 22.5t-11.5 27.5t-28 22.5t-48.5 9.5q-29 0 -51.5 -6.5t-44.5 -16.5 l-33 35l135 154q-61 8 -113 28q-88 39 -144 106.5t-78.5 161t-6.5 201.5z" />
<glyph unicode="&#xe8;" d="M166 479q14 109 64.5 201t125 159.5t167.5 105.5t196 38q109 0 189.5 -39t129.5 -103.5t68.5 -151.5t5.5 -185l-10 -62h-799q-4 -72 16.5 -135t60.5 -109t98.5 -73t129.5 -27q109 0 195 50.5t135 115.5l92 -86q-100 -109 -210.5 -156t-229.5 -47q-106 0 -191.5 38 t-142.5 105.5t-81.5 160t-8.5 200.5zM324 553h647q18 137 -51.5 222t-217.5 85q-66 0 -130 -25.5t-116.5 -68.5t-88 -98.5t-43.5 -114.5zM508 1450h187l161 -295h-120z" />
<glyph unicode="&#xe9;" d="M166 479q14 109 64.5 201t125 159.5t167.5 105.5t196 38q109 0 189.5 -39t129.5 -103.5t68.5 -151.5t5.5 -185l-10 -62h-799q-4 -72 16.5 -135t60.5 -109t98.5 -73t129.5 -27q109 0 195 50.5t135 115.5l92 -86q-100 -109 -210.5 -156t-229.5 -47q-106 0 -191.5 38 t-142.5 105.5t-81.5 160t-8.5 200.5zM324 553h647q18 137 -51.5 222t-217.5 85q-66 0 -130 -25.5t-116.5 -68.5t-88 -98.5t-43.5 -114.5zM607 1155l247 295h187l-314 -295h-120z" />
<glyph unicode="&#xea;" d="M166 479q14 109 64.5 201t125 159.5t167.5 105.5t196 38q109 0 189.5 -39t129.5 -103.5t68.5 -151.5t5.5 -185l-10 -62h-799q-4 -72 16.5 -135t60.5 -109t98.5 -73t129.5 -27q109 0 195 50.5t135 115.5l92 -86q-100 -109 -210.5 -156t-229.5 -47q-106 0 -191.5 38 t-142.5 105.5t-81.5 160t-8.5 200.5zM324 553h647q18 137 -51.5 222t-217.5 85q-66 0 -130 -25.5t-116.5 -68.5t-88 -98.5t-43.5 -114.5zM426 1155l267 295h163l181 -295h-135l-140 221l-200 -221h-136z" />
<glyph unicode="&#xeb;" d="M166 479q14 109 64.5 201t125 159.5t167.5 105.5t196 38q109 0 189.5 -39t129.5 -103.5t68.5 -151.5t5.5 -185l-10 -62h-799q-4 -72 16.5 -135t60.5 -109t98.5 -73t129.5 -27q109 0 195 50.5t135 115.5l92 -86q-100 -109 -210.5 -156t-229.5 -47q-106 0 -191.5 38 t-142.5 105.5t-81.5 160t-8.5 200.5zM324 553h647q18 137 -51.5 222t-217.5 85q-66 0 -130 -25.5t-116.5 -68.5t-88 -98.5t-43.5 -114.5zM455 1325q6 41 39 73t80 32t71.5 -32t18.5 -73t-39 -72.5t-80 -31.5t-71.5 31.5t-18.5 72.5zM848 1325q6 41 39 73t80 32t71.5 -32 t18.5 -73t-38.5 -72.5t-80.5 -31.5q-47 0 -71.5 31.5t-18.5 72.5z" />
<glyph unicode="&#xec;" horiz-adv-x="491" d="M178 0l135 958h136l-136 -958h-135zM184 1450h187l161 -295h-120z" />
<glyph unicode="&#xed;" horiz-adv-x="491" d="M178 0l135 958h136l-136 -958h-135zM283 1155l247 295h187l-314 -295h-120z" />
<glyph unicode="&#xee;" horiz-adv-x="491" d="M102 1155l267 295h163l181 -295h-135l-140 221l-200 -221h-136zM178 0l135 958h136l-136 -958h-135z" />
<glyph unicode="&#xef;" horiz-adv-x="491" d="M131 1325q6 41 39 73t80 32t71.5 -32t18.5 -73t-39 -72.5t-80 -31.5t-71.5 31.5t-18.5 72.5zM178 0l135 958h136l-136 -958h-135zM524 1325q6 41 39 73t80 32t71.5 -32t18.5 -73t-38.5 -72.5t-80.5 -31.5q-47 0 -71.5 31.5t-18.5 72.5z" />
<glyph unicode="&#xf0;" horiz-adv-x="1214" d="M166 479q14 109 65.5 201t128 159.5t175 105.5t208.5 38q90 0 158 -28.5t133 -90.5l6 4q-31 76 -60.5 134.5t-62 107.5t-68.5 92t-77 84l-242 -117l-63 74l238 115q-45 49 -88.5 90t-84.5 72l134 75q47 -43 91 -85t85 -85l223 109l72 -72l-226 -110q80 -94 140.5 -190.5 t97.5 -198t48 -212t-7 -231.5q-14 -92 -52 -188t-107.5 -176t-175 -130.5t-253.5 -50.5q-111 0 -199 38t-146 105.5t-82.5 160t-8.5 200.5zM313 479q-12 -80 3.5 -149.5t55.5 -120.5t102.5 -81t146.5 -30t154.5 30t124.5 81t89 120.5t47.5 149.5t-4 149.5t-56.5 121 t-102.5 81t-146.5 29.5t-154.5 -29.5t-124 -81t-88.5 -121t-47 -149.5z" />
<glyph unicode="&#xf1;" d="M147 0l105 748q6 39 11 98t9 112h140q-2 -39 -6.5 -76.5t-10.5 -76.5h4q27 39 67 71.5t86 56t96 37t97 13.5q184 0 259 -97.5t51 -277.5l-86 -608h-135l73 530q12 80 8 141.5t-27.5 103.5t-70.5 63.5t-123 21.5q-10 0 -58 -8t-105.5 -45t-108.5 -110.5t-70 -204.5 l-69 -492h-136zM404 1180q12 39 30.5 77.5t45 68.5t61.5 48.5t82 18.5q37 0 72 -14.5t69 -32.5q35 -16 68 -32t63 -16q47 0 74 32t41 71h88q-12 -41 -30.5 -79t-44 -67.5t-61.5 -48t-81 -18.5q-37 0 -72.5 15.5t-70.5 31.5q-35 18 -67 32.5t-64 14.5q-47 0 -74 -31.5 t-41 -70.5h-88z" />
<glyph unicode="&#xf2;" horiz-adv-x="1214" d="M166 479q14 109 65.5 201t128 159.5t175 105.5t208.5 38q113 0 201 -38t146.5 -105.5t83 -159.5t10.5 -201q-16 -109 -66.5 -201t-127.5 -159.5t-176 -105.5t-212 -38q-111 0 -199 38t-146 105.5t-82.5 160t-8.5 200.5zM313.5 479q-12.5 -80 3 -149.5t55.5 -120.5 t102.5 -81t146.5 -30t154.5 30t124.5 81t89 120.5t47 149.5t-4 149.5t-56 121t-102.5 81t-146.5 29.5t-154.5 -29.5t-124 -81t-88 -121t-47 -149.5zM546 1450h187l161 -295h-120z" />
<glyph unicode="&#xf3;" horiz-adv-x="1214" d="M166 479q14 109 65.5 201t128 159.5t175 105.5t208.5 38q113 0 201 -38t146.5 -105.5t83 -159.5t10.5 -201q-16 -109 -66.5 -201t-127.5 -159.5t-176 -105.5t-212 -38q-111 0 -199 38t-146 105.5t-82.5 160t-8.5 200.5zM313.5 479q-12.5 -80 3 -149.5t55.5 -120.5 t102.5 -81t146.5 -30t154.5 30t124.5 81t89 120.5t47 149.5t-4 149.5t-56 121t-102.5 81t-146.5 29.5t-154.5 -29.5t-124 -81t-88 -121t-47 -149.5zM645 1155l247 295h187l-314 -295h-120z" />
<glyph unicode="&#xf4;" horiz-adv-x="1214" d="M166 479q14 109 65.5 201t128 159.5t175 105.5t208.5 38q113 0 201 -38t146.5 -105.5t83 -159.5t10.5 -201q-16 -109 -66.5 -201t-127.5 -159.5t-176 -105.5t-212 -38q-111 0 -199 38t-146 105.5t-82.5 160t-8.5 200.5zM313.5 479q-12.5 -80 3 -149.5t55.5 -120.5 t102.5 -81t146.5 -30t154.5 30t124.5 81t89 120.5t47 149.5t-4 149.5t-56 121t-102.5 81t-146.5 29.5t-154.5 -29.5t-124 -81t-88 -121t-47 -149.5zM464 1155l267 295h163l181 -295h-135l-140 221l-200 -221h-136z" />
<glyph unicode="&#xf5;" horiz-adv-x="1214" d="M166 479q14 109 65.5 201t128 159.5t175 105.5t208.5 38q113 0 201 -38t146.5 -105.5t83 -159.5t10.5 -201q-16 -109 -66.5 -201t-127.5 -159.5t-176 -105.5t-212 -38q-111 0 -199 38t-146 105.5t-82.5 160t-8.5 200.5zM313.5 479q-12.5 -80 3 -149.5t55.5 -120.5 t102.5 -81t146.5 -30t154.5 30t124.5 81t89 120.5t47 149.5t-4 149.5t-56 121t-102.5 81t-146.5 29.5t-154.5 -29.5t-124 -81t-88 -121t-47 -149.5zM442 1180q12 39 30.5 77.5t45 68.5t61.5 48.5t82 18.5q37 0 72 -14.5t69 -32.5q35 -16 68 -32t63 -16q47 0 74 32t41 71h88 q-12 -41 -30.5 -79t-44 -67.5t-61.5 -48t-81 -18.5q-37 0 -72.5 15.5t-70.5 31.5q-35 18 -67 32.5t-64 14.5q-47 0 -74 -31.5t-41 -70.5h-88z" />
<glyph unicode="&#xf6;" horiz-adv-x="1214" d="M166 479q14 109 65.5 201t128 159.5t175 105.5t208.5 38q113 0 201 -38t146.5 -105.5t83 -159.5t10.5 -201q-16 -109 -66.5 -201t-127.5 -159.5t-176 -105.5t-212 -38q-111 0 -199 38t-146 105.5t-82.5 160t-8.5 200.5zM313.5 479q-12.5 -80 3 -149.5t55.5 -120.5 t102.5 -81t146.5 -30t154.5 30t124.5 81t89 120.5t47 149.5t-4 149.5t-56 121t-102.5 81t-146.5 29.5t-154.5 -29.5t-124 -81t-88 -121t-47 -149.5zM493 1325q6 41 39 73t80 32t71.5 -32t18.5 -73t-39 -72.5t-80 -31.5t-71.5 31.5t-18.5 72.5zM886 1325q6 41 39 73t80 32 t71.5 -32t18.5 -73t-38.5 -72.5t-80.5 -31.5q-47 0 -71.5 31.5t-18.5 72.5z" />
<glyph unicode="&#xf7;" horiz-adv-x="1363" d="M238 559l18 123h1044l-18 -123h-1044zM612 289q6 43 41 76.5t84 33.5t76 -33.5t21 -76.5t-42 -77t-85 -34t-75 34t-20 77zM704.5 952q6.5 43 42 77t84.5 34t75 -34t20 -77t-41 -76.5t-84 -33.5t-76 33.5t-20.5 76.5z" />
<glyph unicode="&#xf8;" horiz-adv-x="1214" d="M82 6l156 139q-47 66 -66.5 151t-5.5 183q14 109 65.5 201t128 159.5t175 105.5t208.5 38q96 0 174 -27.5t138 -78.5l155 139l56 -64l-154 -139q47 -63 66.5 -148t5.5 -186q-16 -109 -66.5 -201t-127.5 -159.5t-176 -105.5t-212 -38q-98 0 -175 29t-130 78l-158 -139z M313 479q-18 -139 37 -233l598 534q-84 80 -221 80q-84 0 -154.5 -29.5t-124 -81t-88 -121t-47.5 -149.5zM401 176q84 -78 220 -78q84 0 154.5 30t124.5 81t89 120.5t47 149.5q10 66 0 125.5t-37 108.5z" />
<glyph unicode="&#xf9;" d="M197 350l86 608h135l-76 -530q-10 -80 -6 -141.5t27.5 -103.5t70.5 -63.5t123 -21.5q6 0 31.5 3t59.5 14.5t73 35t74.5 64.5t63.5 102.5t40 149.5l70 491h135l-107 -747q-4 -39 -9 -98.5t-9 -112.5h-139q2 39 6 77t10 77h-4q-29 -39 -69 -72t-86 -56.5t-96 -37t-97 -13.5 q-184 0 -258 97.5t-49 277.5zM508 1450h187l161 -295h-120z" />
<glyph unicode="&#xfa;" d="M197 350l86 608h135l-76 -530q-10 -80 -6 -141.5t27.5 -103.5t70.5 -63.5t123 -21.5q6 0 31.5 3t59.5 14.5t73 35t74.5 64.5t63.5 102.5t40 149.5l70 491h135l-107 -747q-4 -39 -9 -98.5t-9 -112.5h-139q2 39 6 77t10 77h-4q-29 -39 -69 -72t-86 -56.5t-96 -37t-97 -13.5 q-184 0 -258 97.5t-49 277.5zM607 1155l247 295h187l-314 -295h-120z" />
<glyph unicode="&#xfb;" d="M197 350l86 608h135l-76 -530q-10 -80 -6 -141.5t27.5 -103.5t70.5 -63.5t123 -21.5q6 0 31.5 3t59.5 14.5t73 35t74.5 64.5t63.5 102.5t40 149.5l70 491h135l-107 -747q-4 -39 -9 -98.5t-9 -112.5h-139q2 39 6 77t10 77h-4q-29 -39 -69 -72t-86 -56.5t-96 -37t-97 -13.5 q-184 0 -258 97.5t-49 277.5zM426 1155l267 295h163l181 -295h-135l-140 221l-200 -221h-136z" />
<glyph unicode="&#xfc;" d="M197 350l86 608h135l-76 -530q-10 -80 -6 -141.5t27.5 -103.5t70.5 -63.5t123 -21.5q6 0 31.5 3t59.5 14.5t73 35t74.5 64.5t63.5 102.5t40 149.5l70 491h135l-107 -747q-4 -39 -9 -98.5t-9 -112.5h-139q2 39 6 77t10 77h-4q-29 -39 -69 -72t-86 -56.5t-96 -37t-97 -13.5 q-184 0 -258 97.5t-49 277.5zM455 1325q6 41 39 73t80 32t71.5 -32t18.5 -73t-39 -72.5t-80 -31.5t-71.5 31.5t-18.5 72.5zM848 1325q6 41 39 73t80 32t71.5 -32t18.5 -73t-38.5 -72.5t-80.5 -31.5q-47 0 -71.5 31.5t-18.5 72.5z" />
<glyph unicode="&#xfd;" horiz-adv-x="987" d="M-12 -477l32 131q23 -12 47.5 -17.5t53.5 -5.5q72 0 119 45t90 127l94 185l-256 970h170l188 -792l406 792h164l-650 -1208q-59 -111 -134.5 -176.5t-200.5 -65.5q-31 0 -63 2.5t-60 12.5zM531 1155l247 295h187l-314 -295h-120z" />
<glyph unicode="&#xfe;" horiz-adv-x="1251" d="M82 -467l283 2015h135l-107 -768h4q53 61 107.5 101.5t106 63t98.5 30.5t88 8q113 0 200.5 -38t146 -105.5t83 -159.5t10.5 -201q-16 -109 -66.5 -201t-127 -159.5t-176 -105.5t-212.5 -38q-47 0 -97 10.5t-97 33t-86 57.5t-66 84h-4l-88 -627h-135zM344 479 q-12 -80 5.5 -149.5t60.5 -120.5t109.5 -81t154.5 -30q84 0 154.5 30t125 81t89.5 120.5t47 149.5t-4.5 149.5t-56.5 121t-102.5 81t-146.5 29.5t-157.5 -29.5t-132 -81t-96.5 -121t-50 -149.5z" />
<glyph unicode="&#xff;" horiz-adv-x="987" d="M-12 -477l32 131q23 -12 47.5 -17.5t53.5 -5.5q72 0 119 45t90 127l94 185l-256 970h170l188 -792l406 792h164l-650 -1208q-59 -111 -134.5 -176.5t-200.5 -65.5q-31 0 -63 2.5t-60 12.5zM379 1325q6 41 39 73t80 32t71.5 -32t18.5 -73t-39 -72.5t-80 -31.5t-71.5 31.5 t-18.5 72.5zM772 1325q6 41 39 73t80 32t71.5 -32t18.5 -73t-38.5 -72.5t-80.5 -31.5q-47 0 -71.5 31.5t-18.5 72.5z" />
<glyph unicode="&#x100;" horiz-adv-x="1404" d="M0 0l836 1450h143l426 -1450h-172l-107 381h-741l-213 -381h-172zM459 516h628l-204 762zM649 1620l17 111h553l-17 -111h-553z" />
<glyph unicode="&#x101;" horiz-adv-x="1062" d="M135 256q16 117 86 183.5t165 99t199.5 41t190.5 8.5h68l4 24q33 248 -211 248q-168 0 -309 -112l-68 96q76 68 182.5 103.5t241.5 35.5q70 0 131.5 -20.5t103.5 -62.5t61 -105.5t7 -151.5l-59 -428q-8 -55 -11.5 -115.5t-3.5 -99.5h-131q-2 35 1 76t10 80h-5 q-72 -96 -159.5 -138.5t-204.5 -42.5q-63 0 -120.5 17.5t-97.5 53.5t-60.5 88t-10.5 122zM285 274q-6 -47 8 -80.5t44 -55t68.5 -31t79.5 -9.5q74 0 132.5 24.5t99.5 66.5t66.5 98.5t35.5 120.5l10 69h-69q-51 0 -128 -5t-150.5 -24.5t-130 -60.5t-66.5 -113zM428 1229 l17 110h553l-17 -110h-553z" />
<glyph unicode="&#x102;" horiz-adv-x="1404" d="M0 0l836 1450h143l426 -1450h-172l-107 381h-741l-213 -381h-172zM459 516h628l-204 762zM650 1827h90q2 -80 56 -120t132 -40t142.5 40t91.5 120h90q-27 -129 -120 -200t-220 -71t-200 71t-62 200z" />
<glyph unicode="&#x103;" horiz-adv-x="1062" d="M135 256q16 117 86 183.5t165 99t199.5 41t190.5 8.5h68l4 24q33 248 -211 248q-168 0 -309 -112l-68 96q76 68 182.5 103.5t241.5 35.5q70 0 131.5 -20.5t103.5 -62.5t61 -105.5t7 -151.5l-59 -428q-8 -55 -11.5 -115.5t-3.5 -99.5h-131q-2 35 1 76t10 80h-5 q-72 -96 -159.5 -138.5t-204.5 -42.5q-63 0 -120.5 17.5t-97.5 53.5t-60.5 88t-10.5 122zM285 274q-6 -47 8 -80.5t44 -55t68.5 -31t79.5 -9.5q74 0 132.5 24.5t99.5 66.5t66.5 98.5t35.5 120.5l10 69h-69q-51 0 -128 -5t-150.5 -24.5t-130 -60.5t-66.5 -113zM400 1450h90 q2 -80 56 -120t132 -40t142.5 40t91.5 120h90q-27 -129 -120 -199.5t-220 -70.5t-200 70.5t-62 199.5z" />
<glyph unicode="&#x104;" horiz-adv-x="1404" d="M0 0l836 1450h143l426 -1450h-62q-76 -68 -120 -119q-49 -57 -58 -117q-6 -43 20.5 -70.5t67.5 -27.5q29 0 58.5 11.5t52.5 33.5l29 -82q-41 -35 -92.5 -54t-102.5 -19q-37 0 -68.5 12t-54 35.5t-34 55.5t-5.5 71q6 43 28.5 83t54.5 75.5t69 68.5q27 23 53 43h-8 l-107 381h-741l-213 -381h-172zM459 516h628l-204 762z" />
<glyph unicode="&#x105;" horiz-adv-x="1062" d="M135 256q16 117 86 183.5t165 99t199.5 41t190.5 8.5h68l4 24q33 248 -211 248q-168 0 -309 -112l-68 96q76 68 182.5 103.5t241.5 35.5q70 0 131.5 -20.5t103.5 -62.5t61 -105.5t7 -151.5l-59 -428q-8 -55 -11.5 -115.5t-3.5 -99.5h-28q-76 -68 -121 -119 q-49 -57 -57 -117q-6 -43 20.5 -70.5t67.5 -27.5q29 0 58.5 11.5t51.5 33.5l29 -82q-41 -35 -92 -54t-103 -19q-37 0 -68.5 12t-54 35.5t-34 55.5t-4.5 71q6 43 28.5 83t54 75.5t68.5 68.5q27 23 53 43q-2 35 1 76t10 80h-5q-72 -96 -159.5 -138.5t-204.5 -42.5 q-63 0 -120.5 17.5t-97.5 53.5t-60.5 88t-10.5 122zM285 274q-6 -47 8 -80.5t44 -55t68.5 -31t79.5 -9.5q74 0 132.5 24.5t99.5 66.5t66.5 98.5t35.5 120.5l10 69h-69q-51 0 -128 -5t-150.5 -24.5t-130 -60.5t-66.5 -113z" />
<glyph unicode="&#x106;" horiz-adv-x="1441" d="M200.5 725q22.5 166 99.5 305t192.5 240.5t262 159t308.5 57.5q68 0 134.5 -13.5t127.5 -41t114.5 -70.5t92.5 -105l-141 -96q-16 35 -51 70t-81.5 61.5t-101.5 43t-113 16.5q-139 0 -256.5 -51.5t-206.5 -137.5t-145.5 -199.5t-75 -238.5t7 -238.5t90 -199.5t168 -137.5 t242.5 -51.5q57 0 115.5 10.5t115 35t112 66.5t104.5 105l108 -86q-45 -55 -106.5 -104t-136 -85t-158.5 -56.5t-174 -20.5q-162 0 -292 57.5t-217 159t-124 240.5t-14.5 305zM924 1556l247 295h187l-314 -295h-120z" />
<glyph unicode="&#x107;" horiz-adv-x="987" d="M166 479q14 109 63.5 202t124 160.5t174 105.5t215.5 36q98 -2 183.5 -42t144.5 -124l-123 -84q-27 53 -84 90t-137 37q-84 2 -154.5 -26.5t-125 -80t-88 -122t-46 -152.5t3 -152.5t54.5 -121.5t102.5 -80t147.5 -27q80 0 147.5 37t108.5 90l100 -84q-84 -84 -180.5 -124 t-194.5 -42q-117 -2 -206 36t-145 105.5t-78.5 161t-6.5 201.5zM613 1155l247 295h187l-314 -295h-120z" />
<glyph unicode="&#x108;" horiz-adv-x="1441" d="M200.5 725q22.5 166 99.5 305t192.5 240.5t262 159t308.5 57.5q68 0 134.5 -13.5t127.5 -41t114.5 -70.5t92.5 -105l-141 -96q-16 35 -51 70t-81.5 61.5t-101.5 43t-113 16.5q-139 0 -256.5 -51.5t-206.5 -137.5t-145.5 -199.5t-75 -238.5t7 -238.5t90 -199.5t168 -137.5 t242.5 -51.5q57 0 115.5 10.5t115 35t112 66.5t104.5 105l108 -86q-45 -55 -106.5 -104t-136 -85t-158.5 -56.5t-174 -20.5q-162 0 -292 57.5t-217 159t-124 240.5t-14.5 305zM759 1556l267 295h163l181 -295h-135l-140 222l-200 -222h-136z" />
<glyph unicode="&#x109;" horiz-adv-x="987" d="M166 479q14 109 63.5 202t124 160.5t174 105.5t215.5 36q98 -2 183.5 -42t144.5 -124l-123 -84q-27 53 -84 90t-137 37q-84 2 -154.5 -26.5t-125 -80t-88 -122t-46 -152.5t3 -152.5t54.5 -121.5t102.5 -80t147.5 -27q80 0 147.5 37t108.5 90l100 -84q-84 -84 -180.5 -124 t-194.5 -42q-117 -2 -206 36t-145 105.5t-78.5 161t-6.5 201.5zM426 1155l267 295h163l181 -295h-135l-140 221l-200 -221h-136z" />
<glyph unicode="&#x10a;" horiz-adv-x="1441" d="M200.5 725q22.5 166 99.5 305t192.5 240.5t262 159t308.5 57.5q68 0 134.5 -13.5t127.5 -41t114.5 -70.5t92.5 -105l-141 -96q-16 35 -51 70t-81.5 61.5t-101.5 43t-113 16.5q-139 0 -256.5 -51.5t-206.5 -137.5t-145.5 -199.5t-75 -238.5t7 -238.5t90 -199.5t168 -137.5 t242.5 -51.5q57 0 115.5 10.5t115 35t112 66.5t104.5 105l108 -86q-45 -55 -106.5 -104t-136 -85t-158.5 -56.5t-174 -20.5q-162 0 -292 57.5t-217 159t-124 240.5t-14.5 305zM983 1683q6 41 39.5 73t81.5 32q47 0 70.5 -32t17.5 -73q-4 -41 -38 -72.5t-81 -31.5t-70.5 31.5 t-19.5 72.5z" />
<glyph unicode="&#x10b;" horiz-adv-x="987" d="M166 479q14 109 63.5 202t124 160.5t174 105.5t215.5 36q98 -2 183.5 -42t144.5 -124l-123 -84q-27 53 -84 90t-137 37q-84 2 -154.5 -26.5t-125 -80t-88 -122t-46 -152.5t3 -152.5t54.5 -121.5t102.5 -80t147.5 -27q80 0 147.5 37t108.5 90l100 -84q-84 -84 -180.5 -124 t-194.5 -42q-117 -2 -206 36t-145 105.5t-78.5 161t-6.5 201.5zM625 1346q6 41 39.5 72.5t81.5 31.5q47 0 70.5 -32t17.5 -72q-4 -41 -38 -73t-81 -32t-70.5 32t-19.5 73z" />
<glyph unicode="&#x10c;" horiz-adv-x="1441" d="M200.5 725q22.5 166 99.5 305t192.5 240.5t262 159t308.5 57.5q68 0 134.5 -13.5t127.5 -41t114.5 -70.5t92.5 -105l-141 -96q-16 35 -51 70t-81.5 61.5t-101.5 43t-113 16.5q-139 0 -256.5 -51.5t-206.5 -137.5t-145.5 -199.5t-75 -238.5t7 -238.5t90 -199.5t168 -137.5 t242.5 -51.5q57 0 115.5 10.5t115 35t112 66.5t104.5 105l108 -86q-45 -55 -106.5 -104t-136 -85t-158.5 -56.5t-174 -20.5q-162 0 -292 57.5t-217 159t-124 240.5t-14.5 305zM782 1851h136l137 -221l203 221h135l-267 -295h-163z" />
<glyph unicode="&#x10d;" horiz-adv-x="987" d="M166 479q14 109 63.5 202t124 160.5t174 105.5t215.5 36q98 -2 183.5 -42t144.5 -124l-123 -84q-27 53 -84 90t-137 37q-84 2 -154.5 -26.5t-125 -80t-88 -122t-46 -152.5t3 -152.5t54.5 -121.5t102.5 -80t147.5 -27q80 0 147.5 37t108.5 90l100 -84q-84 -84 -180.5 -124 t-194.5 -42q-117 -2 -206 36t-145 105.5t-78.5 161t-6.5 201.5zM458 1450h136l137 -221l203 221h135l-267 -295h-163z" />
<glyph unicode="&#x10e;" horiz-adv-x="1517" d="M176 0l205 1450h147h334q135 0 265 -45t226.5 -136t144.5 -227.5t24 -316.5q-25 -182 -113 -317.5t-209 -226.5t-264 -136t-279 -45h-333h-148zM342 135h287q166 0 295 50.5t221 133t146.5 188t70.5 218.5q14 113 -9.5 218.5t-93 188t-184 133t-280.5 50.5h-287z M604 1851h136l137 -221l203 221h135l-267 -295h-163z" />
<glyph unicode="&#x10f;" horiz-adv-x="1251" d="M150 479q14 109 65 201t128 159.5t175 105.5t211 38q47 0 98.5 -10t97.5 -32.5t86 -57.5t66 -84h4l105 749h135l-217 -1548h-135l22 160h-4q-41 -49 -90 -84t-102.5 -57.5t-106.5 -33t-100 -10.5q-113 0 -201 38t-146.5 105.5t-83 160t-7.5 200.5zM297 479 q-12 -80 3 -149.5t55 -120.5t103.5 -81t147.5 -30q82 0 157 30t133 81t96 120.5t50.5 149.5t-7 149.5t-63.5 121t-110.5 81t-148.5 29.5q-84 0 -155 -29.5t-125 -81t-89 -121t-47 -149.5zM1360 1071l207 379h145l-235 -379h-117z" />
<glyph unicode="&#x110;" horiz-adv-x="1517" d="M127 711l14 110h150l90 629h147h334q135 0 265 -45t226.5 -136t144.5 -227.5t24 -316.5q-25 -182 -113 -317.5t-209 -226.5t-264 -136t-279 -45h-333h-148l100 711h-149zM342 135h287q166 0 295 50.5t221 133t146.5 188t70.5 218.5q14 113 -9.5 218.5t-93 188t-184 133 t-280.5 50.5h-287l-70 -494h529l-15 -110h-528z" />
<glyph unicode="&#x111;" horiz-adv-x="1251" d="M150 479q14 109 65 201t128 159.5t175 105.5t211 38q47 0 98.5 -10t97.5 -32.5t86 -57.5t66 -84h4l47 348h-385l17 106h385l41 295h135l-41 -295h133l-16 -106h-133l-160 -1147h-135l22 160h-4q-41 -49 -90 -84t-102.5 -57.5t-106.5 -33t-100 -10.5q-113 0 -201 38 t-146.5 105.5t-83 160t-7.5 200.5zM297 479q-12 -80 3 -149.5t55 -120.5t103.5 -81t147.5 -30q82 0 157 30t133 81t96 120.5t50.5 149.5t-7 149.5t-63.5 121t-110.5 81t-148.5 29.5q-84 0 -155 -29.5t-125 -81t-89 -121t-47 -149.5z" />
<glyph unicode="&#x112;" horiz-adv-x="1214" d="M197 0l204 1450h146h753l-20 -135h-752l-69 -494h702l-18 -135h-703l-78 -551h777l-19 -135h-776h-147zM612 1620l17 111h553l-17 -111h-553z" />
<glyph unicode="&#x113;" d="M166 479q14 109 64.5 201t125 159.5t167.5 105.5t196 38q109 0 189.5 -39t129.5 -103.5t68.5 -151.5t5.5 -185l-10 -62h-799q-4 -72 16.5 -135t60.5 -109t98.5 -73t129.5 -27q109 0 195 50.5t135 115.5l92 -86q-100 -109 -210.5 -156t-229.5 -47q-106 0 -191.5 38 t-142.5 105.5t-81.5 160t-8.5 200.5zM324 553h647q18 137 -51.5 222t-217.5 85q-66 0 -130 -25.5t-116.5 -68.5t-88 -98.5t-43.5 -114.5zM471 1229l17 110h553l-17 -110h-553z" />
<glyph unicode="&#x114;" horiz-adv-x="1214" d="M197 0l204 1450h146h753l-20 -135h-752l-69 -494h702l-18 -135h-703l-78 -551h777l-19 -135h-776h-147zM605 1827h90q2 -80 56 -120t132 -40t142.5 40t91.5 120h90q-27 -129 -120 -200t-220 -71t-200 71t-62 200z" />
<glyph unicode="&#x115;" d="M166 479q14 109 64.5 201t125 159.5t167.5 105.5t196 38q109 0 189.5 -39t129.5 -103.5t68.5 -151.5t5.5 -185l-10 -62h-799q-4 -72 16.5 -135t60.5 -109t98.5 -73t129.5 -27q109 0 195 50.5t135 115.5l92 -86q-100 -109 -210.5 -156t-229.5 -47q-106 0 -191.5 38 t-142.5 105.5t-81.5 160t-8.5 200.5zM324 553h647q18 137 -51.5 222t-217.5 85q-66 0 -130 -25.5t-116.5 -68.5t-88 -98.5t-43.5 -114.5zM492 1450h90q2 -80 56 -120t132 -40t142.5 40t91.5 120h90q-27 -129 -120 -199.5t-220 -70.5t-200 70.5t-62 199.5z" />
<glyph unicode="&#x116;" horiz-adv-x="1214" d="M197 0l204 1450h146h753l-20 -135h-752l-69 -494h702l-18 -135h-703l-78 -551h777l-19 -135h-776h-147zM781 1683q6 41 39.5 73t81.5 32q47 0 70.5 -32t17.5 -73q-4 -41 -38 -72.5t-81 -31.5t-70.5 31.5t-19.5 72.5z" />
<glyph unicode="&#x117;" d="M166 479q14 109 64.5 201t125 159.5t167.5 105.5t196 38q109 0 189.5 -39t129.5 -103.5t68.5 -151.5t5.5 -185l-10 -62h-799q-4 -72 16.5 -135t60.5 -109t98.5 -73t129.5 -27q109 0 195 50.5t135 115.5l92 -86q-100 -109 -210.5 -156t-229.5 -47q-106 0 -191.5 38 t-142.5 105.5t-81.5 160t-8.5 200.5zM324 553h647q18 137 -51.5 222t-217.5 85q-66 0 -130 -25.5t-116.5 -68.5t-88 -98.5t-43.5 -114.5zM656 1346q6 41 39.5 72.5t81.5 31.5q47 0 70.5 -32t17.5 -72q-4 -41 -38 -73t-81 -32t-70.5 32t-19.5 73z" />
<glyph unicode="&#x118;" horiz-adv-x="1214" d="M197 0l204 1450h899l-20 -135h-752l-69 -494h702l-18 -135h-703l-78 -551h777l-19 -135h-41q-76 -68 -121 -119q-49 -57 -57 -117q-6 -43 20.5 -70.5t67.5 -27.5q29 0 58.5 11.5t52.5 33.5l28 -82q-41 -35 -92 -54t-102 -19q-37 0 -68.5 12t-54.5 35.5t-34 55.5t-5 71 q6 43 28.5 83t54.5 75.5t69 68.5q27 23 53 43h-780z" />
<glyph unicode="&#x119;" d="M166 479q14 109 64.5 201t125 159.5t167.5 105.5t196 38q109 0 189.5 -39t129.5 -103.5t68.5 -151.5t5.5 -185l-10 -62h-799q-4 -72 16.5 -135t60.5 -109t98.5 -73t129.5 -27q109 0 195 50.5t135 115.5l92 -86q-100 -109 -210.5 -156t-229.5 -47q-106 0 -191.5 38 t-142.5 105.5t-81.5 160t-8.5 200.5zM324 553h647q18 137 -51.5 222t-217.5 85q-66 0 -130 -25.5t-116.5 -68.5t-88 -98.5t-43.5 -114.5zM404 -270q6 43 28.5 83t54 75.5t68.5 67.5t72 56h98q-86 -76 -135 -132t-57 -116q-6 -43 20.5 -70.5t67.5 -27.5q29 0 58.5 11.5 t51.5 33.5l29 -82q-41 -35 -92 -54t-103 -19q-37 0 -68.5 12t-54 35.5t-34 55.5t-4.5 71z" />
<glyph unicode="&#x11a;" horiz-adv-x="1214" d="M197 0l204 1450h146h753l-20 -135h-752l-69 -494h702l-18 -135h-703l-78 -551h777l-19 -135h-776h-147zM602 1851h136l137 -221l203 221h135l-267 -295h-163z" />
<glyph unicode="&#x11b;" d="M166 479q14 109 64.5 201t125 159.5t167.5 105.5t196 38q109 0 189.5 -39t129.5 -103.5t68.5 -151.5t5.5 -185l-10 -62h-799q-4 -72 16.5 -135t60.5 -109t98.5 -73t129.5 -27q109 0 195 50.5t135 115.5l92 -86q-100 -109 -210.5 -156t-229.5 -47q-106 0 -191.5 38 t-142.5 105.5t-81.5 160t-8.5 200.5zM324 553h647q18 137 -51.5 222t-217.5 85q-66 0 -130 -25.5t-116.5 -68.5t-88 -98.5t-43.5 -114.5zM475 1450h136l137 -221l203 221h135l-267 -295h-163z" />
<glyph unicode="&#x11c;" horiz-adv-x="1593" d="M200.5 725q22.5 166 99.5 305t192.5 240.5t262 159t308.5 57.5q174 0 294 -48t204 -147l-127 -108q-63 78 -158.5 123t-231.5 45q-139 0 -256.5 -51.5t-206.5 -137.5t-145.5 -199.5t-75 -238.5t7 -238.5t90 -199.5t168 -137.5t242.5 -51.5q113 0 220.5 28t195.5 75 l68 485h-346l18 135h346h148l-99 -710q-133 -72 -285.5 -110t-285.5 -38q-162 0 -292 57.5t-217 159t-124 240.5t-14.5 305zM755 1556l267 295h163l181 -295h-135l-140 222l-200 -222h-136z" />
<glyph unicode="&#x11d;" horiz-adv-x="1251" d="M78 -299l117 106q47 -80 136 -128t206 -48q102 0 178 30t127 81t79.5 119.5t41.5 146.5l22 172h-4q-78 -98 -178.5 -139t-204.5 -41t-190 37t-144.5 101.5t-85 154.5t-12.5 194.5t64.5 194.5t124 157.5t167.5 105.5t201 38q43 0 90 -8t92 -28.5t87 -56.5t77 -91h4l23 159 h135l-133 -950q-12 -78 -44 -166t-98.5 -161.5t-174 -123t-269.5 -49.5q-281 0 -434 193zM315 492q-10 -76 7.5 -142.5t58.5 -117t101.5 -80t135.5 -29.5q74 0 145 26.5t128 74.5t96 116t47 152q10 76 -5 142t-55 116.5t-103.5 80t-147.5 29.5q-76 0 -144.5 -29.5t-124 -80 t-92.5 -116.5t-47 -142zM475 1155l267 295h163l181 -295h-135l-140 221l-200 -221h-136z" />
<glyph unicode="&#x11e;" horiz-adv-x="1593" d="M200.5 725q22.5 166 99.5 305t192.5 240.5t262 159t308.5 57.5q174 0 294 -48t204 -147l-127 -108q-63 78 -158.5 123t-231.5 45q-139 0 -256.5 -51.5t-206.5 -137.5t-145.5 -199.5t-75 -238.5t7 -238.5t90 -199.5t168 -137.5t242.5 -51.5q113 0 220.5 28t195.5 75 l68 485h-346l18 135h346h148l-99 -710q-133 -72 -285.5 -110t-285.5 -38q-162 0 -292 57.5t-217 159t-124 240.5t-14.5 305zM805 1827h90q2 -80 56 -120t132 -40t142.5 40t91.5 120h90q-27 -129 -120 -200t-220 -71t-200 71t-62 200z" />
<glyph unicode="&#x11f;" horiz-adv-x="1251" d="M78 -299l117 106q47 -80 136 -128t206 -48q102 0 178 30t127 81t79.5 119.5t41.5 146.5l22 172h-4q-78 -98 -178.5 -139t-204.5 -41t-190 37t-144.5 101.5t-85 154.5t-12.5 194.5t64.5 194.5t124 157.5t167.5 105.5t201 38q43 0 90 -8t92 -28.5t87 -56.5t77 -91h4l23 159 h135l-133 -950q-12 -78 -44 -166t-98.5 -161.5t-174 -123t-269.5 -49.5q-281 0 -434 193zM315 492q-10 -76 7.5 -142.5t58.5 -117t101.5 -80t135.5 -29.5q74 0 145 26.5t128 74.5t96 116t47 152q10 76 -5 142t-55 116.5t-103.5 80t-147.5 29.5q-76 0 -144.5 -29.5t-124 -80 t-92.5 -116.5t-47 -142zM531 1450h90q2 -80 56 -120t132 -40t142.5 40t91.5 120h90q-27 -129 -120 -199.5t-220 -70.5t-200 70.5t-62 199.5z" />
<glyph unicode="&#x120;" horiz-adv-x="1593" d="M200.5 725q22.5 166 99.5 305t192.5 240.5t262 159t308.5 57.5q174 0 294 -48t204 -147l-127 -108q-63 78 -158.5 123t-231.5 45q-139 0 -256.5 -51.5t-206.5 -137.5t-145.5 -199.5t-75 -238.5t7 -238.5t90 -199.5t168 -137.5t242.5 -51.5q113 0 220.5 28t195.5 75 l68 485h-346l18 135h346h148l-99 -710q-133 -72 -285.5 -110t-285.5 -38q-162 0 -292 57.5t-217 159t-124 240.5t-14.5 305zM971 1683q6 41 39.5 73t81.5 32q47 0 70.5 -32t17.5 -73q-4 -41 -38 -72.5t-81 -31.5t-70.5 31.5t-19.5 72.5z" />
<glyph unicode="&#x121;" horiz-adv-x="1251" d="M78 -299l117 106q47 -80 136 -128t206 -48q102 0 178 30t127 81t79.5 119.5t41.5 146.5l22 172h-4q-78 -98 -178.5 -139t-204.5 -41t-190 37t-144.5 101.5t-85 154.5t-12.5 194.5t64.5 194.5t124 157.5t167.5 105.5t201 38q43 0 90 -8t92 -28.5t87 -56.5t77 -91h4l23 159 h135l-133 -950q-12 -78 -44 -166t-98.5 -161.5t-174 -123t-269.5 -49.5q-281 0 -434 193zM315 492q-10 -76 7.5 -142.5t58.5 -117t101.5 -80t135.5 -29.5q74 0 145 26.5t128 74.5t96 116t47 152q10 76 -5 142t-55 116.5t-103.5 80t-147.5 29.5q-76 0 -144.5 -29.5t-124 -80 t-92.5 -116.5t-47 -142zM713 1346q6 41 39.5 72.5t81.5 31.5q47 0 70.5 -32t17.5 -72q-4 -41 -38 -73t-81 -32t-70.5 32t-19.5 73z" />
<glyph unicode="&#x122;" horiz-adv-x="1593" d="M200.5 725q22.5 166 99.5 305t192.5 240.5t262 159t308.5 57.5q174 0 294 -48t204 -147l-127 -108q-63 78 -158.5 123t-231.5 45q-139 0 -256.5 -51.5t-206.5 -137.5t-145.5 -199.5t-75 -238.5t7 -238.5t90 -199.5t168 -137.5t242.5 -51.5q113 0 220.5 28t195.5 75 l68 485h-346l18 135h346h148l-99 -710q-133 -72 -285.5 -110t-285.5 -38q-162 0 -292 57.5t-217 159t-124 240.5t-14.5 305zM631 -471l207 379h145l-235 -379h-117z" />
<glyph unicode="&#x123;" horiz-adv-x="1251" d="M78 -299l117 106q47 -80 136 -128t206 -48q102 0 178 30t127 81t79.5 119.5t41.5 146.5l22 172h-4q-78 -98 -178.5 -139t-204.5 -41t-190 37t-144.5 101.5t-85 154.5t-12.5 194.5t64.5 194.5t124 157.5t167.5 105.5t201 38q43 0 90 -8t92 -28.5t87 -56.5t77 -91h4l23 159 h135l-133 -950q-12 -78 -44 -166t-98.5 -161.5t-174 -123t-269.5 -49.5q-281 0 -434 193zM315 492q-10 -76 7.5 -142.5t58.5 -117t101.5 -80t135.5 -29.5q74 0 145 26.5t128 74.5t96 116t47 152q10 76 -5 142t-55 116.5t-103.5 80t-147.5 29.5q-76 0 -144.5 -29.5t-124 -80 t-92.5 -116.5t-47 -142zM632 1155l236 379h117l-207 -379h-146z" />
<glyph unicode="&#x124;" horiz-adv-x="1478" d="M197 0l204 1450h148l-90 -629h790l90 629h148l-205 -1450h-147l96 686h-791l-96 -686h-147zM645 1556l267 295h163l181 -295h-135l-140 222l-200 -222h-136z" />
<glyph unicode="&#x125;" d="M147 0l218 1548h135l-105 -743h4q27 39 67 71.5t86 56t96 37t97 13.5q184 0 259 -97.5t51 -277.5l-86 -608h-135l73 530q12 80 8 141.5t-27.5 103.5t-70.5 63.5t-123 21.5q-10 0 -58 -8t-105.5 -45t-108.5 -110.5t-70 -204.5l-69 -492h-136zM383 1630l267 295h163 l181 -295h-135l-140 221l-200 -221h-136z" />
<glyph unicode="&#x126;" horiz-adv-x="1478" d="M197 0l204 1450h148l-41 -276h790l41 276h148l-205 -1450h-147l96 686h-791l-96 -686h-147zM459 821h790l33 230h-790z" />
<glyph unicode="&#x127;" d="M147 0l160 1147h-133l16 106h134l41 295h135l-41 -295h385l-17 -106h-385l-47 -342h4q27 39 67 71.5t86 56t96 37t97 13.5q184 0 259 -97.5t51 -277.5l-86 -608h-135l73 530q12 80 8 141.5t-27.5 103.5t-70.5 63.5t-123 21.5q-10 0 -58 -8t-105.5 -45t-108.5 -110.5 t-70 -204.5l-69 -492h-136z" />
<glyph unicode="&#x128;" horiz-adv-x="540" d="M148 1567q12 39 30.5 77.5t45 68.5t61.5 48.5t82 18.5q37 0 72 -14.5t69 -32.5q35 -16 68 -31.5t63 -15.5q47 0 74 31.5t41 70.5h88q-12 -41 -30.5 -79t-44 -67.5t-61.5 -48t-81 -18.5q-37 0 -72.5 15.5t-70.5 31.5q-35 18 -67 32.5t-64 14.5q-47 0 -74 -31.5t-41 -70.5 h-88zM197 0l204 1450h148l-205 -1450h-147z" />
<glyph unicode="&#x129;" horiz-adv-x="491" d="M78 1180q12 39 30.5 77.5t45 68.5t61.5 48.5t82 18.5q37 0 72 -14.5t69 -32.5q35 -16 68 -32t63 -16q47 0 74 32t41 71h88q-12 -41 -30.5 -79t-44 -67.5t-61.5 -48t-81 -18.5q-37 0 -72.5 15.5t-70.5 31.5q-35 18 -67 32.5t-64 14.5q-47 0 -74 -31.5t-41 -70.5h-88z M178 0l135 958h136l-136 -958h-135z" />
<glyph unicode="&#x12a;" horiz-adv-x="540" d="M197 0l204 1450h148l-205 -1450h-147zM204 1620l17 111h553l-17 -111h-553z" />
<glyph unicode="&#x12b;" horiz-adv-x="491" d="M139 1229l17 110h553l-17 -110h-553zM178 0l135 958h136l-136 -958h-135z" />
<glyph unicode="&#x12e;" horiz-adv-x="540" d="M4 -270q6 43 28.5 83t54.5 75.5t69 68.5q27 23 53 43h-12l204 1450h148l-205 -1450h-33q-76 -68 -121 -119q-49 -57 -57 -117q-6 -43 20.5 -70.5t67.5 -27.5q29 0 58.5 11.5t52.5 33.5l28 -82q-41 -35 -92 -54t-102 -19q-37 0 -68.5 12t-54.5 35.5t-34 55.5t-5 71z" />
<glyph unicode="&#x12f;" horiz-adv-x="491" d="M-18 -270q6 43 28.5 83t54 75.5t68.5 68.5q27 23 53 43h-8l135 958h136l-136 -958h-24q-76 -68 -121 -119q-49 -57 -57 -117q-6 -43 20.5 -70.5t67.5 -27.5q29 0 58.5 11.5t51.5 33.5l29 -82q-41 -35 -92 -54t-103 -19q-37 0 -68.5 12t-54 35.5t-34 55.5t-4.5 71z M334 1327q6 43 41 70.5t71 27.5q37 0 63.5 -27.5t20.5 -70.5t-40.5 -70.5t-71.5 -27.5t-63.5 27.5t-20.5 70.5z" />
<glyph unicode="&#x130;" horiz-adv-x="540" d="M197 0l204 1450h148l-205 -1450h-147zM398 1683q6 41 39.5 73t81.5 32q47 0 70.5 -32t17.5 -73q-4 -41 -38 -72.5t-81 -31.5t-70.5 31.5t-19.5 72.5z" />
<glyph unicode="&#x131;" horiz-adv-x="491" d="M178 0l135 958h136l-136 -958h-135z" />
<glyph unicode="&#x132;" horiz-adv-x="1423" d="M197 0l204 1450h148l-205 -1450h-147zM502 266l153 31q8 -92 56.5 -145.5t146.5 -53.5q80 0 134 32t89 82t53.5 114.5t28.5 132.5l141 991h148l-150 -1053q-10 -74 -40.5 -150.5t-87 -139t-140.5 -103.5t-201 -41q-150 0 -238.5 77t-92.5 226z" />
<glyph unicode="&#x133;" horiz-adv-x="974" d="M178 0l135 958h136l-136 -958h-135zM334 1327q6 43 41 70.5t71 27.5q37 0 63.5 -27.5t20.5 -70.5t-40.5 -70.5t-71.5 -27.5t-63.5 27.5t-20.5 70.5zM354 -471l35 117l6 -2q16 -4 34.5 -8.5t35.5 -4.5q49 0 80.5 18.5t50 48.5t28 64.5t13.5 69.5l159 1126h136l-162 -1148 q-4 -20 -12.5 -70.5t-40 -102t-93 -90.5t-168.5 -39q-55 0 -102 21zM817 1327q6 43 41 70.5t71 27.5q37 0 63.5 -27.5t20.5 -70.5t-40.5 -70.5t-71.5 -27.5t-63.5 27.5t-20.5 70.5z" />
<glyph unicode="&#x134;" horiz-adv-x="987" d="M66 266l153 31q8 -92 56.5 -145.5t146.5 -53.5q80 0 134 32t89 82t53.5 114.5t28.5 132.5l141 991h148l-150 -1053q-10 -74 -40.5 -150.5t-87 -139t-140.5 -103.5t-201 -41q-150 0 -238.5 77t-92.5 226zM651 1556l267 295h163l181 -295h-135l-140 222l-200 -222h-136z " />
<glyph unicode="&#x135;" horiz-adv-x="491" d="M-129 -471l35 117l6 -2q16 -4 34.5 -8.5t35.5 -4.5q49 0 80.5 18.5t50 48.5t28 64.5t13.5 69.5l159 1126h136l-162 -1148q-4 -20 -12.5 -70.5t-40 -102t-93 -90.5t-168.5 -39q-55 0 -102 21zM102 1155l267 295h163l181 -295h-135l-140 221l-200 -221h-136z" />
<glyph unicode="&#x136;" horiz-adv-x="1290" d="M197 0l204 1450h148l-90 -629h2h18l772 629h211l-825 -657l661 -793h-217l-608 748h-22h-2l-105 -748h-147zM418 -471l207 379h145l-235 -379h-117z" />
<glyph unicode="&#x137;" horiz-adv-x="987" d="M147 0l218 1548h135l-144 -1022l514 432h203l-538 -438l454 -520h-209l-426 504l-71 -504h-136zM258 -471l207 379h145l-235 -379h-117z" />
<glyph unicode="&#x139;" horiz-adv-x="1024" d="M197 0l204 1450h148l-187 -1315h676l-18 -135h-676h-147zM385 1556l247 295h187l-314 -295h-120z" />
<glyph unicode="&#x13a;" horiz-adv-x="491" d="M178 0l217 1548h135l-217 -1548h-135zM400 1622l247 295h187l-314 -295h-120z" />
<glyph unicode="&#x13b;" horiz-adv-x="1024" d="M197 0l204 1450h148l-187 -1315h676l-18 -135h-676h-147zM375 -471l207 379h145l-235 -379h-117z" />
<glyph unicode="&#x13c;" horiz-adv-x="491" d="M-41 -471l207 379h145l-235 -379h-117zM178 0l217 1548h135l-217 -1548h-135z" />
<glyph unicode="&#x13d;" horiz-adv-x="1024" d="M197 0l204 1450h148l-187 -1315h676l-18 -135h-676h-147zM594 1071l207 379h145l-235 -379h-117z" />
<glyph unicode="&#x13e;" horiz-adv-x="491" d="M178 0l217 1548h135l-217 -1548h-135zM561 1071l207 379h145l-235 -379h-117z" />
<glyph unicode="&#x13f;" horiz-adv-x="1024" d="M197 0l204 1450h148l-187 -1315h676l-18 -135h-676h-147zM787 834q6 41 39.5 72.5t81.5 31.5q47 0 70.5 -32t17.5 -72q-4 -41 -38 -73t-81 -32t-70.5 32t-19.5 73z" />
<glyph unicode="&#x140;" horiz-adv-x="614" d="M178 0l217 1548h135l-217 -1548h-135zM568 842q6 41 39.5 72.5t81.5 31.5q47 0 70.5 -32t17.5 -72q-4 -41 -38 -73t-81 -32t-70.5 32t-19.5 73z" />
<glyph unicode="&#x141;" horiz-adv-x="1024" d="M74 328l20 143l189 143l118 836h148l-100 -709l495 381l-20 -143l-496 -381l-66 -463h676l-18 -135h-676h-147l65 471z" />
<glyph unicode="&#x142;" horiz-adv-x="491" d="M80 479l20 150l191 168l104 751h135l-86 -610l191 172l-21 -149l-190 -170l-111 -791h-135l92 649z" />
<glyph unicode="&#x143;" horiz-adv-x="1593" d="M197 0l204 1450h146h39l690 -1229h4l174 1229h148l-205 -1450h-148h-37l-690 1241h-4l-174 -1241h-147zM861 1556l247 295h187l-314 -295h-120z" />
<glyph unicode="&#x144;" d="M147 0l105 748q6 39 11 98t9 112h140q-2 -39 -6.5 -76.5t-10.5 -76.5h4q27 39 67 71.5t86 56t96 37t97 13.5q184 0 259 -97.5t51 -277.5l-86 -608h-135l73 530q12 80 8 141.5t-27.5 103.5t-70.5 63.5t-123 21.5q-10 0 -58 -8t-105.5 -45t-108.5 -110.5t-70 -204.5 l-69 -492h-136zM609 1155l247 295h187l-314 -295h-120z" />
<glyph unicode="&#x145;" horiz-adv-x="1593" d="M197 0l204 1450h146h39l690 -1229h4l174 1229h148l-205 -1450h-148h-37l-690 1241h-4l-174 -1241h-147zM539 -471l207 379h145l-235 -379h-117z" />
<glyph unicode="&#x146;" d="M147 0l105 748q6 39 11 98t9 112h140q-2 -39 -6.5 -76.5t-10.5 -76.5h4q27 39 67 71.5t86 56t96 37t97 13.5q184 0 259 -97.5t51 -277.5l-86 -608h-135l73 530q12 80 8 141.5t-27.5 103.5t-70.5 63.5t-123 21.5q-10 0 -58 -8t-105.5 -45t-108.5 -110.5t-70 -204.5 l-69 -492h-136zM295 -471l207 379h145l-235 -379h-117z" />
<glyph unicode="&#x147;" horiz-adv-x="1593" d="M197 0l204 1450h146h39l690 -1229h4l174 1229h148l-205 -1450h-148h-37l-690 1241h-4l-174 -1241h-147zM700 1851h136l137 -221l203 221h135l-267 -295h-163z" />
<glyph unicode="&#x148;" d="M147 0l105 748q6 39 11 98t9 112h140q-2 -39 -6.5 -76.5t-10.5 -76.5h4q27 39 67 71.5t86 56t96 37t97 13.5q184 0 259 -97.5t51 -277.5l-86 -608h-135l73 530q12 80 8 141.5t-27.5 103.5t-70.5 63.5t-123 21.5q-10 0 -58 -8t-105.5 -45t-108.5 -110.5t-70 -204.5 l-69 -492h-136zM452 1450h136l137 -221l203 221h135l-267 -295h-163z" />
<glyph unicode="&#x149;" d="M147 0l105 748q6 39 11 98t9 112h140q-2 -39 -6.5 -76.5t-10.5 -76.5h4q27 39 67 71.5t86 56t96 37t97 13.5q184 0 259 -97.5t51 -277.5l-86 -608h-135l73 530q12 80 8 141.5t-27.5 103.5t-70.5 63.5t-123 21.5q-10 0 -58 -8t-105.5 -45t-108.5 -110.5t-70 -204.5 l-69 -492h-136zM160 1071l207 379h145l-235 -379h-117z" />
<glyph unicode="&#x14c;" horiz-adv-x="1708" d="M200.5 725q22.5 166 99.5 305t192.5 240.5t262 159t308.5 57.5t292 -57.5t217 -159t125 -240.5t15 -305t-100.5 -305t-193 -240.5t-262 -159t-308.5 -57.5t-292 57.5t-217 159t-124 240.5t-14.5 305zM360.5 725q-18.5 -125 7 -238.5t90 -199.5t168 -137.5t242.5 -51.5 t257 51.5t207 137.5t145.5 199.5t74.5 238.5t-7 238.5t-89.5 199.5t-168 137.5t-243.5 51.5q-139 0 -256.5 -51.5t-206.5 -137.5t-145.5 -199.5t-75 -238.5zM792 1620l17 111h553l-17 -111h-553z" />
<glyph unicode="&#x14d;" horiz-adv-x="1214" d="M166 479q14 109 65.5 201t128 159.5t175 105.5t208.5 38q113 0 201 -38t146.5 -105.5t83 -159.5t10.5 -201q-16 -109 -66.5 -201t-127.5 -159.5t-176 -105.5t-212 -38q-111 0 -199 38t-146 105.5t-82.5 160t-8.5 200.5zM313.5 479q-12.5 -80 3 -149.5t55.5 -120.5 t102.5 -81t146.5 -30t154.5 30t124.5 81t89 120.5t47 149.5t-4 149.5t-56 121t-102.5 81t-146.5 29.5t-154.5 -29.5t-124 -81t-88 -121t-47 -149.5zM512 1229l17 110h553l-17 -110h-553z" />
<glyph unicode="&#x14e;" horiz-adv-x="1708" d="M200.5 725q22.5 166 99.5 305t192.5 240.5t262 159t308.5 57.5t292 -57.5t217 -159t125 -240.5t15 -305t-100.5 -305t-193 -240.5t-262 -159t-308.5 -57.5t-292 57.5t-217 159t-124 240.5t-14.5 305zM360.5 725q-18.5 -125 7 -238.5t90 -199.5t168 -137.5t242.5 -51.5 t257 51.5t207 137.5t145.5 199.5t74.5 238.5t-7 238.5t-89.5 199.5t-168 137.5t-243.5 51.5q-139 0 -256.5 -51.5t-206.5 -137.5t-145.5 -199.5t-75 -238.5zM777 1827h90q2 -80 56 -120t132 -40t142.5 40t91.5 120h90q-27 -129 -120 -200t-220 -71t-200 71t-62 200z" />
<glyph unicode="&#x14f;" horiz-adv-x="1214" d="M166 479q14 109 65.5 201t128 159.5t175 105.5t208.5 38q113 0 201 -38t146.5 -105.5t83 -159.5t10.5 -201q-16 -109 -66.5 -201t-127.5 -159.5t-176 -105.5t-212 -38q-111 0 -199 38t-146 105.5t-82.5 160t-8.5 200.5zM313.5 479q-12.5 -80 3 -149.5t55.5 -120.5 t102.5 -81t146.5 -30t154.5 30t124.5 81t89 120.5t47 149.5t-4 149.5t-56 121t-102.5 81t-146.5 29.5t-154.5 -29.5t-124 -81t-88 -121t-47 -149.5zM488 1450h90q2 -80 56 -120t132 -40t142.5 40t91.5 120h90q-27 -129 -120 -199.5t-220 -70.5t-200 70.5t-62 199.5z" />
<glyph unicode="&#x150;" horiz-adv-x="1708" d="M200.5 725q22.5 166 99.5 305t192.5 240.5t262 159t308.5 57.5t292 -57.5t217 -159t125 -240.5t15 -305t-100.5 -305t-193 -240.5t-262 -159t-308.5 -57.5t-292 57.5t-217 159t-124 240.5t-14.5 305zM360.5 725q-18.5 -125 7 -238.5t90 -199.5t168 -137.5t242.5 -51.5 t257 51.5t207 137.5t145.5 199.5t74.5 238.5t-7 238.5t-89.5 199.5t-168 137.5t-243.5 51.5q-139 0 -256.5 -51.5t-206.5 -137.5t-145.5 -199.5t-75 -238.5zM754 1556l250 295h186l-315 -295h-121zM1166 1556l248 295h186l-313 -295h-121z" />
<glyph unicode="&#x151;" horiz-adv-x="1214" d="M166 479q14 109 65.5 201t128 159.5t175 105.5t208.5 38q113 0 201 -38t146.5 -105.5t83 -159.5t10.5 -201q-16 -109 -66.5 -201t-127.5 -159.5t-176 -105.5t-212 -38q-111 0 -199 38t-146 105.5t-82.5 160t-8.5 200.5zM313.5 479q-12.5 -80 3 -149.5t55.5 -120.5 t102.5 -81t146.5 -30t154.5 30t124.5 81t89 120.5t47 149.5t-4 149.5t-56 121t-102.5 81t-146.5 29.5t-154.5 -29.5t-124 -81t-88 -121t-47 -149.5zM430 1155l250 295h186l-315 -295h-121zM842 1155l248 295h186l-313 -295h-121z" />
<glyph unicode="&#x152;" horiz-adv-x="1933" d="M231 727q25 182 113 318.5t213 226.5t273.5 134t293.5 44h144h145h606l-20 -135h-602l-70 -494h578l-19 -135h-577l-78 -551h627l-19 -135h-629h-147h-139q-219 0 -360.5 69.5t-221.5 176t-103.5 235.5t-7.5 246zM385 617.5q2 -60.5 18.5 -125t52.5 -129t98 -114.5 t156.5 -82t227.5 -32h145l166 1180h-116q-141 0 -267.5 -38t-225.5 -112.5t-164.5 -186.5t-86.5 -257q-6 -43 -4 -103.5z" />
<glyph unicode="&#x153;" horiz-adv-x="1888" d="M166 479q14 109 64.5 201t125 159.5t168.5 105.5t197 38q117 0 220 -49t157 -166q82 104 174 159.5t221 55.5q106 0 182 -37t122 -101.5t62.5 -152.5t2.5 -188l-11 -62h-718l-3 -18q-10 -66 1.5 -125t41 -103t78.5 -71t115 -27q61 0 109.5 12.5t86 34t67.5 50t57 59.5 l96 -84q-92 -100 -205 -147.5t-225 -47.5q-117 0 -209 53.5t-133 164.5q-47 -59 -103.5 -100.5t-114 -67t-112.5 -38t-100 -12.5q-111 0 -195 38t-137 105.5t-75.5 160t-6.5 200.5zM313.5 479q-12.5 -80 3 -149.5t53.5 -120.5t96 -81t132 -30q82 0 150.5 31t119 83t82 120.5 t41.5 146.5q10 76 -2 145.5t-48 122t-95.5 83t-140.5 30.5q-74 0 -140.5 -29.5t-119 -81t-86 -121t-46 -149.5zM1149 553h584q8 68 -4.5 124t-45 97t-84 63.5t-118.5 22.5q-61 0 -116.5 -23.5t-100.5 -64.5t-76 -97.5t-39 -121.5z" />
<glyph unicode="&#x154;" horiz-adv-x="1214" d="M197 0l204 1450h146h301q221 0 334.5 -96.5t87.5 -290.5q-23 -152 -132.5 -255t-291.5 -120l321 -688h-180l-303 674h-246l-94 -674h-147zM459 809h262q98 0 169 20.5t117 54.5t70.5 80t32.5 99q6 51 -5 97t-48 81t-102.5 54.5t-163.5 19.5h-263zM701 1556l247 295h187 l-314 -295h-120z" />
<glyph unicode="&#x155;" horiz-adv-x="679" d="M162 0l92 659q8 63 15 129t20 170h133l-25 -178h4q20 39 51 75t73 64.5t94.5 46t115.5 17.5q57 0 101 -12l-48 -133q-25 10 -75 10q-78 0 -137.5 -30t-102.5 -76t-68.5 -99t-31.5 -102l-76 -541h-135zM363 1155l247 295h187l-314 -295h-120z" />
<glyph unicode="&#x156;" horiz-adv-x="1214" d="M197 0l204 1450h146h301q221 0 334.5 -96.5t87.5 -290.5q-23 -152 -132.5 -255t-291.5 -120l321 -688h-180l-303 674h-246l-94 -674h-147zM352 -471l207 379h145l-235 -379h-117zM459 809h262q98 0 169 20.5t117 54.5t70.5 80t32.5 99q6 51 -5 97t-48 81t-102.5 54.5 t-163.5 19.5h-263z" />
<glyph unicode="&#x157;" horiz-adv-x="679" d="M-20 -471l207 379h145l-235 -379h-117zM162 0l92 659q8 63 15 129t20 170h133l-25 -178h4q20 39 51 75t73 64.5t94.5 46t115.5 17.5q57 0 101 -12l-48 -133q-25 10 -75 10q-78 0 -137.5 -30t-102.5 -76t-68.5 -99t-31.5 -102l-76 -541h-135z" />
<glyph unicode="&#x158;" horiz-adv-x="1214" d="M197 0l204 1450h146h301q221 0 334.5 -96.5t87.5 -290.5q-23 -152 -132.5 -255t-291.5 -120l321 -688h-180l-303 674h-246l-94 -674h-147zM459 809h262q98 0 169 20.5t117 54.5t70.5 80t32.5 99q6 51 -5 97t-48 81t-102.5 54.5t-163.5 19.5h-263zM542 1851h136l137 -221 l203 221h135l-267 -295h-163z" />
<glyph unicode="&#x159;" horiz-adv-x="679" d="M162 0l92 659q8 63 15 129t20 170h133l-25 -178h4q20 39 51 75t73 64.5t94.5 46t115.5 17.5q57 0 101 -12l-48 -133q-25 10 -75 10q-78 0 -137.5 -30t-102.5 -76t-68.5 -99t-31.5 -102l-76 -541h-135zM237 1450h136l137 -221l203 221h135l-267 -295h-163z" />
<glyph unicode="&#x15a;" d="M127 178l147 96q35 -80 113 -128t193 -48q55 0 112.5 17.5t106.5 51.5t84 83t45 112q10 76 -14.5 126.5t-72.5 84t-111.5 56t-130.5 45t-129 51.5t-108.5 73t-69 110.5t-7.5 166.5q14 104 65 182t124 129.5t161 76t176 24.5q123 0 218 -39t167 -137l-143 -101 q-74 141 -260 142q-57 0 -114.5 -15.5t-106 -47.5t-83 -82t-43.5 -117q-10 -74 14.5 -122t73 -81t112 -55.5t130 -46t129 -52t108.5 -74t68.5 -112t8 -164.5t-67.5 -177t-129 -132.5t-165 -82t-175 -28.5q-133 0 -245.5 50t-180.5 165zM717 1556l247 295h187l-314 -295h-120 z" />
<glyph unicode="&#x15b;" horiz-adv-x="872" d="M90 162l129 80q33 -66 89.5 -105t142.5 -39q41 0 82.5 9.5t76.5 29t58.5 50t29.5 71.5q4 37 -6 61.5t-32.5 42t-54.5 28.5t-68 22l-127 30q-25 6 -64 20.5t-74.5 43.5t-58.5 75t-12 113q10 74 47 129.5t91 90t120.5 52t134.5 17.5q100 0 181 -39t116 -133l-133 -80 q-23 59 -69 94t-120 35q-35 0 -71.5 -8t-67.5 -25.5t-52.5 -44t-27.5 -65.5q-10 -68 33 -98.5t135 -53.5l133 -33q96 -23 153.5 -91t43.5 -171q-12 -78 -52 -134t-97.5 -92t-127 -52.5t-139.5 -16.5q-111 0 -200 42t-142 145zM445 1155l247 295h187l-314 -295h-120z" />
<glyph unicode="&#x15c;" d="M127 178l147 96q35 -80 113 -128t193 -48q55 0 112.5 17.5t106.5 51.5t84 83t45 112q10 76 -14.5 126.5t-72.5 84t-111.5 56t-130.5 45t-129 51.5t-108.5 73t-69 110.5t-7.5 166.5q14 104 65 182t124 129.5t161 76t176 24.5q123 0 218 -39t167 -137l-143 -101 q-74 141 -260 142q-57 0 -114.5 -15.5t-106 -47.5t-83 -82t-43.5 -117q-10 -74 14.5 -122t73 -81t112 -55.5t130 -46t129 -52t108.5 -74t68.5 -112t8 -164.5t-67.5 -177t-129 -132.5t-165 -82t-175 -28.5q-133 0 -245.5 50t-180.5 165zM489 1556l267 295h163l181 -295h-135 l-140 222l-200 -222h-136z" />
<glyph unicode="&#x15d;" horiz-adv-x="872" d="M90 162l129 80q33 -66 89.5 -105t142.5 -39q41 0 82.5 9.5t76.5 29t58.5 50t29.5 71.5q4 37 -6 61.5t-32.5 42t-54.5 28.5t-68 22l-127 30q-25 6 -64 20.5t-74.5 43.5t-58.5 75t-12 113q10 74 47 129.5t91 90t120.5 52t134.5 17.5q100 0 181 -39t116 -133l-133 -80 q-23 59 -69 94t-120 35q-35 0 -71.5 -8t-67.5 -25.5t-52.5 -44t-27.5 -65.5q-10 -68 33 -98.5t135 -53.5l133 -33q96 -23 153.5 -91t43.5 -171q-12 -78 -52 -134t-97.5 -92t-127 -52.5t-139.5 -16.5q-111 0 -200 42t-142 145zM278 1155l267 295h163l181 -295h-135l-140 221 l-200 -221h-136z" />
<glyph unicode="&#x15e;" d="M127 178l147 96q35 -80 113 -128t193 -48q55 0 112.5 17.5t106.5 51.5t84 83t45 112q10 76 -14.5 126.5t-72.5 84t-111.5 56t-130.5 45t-129 51.5t-108.5 73t-69 110.5t-7.5 166.5q14 104 65 182t124 129.5t161 76t176 24.5q123 0 218 -39t167 -137l-143 -101 q-74 141 -260 142q-57 0 -114.5 -15.5t-106 -47.5t-83 -82t-43.5 -117q-10 -74 14.5 -122t73 -81t112 -55.5t130 -46t129 -52t108.5 -74t68.5 -112t8 -164.5t-67.5 -177t-129 -132.5t-166 -81.5q-41 -12 -84 -21l-82 -94l2 -2q18 6 35.5 10t40.5 4q61 0 104 -39.5t33 -113.5 q-6 -47 -32.5 -82t-63.5 -56.5t-80 -31.5t-84 -10q-106 0 -192 49l43 73q63 -37 145 -36q45 0 89 20.5t52 71.5q0 8 -2 22.5t-11 27.5t-27.5 22.5t-49.5 9.5q-29 0 -51.5 -6.5t-44.5 -16.5l-33 35l119 135q-133 0 -245.5 50t-180.5 165z" />
<glyph unicode="&#x15f;" horiz-adv-x="872" d="M90 162l129 80q33 -66 89.5 -105t142.5 -39q41 0 82.5 9.5t76.5 29t58.5 50t29.5 71.5q4 37 -6 61.5t-32.5 42t-54.5 28.5t-68 22l-127 30q-25 6 -64 20.5t-74.5 43.5t-58.5 75t-12 113q10 74 47 129.5t91 90t120.5 52t134.5 17.5q100 0 181 -39t116 -133l-133 -80 q-23 59 -69 94t-120 35q-35 0 -71.5 -8t-67.5 -25.5t-52.5 -44t-27.5 -65.5q-10 -68 33 -98.5t135 -53.5l133 -33q96 -23 153.5 -91t43.5 -171q-12 -78 -52 -134t-97.5 -92t-127.5 -52q-25 -4 -49 -8l-92 -107l2 -2q18 6 35.5 10t40.5 4q61 0 104 -39.5t33 -113.5 q-6 -47 -32.5 -82t-63.5 -56.5t-80 -31.5t-84 -10q-106 0 -192 49l43 73q63 -37 145 -36q45 0 89 20.5t52 71.5q0 8 -2 22.5t-11 27.5t-27.5 22.5t-49.5 9.5q-29 0 -51.5 -6.5t-44.5 -16.5l-33 35l129 147q-111 0 -200 42t-142 145z" />
<glyph unicode="&#x160;" d="M127 178l147 96q35 -80 113 -128t193 -48q55 0 112.5 17.5t106.5 51.5t84 83t45 112q10 76 -14.5 126.5t-72.5 84t-111.5 56t-130.5 45t-129 51.5t-108.5 73t-69 110.5t-7.5 166.5q14 104 65 182t124 129.5t161 76t176 24.5q123 0 218 -39t167 -137l-143 -101 q-74 141 -260 142q-57 0 -114.5 -15.5t-106 -47.5t-83 -82t-43.5 -117q-10 -74 14.5 -122t73 -81t112 -55.5t130 -46t129 -52t108.5 -74t68.5 -112t8 -164.5t-67.5 -177t-129 -132.5t-165 -82t-175 -28.5q-133 0 -245.5 50t-180.5 165zM520 1808h136l137 -221l203 221h135 l-267 -295h-163z" />
<glyph unicode="&#x161;" horiz-adv-x="872" d="M90 162l129 80q33 -66 89.5 -105t142.5 -39q41 0 82.5 9.5t76.5 29t58.5 50t29.5 71.5q4 37 -6 61.5t-32.5 42t-54.5 28.5t-68 22l-127 30q-25 6 -64 20.5t-74.5 43.5t-58.5 75t-12 113q10 74 47 129.5t91 90t120.5 52t134.5 17.5q100 0 181 -39t116 -133l-133 -80 q-23 59 -69 94t-120 35q-35 0 -71.5 -8t-67.5 -25.5t-52.5 -44t-27.5 -65.5q-10 -68 33 -98.5t135 -53.5l133 -33q96 -23 153.5 -91t43.5 -171q-12 -78 -52 -134t-97.5 -92t-127 -52.5t-139.5 -16.5q-111 0 -200 42t-142 145zM335 1450h136l137 -221l203 221h135l-267 -295 h-163z" />
<glyph unicode="&#x162;" horiz-adv-x="1175" d="M213 1315l20 135h482h149h488l-21 -135h-485l-184 -1315h-148l184 1315h-485zM311 -471l207 379h145l-235 -379h-117z" />
<glyph unicode="&#x163;" horiz-adv-x="679" d="M145 836l19 122h203l36 271h136l-37 -271h276l-18 -122h-277l-77 -566q-8 -53 -3 -86.5t20 -52t40.5 -26t56.5 -7.5q35 0 73 10.5t71 26.5l-11 -125q-82 -35 -188 -35q-39 0 -79 10.5t-70.5 39t-47 78t-4.5 128.5l84 605h-203zM156 -471l207 379h145l-235 -379h-117z" />
<glyph unicode="&#x164;" horiz-adv-x="1175" d="M213 1315l20 135h482h149h488l-21 -135h-485l-184 -1315h-148l184 1315h-485zM524 1851h136l137 -221l203 221h135l-267 -295h-163z" />
<glyph unicode="&#x165;" horiz-adv-x="679" d="M145 836l19 122h203l36 271h136l-37 -271h276l-18 -122h-277l-77 -566q-8 -53 -3 -86.5t20 -52t40.5 -26t56.5 -7.5q35 0 73 10.5t71 26.5l-11 -125q-82 -35 -188 -35q-39 0 -79 10.5t-70.5 39t-47 78t-4.5 128.5l84 605h-203zM610 1071l207 379h145l-235 -379h-117z" />
<glyph unicode="&#x166;" horiz-adv-x="1175" d="M213 1315l20 135h1119l-21 -135h-485l-51 -367h434l-19 -123h-434l-114 -825h-148l115 825h-402l19 123h401l51 367h-485z" />
<glyph unicode="&#x167;" horiz-adv-x="679" d="M145 836l19 122h203l36 271h136l-37 -271h276l-18 -122h-277l-28 -209h245l-16 -109h-246l-32 -248q-8 -53 -3 -86.5t20 -52t40.5 -26t56.5 -7.5q35 0 73 10.5t71 26.5l-11 -125q-82 -35 -188 -35q-39 0 -79 10.5t-70.5 39t-47 78t-4.5 128.5l39 287h-149l16 109h149 l29 209h-203z" />
<glyph unicode="&#x168;" horiz-adv-x="1404" d="M243 349.5q-7 101.5 5 191.5l129 909h147l-127 -893q-14 -104 -4 -179t37 -126t64.5 -81t77.5 -46t78 -21.5t67 -5.5q41 0 108.5 13.5t135 59.5t124 137t78.5 249l127 893h148l-129 -909q-12 -90 -48 -191.5t-108 -187.5t-183.5 -142.5t-273.5 -56.5q-164 0 -258 56.5 t-141 142.5t-54 187.5zM596 1567q12 39 30.5 77.5t45 68.5t61.5 48.5t82 18.5q37 0 72 -14.5t69 -32.5q35 -16 68 -31.5t63 -15.5q47 0 74 31.5t41 70.5h88q-12 -41 -30.5 -79t-44 -67.5t-61.5 -48t-81 -18.5q-37 0 -72.5 15.5t-70.5 31.5q-35 18 -67 32.5t-64 14.5 q-47 0 -74 -31.5t-41 -70.5h-88z" />
<glyph unicode="&#x169;" d="M197 350l86 608h135l-76 -530q-10 -80 -6 -141.5t27.5 -103.5t70.5 -63.5t123 -21.5q6 0 31.5 3t59.5 14.5t73 35t74.5 64.5t63.5 102.5t40 149.5l70 491h135l-107 -747q-4 -39 -9 -98.5t-9 -112.5h-139q2 39 6 77t10 77h-4q-29 -39 -69 -72t-86 -56.5t-96 -37t-97 -13.5 q-184 0 -258 97.5t-49 277.5zM377 1180q12 39 30.5 77.5t45 68.5t61.5 48.5t82 18.5q37 0 72 -14.5t69 -32.5q35 -16 68 -32t63 -16q47 0 74 32t41 71h88q-12 -41 -30.5 -79t-44 -67.5t-61.5 -48t-81 -18.5q-37 0 -72.5 15.5t-70.5 31.5q-35 18 -67 32.5t-64 14.5 q-47 0 -74 -31.5t-41 -70.5h-88z" />
<glyph unicode="&#x16a;" horiz-adv-x="1404" d="M243 349.5q-7 101.5 5 191.5l129 909h147l-127 -893q-14 -104 -4 -179t37 -126t64.5 -81t77.5 -46t78 -21.5t67 -5.5q41 0 108.5 13.5t135 59.5t124 137t78.5 249l127 893h148l-129 -909q-12 -90 -48 -191.5t-108 -187.5t-183.5 -142.5t-273.5 -56.5q-164 0 -258 56.5 t-141 142.5t-54 187.5zM643 1620l17 111h553l-17 -111h-553z" />
<glyph unicode="&#x16b;" d="M197 350l86 608h135l-76 -530q-10 -80 -6 -141.5t27.5 -103.5t70.5 -63.5t123 -21.5q6 0 31.5 3t59.5 14.5t73 35t74.5 64.5t63.5 102.5t40 149.5l70 491h135l-107 -747q-4 -39 -9 -98.5t-9 -112.5h-139q2 39 6 77t10 77h-4q-29 -39 -69 -72t-86 -56.5t-96 -37t-97 -13.5 q-184 0 -258 97.5t-49 277.5zM428 1229l17 110h553l-17 -110h-553z" />
<glyph unicode="&#x16c;" horiz-adv-x="1404" d="M243 349.5q-7 101.5 5 191.5l129 909h147l-127 -893q-14 -104 -4 -179t37 -126t64.5 -81t77.5 -46t78 -21.5t67 -5.5q41 0 108.5 13.5t135 59.5t124 137t78.5 249l127 893h148l-129 -909q-12 -90 -48 -191.5t-108 -187.5t-183.5 -142.5t-273.5 -56.5q-164 0 -258 56.5 t-141 142.5t-54 187.5zM652 1827h90q2 -80 56 -120t132 -40t142.5 40t91.5 120h90q-27 -129 -120 -200t-220 -71t-200 71t-62 200z" />
<glyph unicode="&#x16d;" d="M197 350l86 608h135l-76 -530q-10 -80 -6 -141.5t27.5 -103.5t70.5 -63.5t123 -21.5q6 0 31.5 3t59.5 14.5t73 35t74.5 64.5t63.5 102.5t40 149.5l70 491h135l-107 -747q-4 -39 -9 -98.5t-9 -112.5h-139q2 39 6 77t10 77h-4q-29 -39 -69 -72t-86 -56.5t-96 -37t-97 -13.5 q-184 0 -258 97.5t-49 277.5zM429 1450h90q2 -80 56 -120t132 -40t142.5 40t91.5 120h90q-27 -129 -120 -199.5t-220 -70.5t-200 70.5t-62 199.5z" />
<glyph unicode="&#x16e;" horiz-adv-x="1404" d="M243 349.5q-7 101.5 5 191.5l129 909h147l-127 -893q-14 -104 -4 -179t37 -126t64.5 -81t77.5 -46t78 -21.5t67 -5.5q41 0 108.5 13.5t135 59.5t124 137t78.5 249l127 893h148l-129 -909q-12 -90 -48 -191.5t-108 -187.5t-183.5 -142.5t-273.5 -56.5q-164 0 -258 56.5 t-141 142.5t-54 187.5zM735.5 1710q6.5 41 27 77t51 61.5t68.5 41t79 15.5q39 0 72.5 -15.5t57 -41t34 -61.5t4.5 -77t-26.5 -77t-51.5 -62.5t-69 -40.5t-76 -14q-41 0 -74 14t-56.5 40.5t-35 62.5t-5 77zM809 1710q-6 -51 25 -86t82 -35t92 35t47 86q8 51 -22.5 86 t-81.5 35t-92.5 -35t-49.5 -86z" />
<glyph unicode="&#x16f;" d="M197 350l86 608h135l-76 -530q-10 -80 -6 -141.5t27.5 -103.5t70.5 -63.5t123 -21.5q6 0 31.5 3t59.5 14.5t73 35t74.5 64.5t63.5 102.5t40 149.5l70 491h135l-107 -747q-4 -39 -9 -98.5t-9 -112.5h-139q2 39 6 77t10 77h-4q-29 -39 -69 -72t-86 -56.5t-96 -37t-97 -13.5 q-184 0 -258 97.5t-49 277.5zM536.5 1331q6.5 41 27 77t51 61.5t68.5 41t79 15.5q39 0 72.5 -15.5t57 -41t34 -61.5t4.5 -77t-26.5 -76.5t-51.5 -62.5t-69 -41t-76 -14q-41 0 -74 14t-56.5 41t-35 62.5t-5 76.5zM610 1331q-6 -51 25 -86t82 -35t92 35t47 86q8 51 -22.5 86 t-81.5 35t-92.5 -35t-49.5 -86z" />
<glyph unicode="&#x170;" horiz-adv-x="1404" d="M243 349.5q-7 101.5 5 191.5l129 909h147l-127 -893q-14 -104 -4 -179t37 -126t64.5 -81t77.5 -46t78 -21.5t67 -5.5q41 0 108.5 13.5t135 59.5t124 137t78.5 249l127 893h148l-129 -909q-12 -90 -48 -191.5t-108 -187.5t-183.5 -142.5t-273.5 -56.5q-164 0 -258 56.5 t-141 142.5t-54 187.5zM577 1556l250 295h186l-315 -295h-121zM989 1556l248 295h186l-313 -295h-121z" />
<glyph unicode="&#x171;" d="M197 350l86 608h135l-76 -530q-10 -80 -6 -141.5t27.5 -103.5t70.5 -63.5t123 -21.5q6 0 31.5 3t59.5 14.5t73 35t74.5 64.5t63.5 102.5t40 149.5l70 491h135l-107 -747q-4 -39 -9 -98.5t-9 -112.5h-139q2 39 6 77t10 77h-4q-29 -39 -69 -72t-86 -56.5t-96 -37t-97 -13.5 q-184 0 -258 97.5t-49 277.5zM383 1155l250 295h186l-315 -295h-121zM795 1155l248 295h186l-313 -295h-121z" />
<glyph unicode="&#x172;" horiz-adv-x="1404" d="M243 349.5q-7 101.5 5 191.5l129 909h147l-127 -893q-14 -104 -4 -179t37 -126t64.5 -81t77.5 -46t78 -21.5t67 -5.5q41 0 108.5 13.5t135 59.5t124 137t78.5 249l127 893h148l-129 -909q-12 -90 -48 -191.5t-108 -187.5t-184 -144q-86 -41 -201 -51q-51 -49 -84 -86 q-49 -57 -57 -117q-6 -43 20.5 -70.5t67.5 -27.5q29 0 58.5 11.5t51.5 33.5l29 -82q-41 -35 -92 -54t-103 -19q-37 0 -68.5 12t-54 35.5t-33.5 55.5t-5 71q6 43 28.5 83t54 75.5t68.5 68.5l8 8q-137 6 -219 53q-94 57 -141 143.5t-54 188z" />
<glyph unicode="&#x173;" d="M197 350l86 608h135l-76 -530q-10 -80 -6 -141.5t27.5 -103.5t70.5 -63.5t123 -21.5q6 0 31.5 3t59.5 14.5t73 35t74.5 64.5t63.5 102.5t40 149.5l70 491h135l-107 -747q-4 -39 -9 -98.5t-9 -112.5h-31q-76 -68 -121 -119q-49 -57 -57 -117q-6 -43 20.5 -70.5t67.5 -27.5 q29 0 58.5 11.5t52.5 33.5l28 -82q-41 -35 -92 -54t-102 -19q-37 0 -69 12t-54.5 35.5t-33.5 55.5t-5 71q6 43 28.5 83t54.5 75.5t69 68.5q27 23 53 43h-6q2 39 6 77t10 77h-4q-29 -39 -69 -72t-86 -56.5t-96 -37t-97 -13.5q-184 0 -258 97.5t-49 277.5z" />
<glyph unicode="&#x174;" horiz-adv-x="1933" d="M205 1450h164l172 -1241h4l540 1241h177l188 -1241h4l520 1241h164l-633 -1450h-172l-190 1241h-4l-539 -1241h-172zM886 1556l267 295h163l181 -295h-135l-140 222l-200 -222h-136z" />
<glyph unicode="&#x175;" horiz-adv-x="1478" d="M164 958h160l110 -778h4l367 778h139l146 -778h4l331 778h160l-438 -958h-152l-143 786h-4l-365 -786h-151zM591 1155l267 295h163l181 -295h-135l-140 221l-200 -221h-136z" />
<glyph unicode="&#x176;" horiz-adv-x="1175" d="M176 1450h184l336 -684l529 684h184l-659 -825l-88 -625h-148l88 625zM505 1556l267 295h163l181 -295h-135l-140 222l-200 -222h-136z" />
<glyph unicode="&#x177;" horiz-adv-x="987" d="M-12 -477l32 131q23 -12 47.5 -17.5t53.5 -5.5q72 0 119 45t90 127l94 185l-256 970h170l188 -792l406 792h164l-650 -1208q-59 -111 -134.5 -176.5t-200.5 -65.5q-31 0 -63 2.5t-60 12.5zM352 1155l267 295h163l181 -295h-135l-140 221l-200 -221h-136z" />
<glyph unicode="&#x178;" horiz-adv-x="1175" d="M176 1450h184l336 -684l529 684h184l-659 -825l-88 -625h-148l88 625zM524 1683q6 41 39 73t80 32t71.5 -32t18.5 -73t-39 -72.5t-80 -31.5t-71.5 31.5t-18.5 72.5zM917 1683q6 41 39 73t80 32t71.5 -32t18.5 -73t-38.5 -72.5t-80.5 -31.5q-47 0 -71.5 31.5t-18.5 72.5z " />
<glyph unicode="&#x179;" d="M47 0l16 123l1016 1192h-835l20 135h1020l-18 -123l-1014 -1192h858l-18 -135h-1045zM623 1556l247 295h187l-314 -295h-120z" />
<glyph unicode="&#x17a;" horiz-adv-x="872" d="M47 0l14 98l664 738h-532l18 122h729l-14 -98l-666 -737h582l-17 -123h-778zM488 1155l247 295h187l-314 -295h-120z" />
<glyph unicode="&#x17b;" d="M47 0l16 123l1016 1192h-835l20 135h1020l-18 -123l-1014 -1192h858l-18 -135h-1045zM654 1683q6 41 39.5 73t81.5 32q47 0 70.5 -32t17.5 -73q-4 -41 -38 -72.5t-81 -31.5t-70.5 31.5t-19.5 72.5z" />
<glyph unicode="&#x17c;" horiz-adv-x="872" d="M47 0l14 98l664 738h-532l18 122h729l-14 -98l-666 -737h582l-17 -123h-778zM504 1346q6 41 39.5 72.5t81.5 31.5q47 0 70.5 -32t17.5 -72q-4 -41 -38 -73t-81 -32t-70.5 32t-19.5 73z" />
<glyph unicode="&#x17d;" d="M47 0l16 123l1016 1192h-835l20 135h1020l-18 -123l-1014 -1192h858l-18 -135h-1045zM520 1808h136l137 -221l203 221h135l-267 -295h-163z" />
<glyph unicode="&#x17e;" horiz-adv-x="872" d="M47 0l14 98l664 738h-532l18 122h729l-14 -98l-666 -737h582l-17 -123h-778zM335 1450h136l137 -221l203 221h135l-267 -295h-163z" />
<glyph unicode="&#x192;" d="M-33 -236l80 99q20 -12 48 -18.5t55 -6.5q47 0 80.5 19.5t57 50.5t40 69.5t28.5 77.5l226 693h-222l17 110h244l96 295q20 63 50 120.5t72 102.5t99 72t135 27q109 0 187 -60l-84 -98q-23 16 -51.5 25.5t-59.5 9.5q-51 0 -88 -24.5t-62.5 -61.5t-42 -78t-26.5 -74 l-80 -256h221l-16 -110h-244l-238 -721q-18 -55 -45.5 -110.5t-70.5 -100.5t-103.5 -73t-142.5 -28q-45 0 -87 11.5t-73 37.5z" />
<glyph unicode="&#x2c6;" horiz-adv-x="491" d="M102 1155l267 295h163l181 -295h-135l-140 221l-200 -221h-136z" />
<glyph unicode="&#x2c7;" horiz-adv-x="491" d="M145 1450h136l137 -221l203 221h135l-267 -295h-163z" />
<glyph unicode="&#x2d8;" horiz-adv-x="491" d="M150 1450h90q2 -80 56 -120t132 -40t142.5 40t91.5 120h90q-27 -129 -120 -199.5t-220 -70.5t-200 70.5t-62 199.5z" />
<glyph unicode="&#x2d9;" horiz-adv-x="491" d="M330 1346q6 41 39.5 72.5t81.5 31.5q47 0 70.5 -32t17.5 -72q-4 -41 -38 -73t-81 -32t-70.5 32t-19.5 73z" />
<glyph unicode="&#x2da;" horiz-adv-x="491" d="M235.5 1331q6.5 41 27 77t51 61.5t68.5 41t79 15.5q39 0 72.5 -15.5t57 -41t34 -61.5t4.5 -77t-26.5 -76.5t-51.5 -62.5t-69 -41t-76 -14q-41 0 -74 14t-56.5 41t-35 62.5t-5 76.5zM309 1331q-6 -51 25 -86t82 -35t92 35t47 86q8 51 -22.5 86t-81.5 35t-92.5 -35 t-49.5 -86z" />
<glyph unicode="&#x2db;" horiz-adv-x="491" d="M23 -270q6 43 28.5 83t54 75.5t68.5 67.5t72 56h98q-86 -76 -135 -132t-57 -116q-6 -43 20.5 -70.5t67.5 -27.5q29 0 58.5 11.5t51.5 33.5l29 -82q-41 -35 -92 -54t-103 -19q-37 0 -68.5 12t-54 35.5t-34 55.5t-4.5 71z" />
<glyph unicode="&#x2dc;" horiz-adv-x="491" d="M80 1180q12 39 30.5 77.5t45 68.5t61.5 48.5t82 18.5q37 0 72 -14.5t69 -32.5q35 -16 68 -32t63 -16q47 0 74 32t41 71h88q-12 -41 -30.5 -79t-44 -67.5t-61.5 -48t-81 -18.5q-37 0 -72.5 15.5t-70.5 31.5q-35 18 -67 32.5t-64 14.5q-47 0 -74 -31.5t-41 -70.5h-88z" />
<glyph unicode="&#x2dd;" horiz-adv-x="491" d="M6 1155l250 295h186l-315 -295h-121zM418 1155l248 295h186l-313 -295h-121z" />
<glyph unicode="&#x3a9;" horiz-adv-x="1523" d="M96 0v119h404v168q-96 27 -171 82t-127 129.5t-79 165t-27 188.5q0 137 52.5 252t142.5 197.5t208.5 129t252.5 46.5q133 0 250.5 -46.5t206.5 -129t141.5 -197.5t52.5 -250q0 -98 -26.5 -189.5t-78 -166t-126 -130t-173.5 -81.5v-168h404v-119h-514v371q92 16 162.5 58 t119 105.5t72 143.5t23.5 172q0 111 -40 203t-109.5 158.5t-164 103.5t-202.5 37q-109 0 -203 -38t-164 -104.5t-110 -159t-40 -200.5q0 -90 24 -171t72 -144.5t118.5 -106.5t162.5 -57v-371h-514z" />
<glyph unicode="&#x3c0;" horiz-adv-x="1153" d="M66 838v120h1011v-120h-155v-625q0 -45 11 -78t66 -33q41 0 86 21v-100q-35 -16 -64.5 -25.5t-66.5 -9.5q-59 0 -93 19.5t-49 53t-18 76.5t-3 90v611h-451v-838h-131v838h-143z" />
<glyph unicode="&#x2000;" horiz-adv-x="962" />
<glyph unicode="&#x2001;" horiz-adv-x="1925" />
<glyph unicode="&#x2002;" horiz-adv-x="962" />
<glyph unicode="&#x2003;" horiz-adv-x="1925" />
<glyph unicode="&#x2004;" horiz-adv-x="641" />
<glyph unicode="&#x2005;" horiz-adv-x="481" />
<glyph unicode="&#x2006;" horiz-adv-x="320" />
<glyph unicode="&#x2007;" horiz-adv-x="320" />
<glyph unicode="&#x2008;" horiz-adv-x="240" />
<glyph unicode="&#x2009;" horiz-adv-x="385" />
<glyph unicode="&#x200a;" horiz-adv-x="106" />
<glyph unicode="&#x2010;" horiz-adv-x="681" d="M137 424l19 135h526l-18 -135h-527z" />
<glyph unicode="&#x2011;" horiz-adv-x="681" d="M137 424l19 135h526l-18 -135h-527z" />
<glyph unicode="&#x2012;" horiz-adv-x="681" d="M137 424l19 135h526l-18 -135h-527z" />
<glyph unicode="&#x2013;" horiz-adv-x="1024" d="M59 424l19 135h1024l-19 -135h-1024z" />
<glyph unicode="&#x2014;" horiz-adv-x="2048" d="M59 424l19 135h2048l-19 -135h-2048z" />
<glyph unicode="&#x2018;" horiz-adv-x="532" d="M250 969l235 481h138l-207 -481h-166z" />
<glyph unicode="&#x2019;" horiz-adv-x="532" d="M250 969l207 481h166l-236 -481h-137z" />
<glyph unicode="&#x201a;" horiz-adv-x="532" d="M74 -287l205 482h165l-233 -482h-137z" />
<glyph unicode="&#x201c;" horiz-adv-x="1062" d="M330 969l235 481h137l-206 -481h-166zM700 969l236 481h137l-207 -481h-166z" />
<glyph unicode="&#x201d;" horiz-adv-x="1062" d="M330 969l207 481h165l-235 -481h-137zM700 969l207 481h166l-235 -481h-138z" />
<glyph unicode="&#x201e;" horiz-adv-x="1062" d="M154 -287l204 482h166l-233 -482h-137zM524 -287l205 482h166l-233 -482h-138z" />
<glyph unicode="&#x2020;" d="M211 909l18 123h418l60 418h135l-60 -418h418l-18 -123h-418l-164 -1167h-135l164 1167h-418z" />
<glyph unicode="&#x2021;" d="M121 135l18 123h400l94 676h-400l19 123h399l56 393h135l-56 -393h400l-19 -123h-399l-94 -676h399l-18 -123h-400l-55 -393h-135l55 393h-399z" />
<glyph unicode="&#x2022;" horiz-adv-x="1024" d="M252 725q10 76 48 141.5t94.5 114.5t126 77.5t145.5 28.5t137 -28.5t104 -77.5t61.5 -114.5t8.5 -141.5t-48 -141.5t-94.5 -114.5t-126 -78t-145.5 -29t-137 29t-104 78t-61.5 114.5t-8.5 141.5z" />
<glyph unicode="&#x2026;" horiz-adv-x="2048" d="M246 98q6 43 41 77t84 34t75.5 -34t20.5 -77t-42 -76.5t-85 -33.5t-74.5 33.5t-19.5 76.5zM928 98q6 43 41 77t84 34t75.5 -34t20.5 -77t-42 -76.5t-85 -33.5t-74.5 33.5t-19.5 76.5zM1610 98q6 43 41 77t84 34t75.5 -34t20.5 -77t-42 -76.5t-85 -33.5t-74.5 33.5 t-19.5 76.5z" />
<glyph unicode="&#x202f;" horiz-adv-x="385" />
<glyph unicode="&#x2030;" horiz-adv-x="2048" d="M147 -8l1139 1521l96 -55l-1134 -1521zM215 1159q8 63 41 120.5t81 100.5t108.5 69t125.5 26q66 0 119 -26t90 -69t53.5 -100.5t8.5 -120.5q-10 -66 -42 -123t-81 -100t-109.5 -67.5t-126.5 -24.5t-119 24.5t-89.5 67.5t-53 100.5t-6.5 122.5zM326 1159 q-12 -86 37 -145.5t135 -59.5q43 0 81.5 16.5t70.5 44t53.5 64.5t27.5 80q10 86 -39 145.5t-135 59.5q-43 0 -82 -16.5t-70.5 -44t-52 -64.5t-26.5 -80zM694 291q8 63 41 120.5t82 100.5t109.5 68.5t126.5 25.5t119 -25.5t89.5 -68.5t52 -100.5t7.5 -120.5q-10 -66 -42 -123 t-81 -100t-109.5 -68t-125.5 -25q-66 0 -119 25t-90 68t-53.5 100t-6.5 123zM805 291q-12 -86 38 -145.5t136 -59.5q43 0 82 16.5t69.5 44t52 64.5t27.5 80q12 86 -38 145.5t-136 59.5q-43 0 -82 -16.5t-69.5 -44t-52 -64.5t-27.5 -80zM1411 291q8 63 41 120.5t82 100.5 t109.5 68.5t125.5 25.5q66 0 119.5 -25.5t90 -68.5t52 -100.5t7.5 -120.5q-10 -66 -42 -123t-81 -100t-109.5 -68t-126.5 -25t-119 25t-89.5 68t-53 100t-6.5 123zM1522 291q-12 -86 38 -145.5t136 -59.5q43 0 82 16.5t69.5 44t52 64.5t27.5 80q12 86 -38 145.5t-136 59.5 q-43 0 -82 -16.5t-69.5 -44t-52 -64.5t-27.5 -80z" />
<glyph unicode="&#x2039;" horiz-adv-x="645" d="M190 492l347 428l86 -68l-285 -360l184 -361l-106 -68z" />
<glyph unicode="&#x203a;" horiz-adv-x="645" d="M160 131l286 361l-186 360l107 68l227 -428l-348 -429z" />
<glyph unicode="&#x2044;" horiz-adv-x="344" d="M-342 0l1137 1516l96 -64l-1135 -1518z" />
<glyph unicode="&#x205f;" horiz-adv-x="481" />
<glyph unicode="&#x20ac;" d="M115 477l55 113h100q2 29 6.5 58.5t8.5 60.5q10 78 26 149h-141l57 115h117q86 258 248 380t360 122q86 0 172 -25t133 -57l-61 -127q-43 35 -110.5 57.5t-153.5 22.5q-307 0 -432 -373h579l-51 -115h-563q-16 -74 -29 -156q-4 -29 -7 -56.5t-5 -55.5h491l-51 -113h-442 q6 -178 76.5 -278.5t218.5 -100.5q82 0 156.5 38t117.5 93l86 -69q-72 -94 -179 -139.5t-218 -45.5t-188.5 37t-126 103.5t-73 159t-24.5 202.5h-153z" />
<glyph unicode="&#x2122;" horiz-adv-x="2048" d="M336 1339l16 111h277h123h274l-16 -111h-273l-102 -733h-123l102 733h-278zM1083 606l119 844h119h72l172 -647l356 647h59h125l-118 -844h-123l98 709h-4l-383 -709h-80l-186 709h-4l-99 -709h-123z" />
<glyph unicode="&#x2202;" horiz-adv-x="1015" d="M63 434q0 88 27 168t78 139.5t125 94t168 34.5q100 0 188 -47t152 -125q0 27 1 53.5t1 53.5q0 86 -17.5 183t-59.5 181t-112.5 139.5t-177.5 55.5q-72 0 -124 -26.5t-105 -67.5l-74 88q66 57 137.5 88t159.5 31q98 0 174 -32t131.5 -87t93 -128t60 -155t33 -167 t10.5 -165q0 -113 -16.5 -247t-65.5 -249.5t-140.5 -193.5t-238.5 -78q-96 0 -172 38t-128 101.5t-80 146.5t-28 173zM193 430q0 -61 17 -122.5t53 -112t88 -81t122 -30.5q88 0 147.5 49t96.5 123t53.5 158.5t20.5 154.5q-55 74 -137.5 130.5t-180.5 56.5q-70 0 -122 -27 t-88 -72t-53 -104t-17 -123z" />
<glyph unicode="&#x2206;" horiz-adv-x="1372" d="M31 0l575 1458h152l588 -1458h-1315zM217 127h932l-469 1194z" />
<glyph unicode="&#x220f;" horiz-adv-x="1456" d="M145 -438v2048h1168v-2048h-135v1921h-897v-1921h-136z" />
<glyph unicode="&#x2211;" horiz-adv-x="1236" d="M51 -326l674 918l-645 903v115h1079v-127h-905l633 -891l-672 -905h969v-125h-1133v112z" />
<glyph unicode="&#x221a;" horiz-adv-x="1009" d="M-16 315l204 99l324 -680l387 1876h129l-430 -2048h-135l-336 696l-94 -45z" />
<glyph unicode="&#x221e;" horiz-adv-x="1517" d="M84 510q0 61 19.5 116.5t56.5 97.5t89 65.5t118 23.5q59 0 113.5 -21.5t102.5 -55.5t92 -73.5t85 -78.5q41 39 83 80t88 74.5t98 55t114 21.5q66 0 119 -22.5t92 -62.5t59.5 -95.5t20.5 -118.5t-20.5 -118.5t-57.5 -96.5t-90.5 -64.5t-118.5 -23.5q-59 0 -112.5 19.5 t-100.5 51t-91 70.5t-83 78q-45 -37 -88 -76t-89 -70.5t-98.5 -52t-113.5 -20.5q-66 0 -118 22.5t-90 62.5t-58.5 94t-20.5 118zM201 512q0 -78 45 -129t127 -51q41 0 84 17.5t84 44t76.5 58t64.5 58.5q-31 27 -67.5 58.5t-78.5 60t-85 48t-86 19.5q-39 0 -70 -15t-51.5 -41 t-31.5 -58.5t-11 -69.5zM838 508q33 -29 68.5 -59.5t75.5 -57t82 -43t89 -16.5q78 0 121 51t43 127q0 78 -43 133t-127 55q-43 0 -85 -19.5t-82 -48t-76 -62t-66 -60.5z" />
<glyph unicode="&#x222b;" horiz-adv-x="1112" d="M207 -340q0 29 19.5 47.5t47.5 18.5q27 0 41.5 -12.5t23.5 -27t17.5 -26.5t20.5 -12q27 0 41 46t19 104.5t5 110.5v64l2 43v1014q0 47 -2 108.5t1 126t14.5 126t39 110.5t73.5 79t118 30q23 0 48.5 -5.5t47 -17.5t34.5 -31.5t13 -48.5q0 -35 -21.5 -52t-53.5 -17 q-29 0 -43.5 12t-23.5 27.5t-17 29t-23 13.5q-25 0 -39 -27t-21 -67t-10.5 -87t-2 -91t2.5 -76.5t1 -43.5v-1032q0 -66 -2.5 -157t-25 -174.5t-73.5 -142t-149 -58.5q-43 0 -83 22.5t-40 73.5z" />
<glyph unicode="&#x2248;" horiz-adv-x="1363" d="M145 178q8 53 24.5 104.5t46.5 92.5t75 65.5t106 24.5q68 0 142.5 -22.5t152.5 -51.5q76 -29 147.5 -52.5t131.5 -23.5q72 0 108.5 47.5t50.5 112.5h91q-6 -53 -23.5 -104.5t-48.5 -91t-76 -63t-106 -23.5q-66 0 -142.5 23.5t-152.5 51.5q-76 29 -146.5 51.5t-126.5 22.5 q-70 0 -110.5 -50t-50.5 -114h-93zM145 528q6 53 23.5 104.5t48.5 91.5t76 64.5t106 24.5q68 0 142.5 -22.5t150.5 -51.5q78 -29 148.5 -52t130.5 -23q74 0 110.5 47t51.5 112h88q-6 -53 -23.5 -104t-48.5 -90t-75 -62.5t-105 -23.5q-66 0 -142.5 23.5t-154.5 51.5 q-76 29 -146.5 51.5t-126.5 22.5q-70 0 -110.5 -50t-50.5 -114h-93z" />
<glyph unicode="&#x2260;" horiz-adv-x="1363" d="M168 246v123h371l139 266h-510v123h577l158 301l107 -58l-129 -243h315v-123h-381l-141 -266h522v-123h-588l-155 -295l-107 55l127 240h-305z" />
<glyph unicode="&#x2264;" horiz-adv-x="1363" d="M168 12v121h1028v-121h-1028zM168 606v133l1028 387v-133l-858 -321l858 -318v-133z" />
<glyph unicode="&#x2265;" horiz-adv-x="1363" d="M168 12v121h1028v-121h-1028zM168 221v133l860 318l-860 321v133l1028 -387v-133z" />
<glyph unicode="&#x25ca;" horiz-adv-x="1214" d="M195 729l346 801h129l350 -801l-350 -801h-129zM328 729l278 -666l281 666l-281 666z" />
<glyph unicode="&#x25fc;" horiz-adv-x="962" d="M0 0v963h963v-963h-963z" />
<glyph unicode="&#xf8ff;" horiz-adv-x="1048" d="M0 0v1470h1049v-1470h-1049zM102 102h844v1264h-844v-1264zM254 967q14 147 90 213.5t186 66.5q111 0 182.5 -72.5t71.5 -195.5q0 -66 -25.5 -120t-103.5 -126q-76 -68 -88 -106q-12 -41 -12 -148h-94l-4 35q0 115 26 166q14 27 37 56.5t58 64.5q33 31 53 54.5t30.5 43 t14.5 36.5t4 36q0 74 -46 124t-110 50q-63 0 -109 -45t-59 -150zM455 240v137h114v-137h-114z" />
<glyph unicode="&#xfb01;" horiz-adv-x="1099" d="M145 836l19 122h203l36 263q27 190 126.5 271t244.5 81q29 0 57.5 -4t57.5 -10l-41 -123q-25 6 -50.5 10t-52.5 4q-55 0 -93 -18.5t-60.5 -52t-35.5 -79t-19 -96.5l-35 -246h227l-18 -122h-228l-116 -836h-136l117 836h-203zM786 0l136 958h135l-135 -958h-136zM942 1327 q6 43 41 70.5t72 27.5t63.5 -27.5t20.5 -70.5t-41 -70.5t-72 -27.5t-63.5 27.5t-20.5 70.5z" />
<glyph unicode="&#xfb02;" horiz-adv-x="1099" d="M145 836l19 122h203l36 263q27 190 126.5 271t244.5 81q29 0 57.5 -4t57.5 -10l-41 -123q-25 6 -50.5 10t-52.5 4q-55 0 -93 -18.5t-60.5 -52t-35.5 -79t-19 -96.5l-35 -246h227l-18 -122h-228l-116 -836h-136l117 836h-203zM786 0l218 1548h135l-217 -1548h-136z" />
</font>
</defs>
</svg>
