<?xml version="1.0" standalone="no"?>
<!DOCTYPE svg PUBLIC "-//W3C//DTD SVG 1.1//EN" "http://www.w3.org/Graphics/SVG/1.1/DTD/svg11.dtd" >
<svg xmlns="http://www.w3.org/2000/svg">
<metadata></metadata>
<defs>
<font id="dhbook" horiz-adv-x="1138" >
<font-face units-per-em="2048" ascent="1638" descent="-410" />
<missing-glyph horiz-adv-x="569" />
<glyph horiz-adv-x="0" />
<glyph unicode="&#xd;" horiz-adv-x="681" />
<glyph unicode=" "  horiz-adv-x="569" />
<glyph unicode="&#x09;" horiz-adv-x="569" />
<glyph unicode="&#xa0;" horiz-adv-x="569" />
<glyph unicode="!" horiz-adv-x="569" d="M174 98q0 43 31 77t80 34t79.5 -34t30.5 -77t-30.5 -76.5t-79.5 -33.5t-80 33.5t-31 76.5zM211 393v1057h147v-1057h-147z" />
<glyph unicode="&#x22;" horiz-adv-x="1062" d="M322 969v481h122v-481h-122zM618 969v481h123v-481h-123z" />
<glyph unicode="#" d="M72 438v123h225l45 332h-221v123h239l60 434h125l-60 -434h273l59 434h125l-59 -434h184v-123h-203l-45 -332h195v-123h-211l-62 -438h-125l62 438h-272l-62 -438h-125l62 438h-209zM422 561h272l45 332h-272z" />
<glyph unicode="$" d="M88 188l123 88q33 -43 74 -75.5t82 -55t80.5 -34t72.5 -11.5v572q-70 20 -140.5 52t-126.5 79t-92 114.5t-36 161.5q0 88 34 160t89 123t125.5 81t146.5 36v143h98v-139q74 0 131.5 -14.5t102.5 -39t81 -56.5t64 -64l-114 -99q-43 72 -117 106t-148 32v-547 q76 -27 150 -60.5t133.5 -84t96 -121t36.5 -170.5q0 -86 -31.5 -157t-88 -122t-132 -82t-164.5 -37v-139h-98v135q-143 8 -256.5 72.5t-175.5 152.5zM272 1083q0 -53 19.5 -92t53.5 -68.5t79 -52t96 -41.5v517q-55 -4 -100 -26t-78 -56.5t-51.5 -80.5t-18.5 -100zM618 102 q39 0 86.5 12.5t87 43t67.5 81t28 126.5q2 104 -75 172.5t-194 105.5v-541z" />
<glyph unicode="%" horiz-adv-x="1705" d="M78 1116q0 76 27.5 141.5t76.5 113.5t114.5 76t141.5 28t141.5 -28t114.5 -76t77 -113.5t28 -141.5t-28 -141.5t-77 -113.5t-114.5 -75.5t-141.5 -27.5t-141.5 27.5t-114.5 75.5t-76.5 113.5t-27.5 141.5zM201 1116q0 -51 19.5 -94t51 -75t74.5 -49t92 -17t92 17t75 49 t51.5 75t19.5 94t-19.5 94t-51.5 75t-75 49.5t-92 17.5t-92 -17.5t-74.5 -49.5t-51 -75t-19.5 -94zM338 -8l924 1521l104 -55l-922 -1521zM907 334q0 76 28 141.5t77 113.5t114.5 75.5t141.5 27.5t141.5 -27.5t114.5 -75.5t76.5 -113.5t27.5 -141.5t-27.5 -141.5 t-76.5 -113.5t-115 -76t-141 -28q-76 0 -141.5 28t-114.5 76t-77 113.5t-28 141.5zM1030 334q0 -51 19.5 -94t51.5 -75t75 -49.5t92 -17.5t92 17.5t74.5 49.5t51 75t19.5 94t-19.5 94t-51 75t-74.5 49t-92 17t-92 -17t-75 -49t-51.5 -75t-19.5 -94z" />
<glyph unicode="&#x26;" horiz-adv-x="1441" d="M98 377q0 80 27 145.5t73 117.5t105 93t125 72q-66 70 -118 154.5t-52 185.5q0 82 27.5 145.5t77 107.5t115 66.5t143.5 22.5q72 0 135 -21.5t111 -62.5t76 -101.5t28 -140.5q0 -72 -29 -128t-75 -102t-103 -82t-113 -65l334 -344l199 344h166l-267 -448l326 -336h-209 l-205 213q-90 -117 -192.5 -183.5t-249.5 -66.5q-90 0 -173 27.5t-145.5 81t-99.5 130.5t-37 175zM258 375q0 -61 24.5 -112.5t65.5 -87.5t94.5 -56.5t112.5 -20.5t107.5 16.5t90.5 45t78.5 67.5t71.5 84l-383 402q-72 -41 -122 -77t-80.5 -76t-45 -85t-14.5 -100zM406 1139 q0 -37 17 -77t40.5 -75t49.5 -64.5t44 -43.5q41 25 88 50t87 58t65.5 76t25.5 98q0 86 -58 138.5t-142 52.5q-92 0 -154.5 -57.5t-62.5 -155.5z" />
<glyph unicode="'" horiz-adv-x="532" d="M205 969v481h123v-481h-123z" />
<glyph unicode="(" horiz-adv-x="532" d="M111 590q0 238 74.5 477.5t222.5 439.5l108 -69q-66 -104 -116 -202.5t-84.5 -200t-52 -210t-17.5 -235.5t17.5 -233.5t50 -205t81.5 -194.5t113 -203l-109 -82q-137 193 -212.5 430.5t-75.5 487.5z" />
<glyph unicode=")" horiz-adv-x="532" d="M16 -258q66 104 116 202.5t85 200t52.5 210t17.5 235.5t-17.5 233.5t-50.5 204.5t-82 194.5t-112 202.5l108 82q137 -193 213 -430t76 -487q0 -238 -75 -477.5t-222 -440.5z" />
<glyph unicode="*" horiz-adv-x="909" d="M63 1135l43 114l287 -92v293h123v-293l287 92l43 -114l-289 -93l184 -247l-98 -74l-188 254l-189 -254l-98 74l184 247z" />
<glyph unicode="+" horiz-adv-x="1363" d="M160 559v123h461v461h122v-461h461v-123h-461v-461h-122v461h-461z" />
<glyph unicode="," horiz-adv-x="569" d="M133 -287l137 482h166l-166 -482h-137z" />
<glyph unicode="-" horiz-adv-x="681" d="M78 424v135h526v-135h-526z" />
<glyph unicode="." horiz-adv-x="569" d="M174 98q0 43 31 77t80 34t79.5 -34t30.5 -77t-30.5 -76.5t-79.5 -33.5t-80 33.5t-31 76.5z" />
<glyph unicode="/" horiz-adv-x="757" d="M10 2l621 1485l117 -41l-619 -1483z" />
<glyph unicode="0" d="M78 725q0 121 18.5 253t71.5 242.5t149 182.5t252 72t252.5 -72t149.5 -182.5t71.5 -242.5t18.5 -253t-18.5 -253t-71.5 -242.5t-149.5 -182.5t-252.5 -72t-252 72t-149 182.5t-71.5 242.5t-18.5 253zM225 725q0 -86 9.5 -192.5t44 -200.5t103.5 -157.5t187 -63.5 q119 0 187.5 63.5t103.5 157.5t44 200.5t9 192.5t-9 192.5t-44 200.5t-103.5 157.5t-187.5 63.5t-187.5 -63.5t-103 -157.5t-44 -200.5t-9.5 -192.5z" />
<glyph unicode="1" d="M213 1147l369 303h131v-1450h-148v1266l-260 -230z" />
<glyph unicode="2" d="M98 0v170l578 588q33 33 65.5 69.5t59 77.5t43 86t16.5 94q0 59 -21.5 106.5t-60.5 80.5t-90 50t-108 17q-111 0 -189 -61t-100 -166l-156 16q31 162 148.5 254.5t285.5 92.5q88 0 167 -24t139.5 -71t96.5 -117.5t36 -164.5q0 -84 -26 -154t-67 -131t-93 -116.5 t-107 -108.5l-457 -453h762v-135h-922z" />
<glyph unicode="3" d="M78 268l155 47q37 -104 110 -154t204 -50q61 0 116.5 20.5t97.5 58t65.5 91t23.5 116.5q0 82 -31 138.5t-82 91.5t-117.5 50t-138.5 15h-63v135h76q63 0 121.5 14.5t101.5 46.5t68.5 83t25.5 123q0 117 -70.5 181t-197.5 64q-92 0 -162 -41t-115 -118l-129 65 q66 117 167.5 173.5t234.5 56.5q86 0 161.5 -25t133 -73t91 -118.5t33.5 -160.5q0 -59 -19 -112.5t-53 -96.5t-79 -75t-94 -48l6 -4q61 -12 112.5 -46t88 -83t57 -110.5t20.5 -129.5q0 -100 -36.5 -178t-100 -131t-147.5 -81t-178 -28q-160 0 -279 70t-178 223z" />
<glyph unicode="4" d="M78 344v168l586 938h188v-971h209v-135h-209v-344h-147v344h-627zM201 479h504v824h-5z" />
<glyph unicode="5" d="M98 233l146 64q41 -86 114.5 -136t169.5 -50q70 0 129.5 25.5t103.5 68.5t69.5 102.5t25.5 126.5q0 76 -26.5 139.5t-73.5 109.5t-112.5 70.5t-143.5 24.5t-155 -21.5t-146 -58.5l14 752h739v-135h-594l-8 -436q47 18 96.5 26t98.5 8q102 0 186 -34.5t144.5 -97 t94.5 -147.5t34 -185q0 -104 -37 -191.5t-102.5 -150t-154.5 -97.5t-194 -35q-137 0 -247.5 65.5t-170.5 192.5z" />
<glyph unicode="6" d="M98 424q0 121 36 211t89 178l391 637h174l-395 -623l4 -4q35 25 93.5 37t107.5 12q94 0 175 -33.5t140.5 -93t93 -141.5t33.5 -180q0 -100 -34.5 -182t-98 -141.5t-149.5 -92.5t-189 -33q-102 0 -188 33t-149.5 92.5t-98.5 141.5t-35 182zM246 424q0 -70 23.5 -127 t66.5 -99t102.5 -64.5t130.5 -22.5q72 0 131.5 22.5t102.5 64.5t66.5 99t23.5 127t-23.5 127t-66.5 98t-102.5 64.5t-131.5 23.5t-131 -23.5t-102 -64.5t-66.5 -98t-23.5 -127z" />
<glyph unicode="7" d="M111 1315v135h860v-135l-584 -1315h-166l596 1315h-706z" />
<glyph unicode="8" d="M111 387q0 143 73.5 245.5t196.5 135.5v4q-47 16 -87 48t-68.5 75t-45 94t-16.5 107q0 86 32.5 156.5t88 119.5t129 76t155.5 27t156 -27t129 -76t88 -119.5t33 -156.5q0 -55 -16.5 -106.5t-45 -94.5t-68.5 -75t-87 -48v-4q123 -33 196.5 -135.5t73.5 -245.5 q0 -94 -38 -170t-100.5 -130t-145 -83t-175.5 -29q-92 0 -175 29t-145.5 83t-100 130t-37.5 170zM258 408q0 -63 22.5 -117.5t62.5 -94.5t97.5 -62.5t128.5 -22.5q70 0 128.5 22.5t98.5 62.5t62.5 94.5t22.5 117.5t-22.5 117.5t-62.5 94t-98.5 62.5t-128.5 23 q-72 0 -129 -23t-97 -62.5t-62.5 -94t-22.5 -117.5zM311 1083q0 -55 19.5 -102t54.5 -81t82 -53.5t102 -19.5t102.5 19.5t82 53.5t54 81t19.5 102t-19.5 102.5t-54 81t-81.5 53t-103 19.5q-55 0 -102 -19.5t-82 -53t-54.5 -80.5t-19.5 -103z" />
<glyph unicode="9" d="M98 1026q0 100 35 182t98.5 141.5t149.5 92.5t188 33t188.5 -33t150 -92.5t98 -141.5t34.5 -182q0 -121 -35.5 -211t-89.5 -178l-391 -637h-174l395 623l-4 4q-35 -25 -93 -37t-107 -12q-94 0 -175 33.5t-140.5 93t-93.5 141.5t-34 180zM246 1026q0 -70 23.5 -127 t66.5 -99t102.5 -64.5t130.5 -22.5q72 0 131.5 22.5t102.5 64.5t66.5 99t23.5 127t-23.5 127t-66.5 98t-102.5 64.5t-131.5 23.5t-131 -23.5t-102 -64.5t-66.5 -98t-23.5 -127z" />
<glyph unicode=":" horiz-adv-x="569" d="M174 98q0 43 31 77t80 34t79.5 -34t30.5 -77t-30.5 -76.5t-79.5 -33.5t-80 33.5t-31 76.5zM174 858q0 43 31 77t80 34t79.5 -34t30.5 -77t-30.5 -76.5t-79.5 -33.5t-80 33.5t-31 76.5z" />
<glyph unicode=";" horiz-adv-x="569" d="M133 -287l137 482h166l-166 -482h-137zM193 858q0 43 30.5 77t79.5 34t80 -34t31 -77t-31 -76.5t-80 -33.5t-79.5 33.5t-30.5 76.5z" />
<glyph unicode="&#x3c;" horiz-adv-x="1363" d="M160 573v95l1044 487v-123l-878 -411l878 -412v-123z" />
<glyph unicode="=" horiz-adv-x="1363" d="M160 406v122h1044v-122h-1044zM160 713v123h1044v-123h-1044z" />
<glyph unicode="&#x3e;" horiz-adv-x="1363" d="M160 86v123l878 412l-878 411v123l1044 -487v-95z" />
<glyph unicode="?" horiz-adv-x="987" d="M96 1135q12 80 48 143t90.5 107.5t124 67t149.5 22.5q82 0 153.5 -24t124 -69t82 -112.5t29.5 -153.5t-24.5 -145.5t-61.5 -103.5t-80 -78.5t-80 -74.5t-61.5 -91.5t-24.5 -124.5v-105h-147v170q0 55 25.5 101.5t62.5 86.5t80 76.5t78.5 78.5t60.5 89t25 109 q0 104 -67 169.5t-173 65.5q-104 0 -173 -61t-87 -162zM393 98q0 43 31 77t80 34t79.5 -34t30.5 -77t-30.5 -76.5t-79.5 -33.5t-80 33.5t-31 76.5z" />
<glyph unicode="@" horiz-adv-x="1638" d="M88 725q0 160 60.5 299t165 242.5t243.5 162t297 58.5q141 0 268 -46t222.5 -130t150.5 -200t55 -253q0 -133 -48 -239.5t-118.5 -182.5t-152.5 -115.5t-152 -39.5q-61 0 -98 28.5t-45 91.5h-4q-47 -49 -106.5 -84.5t-149.5 -35.5q-131 0 -211 85t-80 222q0 106 34 209.5 t97.5 185.5t151.5 132t196 50q76 0 138.5 -36.5t95.5 -131.5h4l45 129h115l-172 -577q-8 -27 -13.5 -54.5t-5.5 -50.5q0 -16 12.5 -28.5t34.5 -12.5q53 0 108.5 38t99.5 100.5t72.5 142.5t28.5 166q0 117 -49 213t-130 165.5t-184 108.5t-210 39q-133 0 -250 -54 t-204 -144.5t-138 -208t-51 -244.5t51 -245t138 -208t204 -144t250 -54q154 0 294 65.5t224 182.5h129q-49 -84 -118.5 -151t-153.5 -113t-179.5 -70.5t-195.5 -24.5q-158 0 -297 58.5t-243.5 162t-165 242.5t-60.5 299zM520 600q0 -86 54.5 -141.5t138.5 -55.5 q68 0 125 44.5t100 110t67.5 141.5t24.5 139q0 43 -14.5 80.5t-37 65.5t-52 43t-62.5 15q-74 -4 -137 -46t-109.5 -106.5t-72 -141t-25.5 -148.5z" />
<glyph unicode="A" horiz-adv-x="1404" d="M0 0l631 1450h143l631 -1450h-172l-160 381h-741l-160 -381h-172zM387 516h629l-314 762z" />
<glyph unicode="B" horiz-adv-x="1290" d="M197 0v1450h432q90 0 174 -18.5t149.5 -61.5t104.5 -112.5t39 -172.5q0 -119 -66.5 -203.5t-189.5 -113.5v-4q154 -12 240.5 -107.5t86.5 -255.5q0 -35 -17 -102.5t-72.5 -134t-160 -115.5t-278.5 -49h-442zM344 135h283q80 0 149.5 16.5t120.5 50.5t81 85t30 123 q0 143 -92.5 212.5t-270.5 69.5h-301v-557zM344 815h297q53 0 105.5 13.5t94.5 44t68.5 78.5t26.5 118q0 23 -9 64t-41 81.5t-93.5 70.5t-165.5 30h-283v-500z" />
<glyph unicode="C" horiz-adv-x="1441" d="M98 725q0 166 57.5 305t159 240.5t239.5 159t300 57.5q135 0 270.5 -53.5t231.5 -176.5l-129 -96q-23 35 -62 70t-89 61.5t-107.5 43t-114.5 16.5q-139 0 -249.5 -51.5t-187.5 -137.5t-118 -199.5t-41 -238.5t41 -238.5t118 -199.5t187.5 -137.5t249.5 -51.5 q57 0 113.5 10.5t111 35t102.5 66.5t89 105l121 -86q-37 -55 -91.5 -104t-124 -85t-150.5 -56.5t-171 -20.5q-162 0 -300 57.5t-239.5 159t-159 240.5t-57.5 305z" />
<glyph unicode="D" horiz-adv-x="1517" d="M176 0v1450h481q135 0 271.5 -45t246 -136t177 -227.5t67.5 -316.5q0 -182 -67.5 -317.5t-177 -226.5t-245.5 -136t-272 -45h-481zM324 135h286q166 0 288 50.5t203 133t120 188t39 218.5t-39 218.5t-120 188t-203 133t-288 50.5h-286v-1180z" />
<glyph unicode="E" horiz-adv-x="1214" d="M197 0v1450h899v-135h-752v-494h703v-135h-703v-551h776v-135h-923z" />
<glyph unicode="F" d="M197 0v1450h874v-135h-727v-494h676v-135h-676v-686h-147z" />
<glyph unicode="G" horiz-adv-x="1593" d="M98 725q0 166 57.5 305t159 240.5t239.5 159t300 57.5q174 0 300 -48t224 -147l-110 -108q-74 78 -176.5 123t-237.5 45q-139 0 -249.5 -51.5t-187.5 -137.5t-118 -199.5t-41 -238.5t41 -238.5t118 -199.5t187.5 -137.5t249.5 -51.5q113 0 216.5 28t184.5 75v485h-346 v135h494v-710q-123 -72 -269.5 -110t-279.5 -38q-162 0 -300 57.5t-239.5 159t-159 240.5t-57.5 305z" />
<glyph unicode="H" horiz-adv-x="1478" d="M197 0v1450h147v-629h791v629h147v-1450h-147v686h-791v-686h-147z" />
<glyph unicode="I" horiz-adv-x="540" d="M197 0v1450h147v-1450h-147z" />
<glyph unicode="J" horiz-adv-x="987" d="M29 266l149 31q20 -92 75.5 -145.5t154.5 -53.5q80 0 130 32t77.5 82t38 114.5t10.5 132.5v991h147v-1053q0 -74 -19.5 -150.5t-67.5 -139t-126 -103.5t-195 -41q-150 0 -250 77t-124 226z" />
<glyph unicode="K" horiz-adv-x="1290" d="M197 0v1450h147v-629h2h19l682 629h210l-731 -657l772 -793h-217l-712 748h-23h-2v-748h-147z" />
<glyph unicode="L" horiz-adv-x="1024" d="M197 0v1450h147v-1315h676v-135h-823z" />
<glyph unicode="M" horiz-adv-x="1822" d="M197 0v1450h225l489 -1180l490 1180h225v-1450h-147v1253h-4l-525 -1253h-78l-524 1253h-4v-1253h-147z" />
<glyph unicode="N" horiz-adv-x="1593" d="M197 0v1450h184l864 -1229h4v1229h148v-1450h-185l-864 1241h-4v-1241h-147z" />
<glyph unicode="O" horiz-adv-x="1708" d="M98 725q0 166 57.5 305t159 240.5t239.5 159t300 57.5t300 -57.5t239.5 -159t159 -240.5t57.5 -305t-57.5 -305t-159 -240.5t-239.5 -159t-300 -57.5t-300 57.5t-239.5 159t-159 240.5t-57.5 305zM258 725q0 -125 41 -238.5t118 -199.5t187.5 -137.5t249.5 -51.5 t249.5 51.5t187.5 137.5t118 199.5t41 238.5t-41 238.5t-118 199.5t-187.5 137.5t-249.5 51.5t-249.5 -51.5t-187.5 -137.5t-118 -199.5t-41 -238.5z" />
<glyph unicode="P" horiz-adv-x="1175" d="M197 0v1450h421q221 0 349.5 -96.5t128.5 -290.5q0 -195 -128 -292t-350 -97h-274v-674h-147zM344 809h238q98 0 166.5 20.5t109.5 54.5t59.5 80t18.5 99q0 51 -18.5 97t-59.5 81t-109.5 54.5t-166.5 19.5h-238v-506z" />
<glyph unicode="Q" horiz-adv-x="1708" d="M98 743q0 162 55.5 298.5t154 235.5t232.5 154.5t291 55.5q156 0 290 -55.5t232.5 -154.5t154 -235.5t55.5 -298.5q0 -197 -81 -353.5t-259 -250.5v-4h438v-135h-830q-158 0 -291.5 55.5t-232 154.5t-154 235.5t-55.5 297.5zM258 743q0 -121 39 -230.5t112.5 -193 t180 -134t241.5 -50.5q133 0 240 50.5t180.5 134t112.5 193.5t39 230q0 121 -39 230.5t-112.5 193.5t-180 134.5t-240.5 50.5q-135 0 -241.5 -50.5t-180 -134.5t-112.5 -193.5t-39 -230.5z" />
<glyph unicode="R" horiz-adv-x="1214" d="M197 0v1450h446q221 0 349 -96.5t128 -290.5q0 -152 -95 -255t-275 -120l417 -688h-180l-397 674h-246v-674h-147zM344 809h262q98 0 167 20.5t110 54.5t59.5 80t18.5 99q0 51 -18.5 97t-59.5 81t-109.5 54.5t-167.5 19.5h-262v-506z" />
<glyph unicode="S" d="M102 178l134 96q47 -80 131 -128t198 -48q55 0 110.5 17.5t99.5 51.5t73 83t29 112q0 76 -32 126.5t-84 84t-119 56t-137.5 45t-137 51.5t-118.5 73t-84 110.5t-32 166.5q0 104 40 182t106.5 129.5t150.5 76t172 24.5q123 0 223.5 -39t186.5 -137l-129 -101 q-96 141 -281 142q-57 0 -112.5 -15.5t-99.5 -47.5t-70.5 -82t-26.5 -117q0 -98 55 -152.5t137 -89.5t179.5 -62.5t179.5 -73.5t137 -122t55 -207q0 -98 -42 -177t-110.5 -132.5t-153.5 -82t-171 -28.5q-133 0 -253 50t-204 165z" />
<glyph unicode="T" horiz-adv-x="1175" d="M29 1315v135h1118v-135h-485v-1315h-148v1315h-485z" />
<glyph unicode="U" horiz-adv-x="1404" d="M172 541v909h147v-893q0 -104 20.5 -179t54.5 -126t76 -81t84 -46t81 -21.5t67 -5.5q27 0 67 5.5t82 21.5t84 46t75.5 81t54 126t20.5 179v893h148v-909q0 -90 -21.5 -191.5t-81 -187.5t-163 -142.5t-265.5 -56.5q-164 0 -266 56.5t-161.5 142.5t-81 187.5t-21.5 191.5z " />
<glyph unicode="V" horiz-adv-x="1251" d="M-6 1450h164l460 -1229h5l475 1229h159l-565 -1450h-147z" />
<glyph unicode="W" horiz-adv-x="1933" d="M0 1450h164l348 -1241h4l365 1241h176l364 -1241h4l344 1241h164l-428 -1450h-172l-364 1241h-4l-365 -1241h-172z" />
<glyph unicode="X" horiz-adv-x="1290" d="M12 0l531 762l-490 688h199l395 -580l406 580h184l-492 -688l533 -762h-195l-442 657l-444 -657h-185z" />
<glyph unicode="Y" horiz-adv-x="1175" d="M-29 1450h185l432 -684l432 684h184l-542 -825v-625h-148v625z" />
<glyph unicode="Z" d="M47 0v123l848 1192h-836v135h1020v-123l-846 -1192h859v-135h-1045z" />
<glyph unicode="[" horiz-adv-x="532" d="M133 -319v1818h332v-110h-197v-1598h197v-110h-332z" />
<glyph unicode="\" horiz-adv-x="757" d="M10 1446l117 41l621 -1485l-119 -39z" />
<glyph unicode="]" horiz-adv-x="532" d="M68 -209h196v1598h-196v110h331v-1818h-331v110z" />
<glyph unicode="^" horiz-adv-x="1363" d="M164 563l469 887h98l469 -887h-127l-391 740l-391 -740h-127z" />
<glyph unicode="_" horiz-adv-x="1024" d="M0 -154h1024v-102h-1024v102z" />
<glyph unicode="`" horiz-adv-x="491" d="M-20 1450h186l205 -295h-121z" />
<glyph unicode="a" horiz-adv-x="1062" d="M98 256q0 117 60.5 183.5t151.5 99t194.5 41t189.5 8.5h68v24q0 248 -246 248q-168 0 -293 -112l-82 96q135 139 406 139q70 0 134 -20.5t111.5 -62.5t76 -105.5t28.5 -151.5v-428q0 -55 5 -115.5t11 -99.5h-131q-6 35 -9 76t-3 80h-4q-59 -96 -140 -138.5t-198 -42.5 q-63 0 -122.5 17.5t-105.5 53.5t-74 88t-28 122zM246 274q0 -47 19.5 -80.5t52 -55t72.5 -31t81 -9.5q74 0 128 24.5t91 66.5t54.5 98.5t17.5 120.5v69h-70q-51 0 -128 -5t-147.5 -24.5t-120.5 -60.5t-50 -113z" />
<glyph unicode="b" horiz-adv-x="1251" d="M147 0v1548h136v-749h4q33 49 78 84t94 57.5t101 32.5t99 10q113 0 206 -38t161 -105.5t105.5 -159.5t37.5 -201t-37.5 -201t-105.5 -159.5t-161 -105.5t-206 -38q-47 0 -99 10.5t-101 33t-94.5 57.5t-77.5 84h-4v-160h-136zM276 479q0 -80 29 -149.5t80 -120.5 t120.5 -81t153.5 -30t151 30t114 81t72.5 120.5t25.5 149.5t-25.5 149.5t-72.5 121t-114 81t-151 29.5t-153.5 -29.5t-120.5 -81t-80 -121t-29 -149.5z" />
<glyph unicode="c" horiz-adv-x="987" d="M98 479q0 109 35 202t101.5 160.5t160.5 105.5q89 36 199 36h12q98 -2 188.5 -42t161.5 -124l-110 -84q-35 53 -97.5 90t-142.5 37h-11q-77 0 -139 -26q-66 -28 -113.5 -80t-72 -122.5t-24.5 -152.5t24.5 -152.5t71.5 -121.5q48 -51 114 -80q62 -27 139 -27h11 q80 0 142.5 37t97.5 90l110 -84q-72 -84 -161.5 -124t-188.5 -42h-12q-110 0 -199 36q-94 38 -160.5 105.5t-101.5 161t-35 201.5z" />
<glyph unicode="d" horiz-adv-x="1251" d="M82 479q0 109 38 201t105.5 159.5t160.5 105.5t206 38q47 0 99 -10t101.5 -32.5t94.5 -57.5t78 -84h4v749h135v-1548h-135v160h-4q-33 -49 -78 -84t-94.5 -57.5t-101.5 -33t-99 -10.5q-113 0 -206 38t-160.5 105.5t-105.5 160t-38 200.5zM229 479q0 -80 26 -149.5 t73 -120.5t113.5 -81t150.5 -30q82 0 152.5 30t122 81t80 120.5t28.5 149.5t-28.5 149.5t-80 121t-122 81t-152.5 29.5q-84 0 -150.5 -29.5t-113.5 -81t-73 -121t-26 -149.5z" />
<glyph unicode="e" d="M98 479q0 109 37 201t102.5 159.5t153.5 105.5t191 38q109 0 194.5 -39t144 -103.5t89 -151.5t30.5 -185v-62h-798q6 -72 34.5 -135t75.5 -109t108.5 -73t133.5 -27q109 0 187.5 50.5t119.5 115.5l105 -86q-86 -109 -189.5 -156t-222.5 -47q-106 0 -197.5 38t-157 105.5 t-103.5 160t-38 200.5zM246 553h647q0 137 -82 222t-229 85q-66 0 -127.5 -25.5t-107.5 -68.5t-73.5 -98.5t-27.5 -114.5z" />
<glyph unicode="f" horiz-adv-x="606" d="M29 836v122h202v263q0 190 88.5 271t233.5 81q29 0 58.5 -4t58.5 -10l-25 -123q-25 6 -51.5 10t-52.5 4q-55 0 -90 -18.5t-53.5 -52t-24.5 -79t-6 -96.5v-246h227v-122h-227v-836h-136v836h-202z" />
<glyph unicode="g" horiz-adv-x="1251" d="M98 487q0 104 37 194.5t101.5 158t153.5 105.5t196 38q43 0 91 -8t96 -28.5t95 -56.5t88 -91h5v159h135v-950q0 -78 -19.5 -166t-76 -161.5t-157 -123t-261.5 -49.5q-143 0 -256 47.5t-205 145.5l100 106q59 -80 154.5 -128t212.5 -48q102 0 174 30t116 81t63.5 119.5 t19.5 146.5v172h-5q-66 -98 -160 -139t-198 -41t-195.5 37t-159 101.5t-106.5 154.5t-39 194zM246 492q0 -76 27.5 -142.5t75.5 -117t112.5 -80t140.5 -29.5q74 0 140.5 26.5t117.5 74.5t79 116q26 63 26 141v11q0 76 -25 142t-72 116.5t-114.5 80t-151.5 29.5 q-76 0 -140.5 -29.5t-112.5 -80t-75.5 -116.5t-27.5 -142z" />
<glyph unicode="h" d="M147 0v1548h136v-743h4q23 39 57.5 71.5t77.5 56t91 37t95 13.5q184 0 272.5 -97.5t88.5 -277.5v-608h-135v530q0 160 -55.5 245t-205.5 85q-10 0 -57 -8t-99 -45t-93 -110.5t-41 -204.5v-492h-136z" />
<glyph unicode="i" horiz-adv-x="491" d="M147 1327q0 43 31 70.5t68 27.5t67.5 -27.5t30.5 -70.5t-30.5 -70.5t-67.5 -27.5t-68 27.5t-31 70.5zM178 0v958h135v-958h-135z" />
<glyph unicode="j" horiz-adv-x="491" d="M-63 -471l18 117l6 -2q16 -4 35.5 -8.5t36.5 -4.5q49 0 78.5 18.5t44 48.5t18.5 64.5t4 69.5v1126h135v-1148q0 -20 -2 -70.5t-25.5 -102t-79.5 -90.5t-163 -39q-57 0 -106 21zM147 1327q0 43 31 70.5t68 27.5t67.5 -27.5t30.5 -70.5t-30.5 -70.5t-67.5 -27.5t-68 27.5 t-31 70.5z" />
<glyph unicode="k" horiz-adv-x="987" d="M147 0v1548h136v-1022l452 432h203l-477 -438l528 -520h-209l-497 504v-504h-136z" />
<glyph unicode="l" horiz-adv-x="491" d="M178 0v1548h135v-1548h-135z" />
<glyph unicode="m" horiz-adv-x="1744" d="M137 958h146v-145h4q49 84 136 127t173 43q39 0 83 -8t85 -29.5t77 -60.5t60 -101q41 92 130 145.5t186 53.5q184 0 272 -97.5t88 -277.5v-608h-135v559q0 145 -51.5 223t-190.5 78q-76 0 -127 -29.5t-83 -79t-46 -111.5t-14 -130v-510h-135v559q0 145 -51.5 223 t-190.5 78q-12 0 -56 -8t-91.5 -45t-85 -110.5t-37.5 -204.5v-492h-136v745q0 53 -3 106.5t-7 106.5z" />
<glyph unicode="n" d="M137 958h139q4 -39 5.5 -76.5t1.5 -76.5h4q23 39 57.5 71.5t77.5 56t91 37t95 13.5q184 0 272.5 -97.5t88.5 -277.5v-608h-135v530q0 160 -55.5 245t-205.5 85q-10 0 -57 -8t-99 -45t-93 -110.5t-41 -204.5v-492h-136v748q0 39 -3 98t-7 112z" />
<glyph unicode="o" horiz-adv-x="1214" d="M98 479q0 109 38 201t105.5 159.5t161 105.5t203.5 38q113 0 206 -38t160.5 -105.5t105.5 -159.5t38 -201t-38 -201t-105.5 -159.5t-160.5 -105.5t-206 -38q-111 0 -204 38t-160.5 105.5t-105.5 160t-38 200.5zM246 479q0 -80 25.5 -149.5t71.5 -120.5t112.5 -81 t150.5 -30t150.5 30t114 81t73 120.5t25.5 149.5t-25.5 149.5t-73 121t-114 81t-150.5 29.5t-150.5 -29.5t-112.5 -81t-71.5 -121t-25.5 -149.5z" />
<glyph unicode="p" horiz-adv-x="1251" d="M147 -590v1548h136v-159h4q33 49 78 84t94 57.5t101 32.5t99 10q113 0 206 -38t161 -105.5t105.5 -159.5t37.5 -201t-37.5 -201t-105.5 -159.5t-161 -105.5t-206 -38q-47 0 -99 10.5t-101 33t-94.5 57.5t-77.5 84h-4v-750h-136zM276 479q0 -80 29 -149.5t80 -120.5 t120.5 -81t153.5 -30t151 30t114 81t72.5 120.5t25.5 149.5t-25.5 149.5t-72.5 121t-114 81t-151 29.5t-153.5 -29.5t-120.5 -81t-80 -121t-29 -149.5z" />
<glyph unicode="q" horiz-adv-x="1251" d="M82 479q0 109 38 201t105.5 159.5t160.5 105.5t206 38q47 0 99 -10t101.5 -32.5t94.5 -57.5t78 -84h4v159h135v-1548h-135v750h-4q-33 -49 -78 -84t-94.5 -57.5t-101.5 -33t-99 -10.5q-113 0 -206 38t-160.5 105.5t-105.5 160t-38 200.5zM229 479q0 -80 26 -149.5 t73 -120.5t113.5 -81t150.5 -30q82 0 152.5 30t122 81t80 120.5t28.5 149.5t-28.5 149.5t-80 121t-122 81t-152.5 29.5q-84 0 -150.5 -29.5t-113.5 -81t-73 -121t-26 -149.5z" />
<glyph unicode="r" horiz-adv-x="679" d="M154 958h133v-178h4q14 39 40.5 75t64.5 64.5t88.5 46t113.5 17.5q57 0 100 -12l-26 -133q-27 10 -78 10q-78 0 -133 -30t-92 -76t-54.5 -99t-17.5 -102v-541h-135v659q0 63 -3 129t-5 170z" />
<glyph unicode="s" horiz-adv-x="872" d="M68 162l116 80q41 -66 103.5 -105t148.5 -39q41 0 82 9.5t73 29t51.5 50t19.5 71.5q0 72 -53.5 103.5t-129.5 50.5l-131 30q-25 6 -66.5 20.5t-81.5 43.5t-69 75t-29 113q0 74 30 129.5t80 90t113.5 52t131.5 17.5q100 0 186 -39t133 -133l-121 -80q-31 59 -82 94 t-124 35q-35 0 -71 -8t-64.5 -25.5t-46 -44t-17.5 -65.5q0 -68 47 -98.5t141 -53.5l137 -33q100 -23 167 -91t67 -171q0 -78 -32 -134t-84 -92t-119.5 -52.5t-137.5 -16.5q-111 0 -206 42t-162 145z" />
<glyph unicode="t" horiz-adv-x="679" d="M29 836v122h202v271h136v-271h276v-122h-276v-566q0 -53 10 -86.5t28.5 -52t44 -26t56.5 -7.5q35 0 71.5 10.5t67.5 26.5l6 -125q-76 -35 -182 -35q-39 0 -81 10.5t-77 39t-57.5 78t-22.5 128.5v605h-202z" />
<glyph unicode="u" d="M147 350v608h136v-530q0 -80 12 -141.5t42 -103.5t80 -63.5t126 -21.5q10 0 57 8.5t99.5 45t93.5 110.5t41 205v491h135v-747q0 -39 3 -98.5t7 -112.5h-139q-4 39 -5 77t-1 77h-5q-23 -39 -57.5 -72t-77.5 -56.5t-91 -37t-95 -13.5q-184 0 -272.5 97.5t-88.5 277.5z" />
<glyph unicode="v" horiz-adv-x="987" d="M29 958h161l306 -806h4l305 806h153l-389 -958h-151z" />
<glyph unicode="w" horiz-adv-x="1478" d="M29 958h159l222 -778h4l256 778h139l256 -778h4l221 778h160l-303 -958h-152l-254 786h-4l-254 -786h-151z" />
<glyph unicode="x" horiz-adv-x="987" d="M0 0l395 512l-348 446h184l267 -358l254 358h168l-334 -446l401 -512h-184l-322 420l-309 -420h-172z" />
<glyph unicode="y" horiz-adv-x="987" d="M33 958h170l301 -792l293 792h164l-480 -1208q-43 -111 -109.5 -176.5t-191.5 -65.5q-31 0 -62.5 2.5t-62.5 12.5l15 131q43 -23 102 -23q72 0 113 45t71 127l70 185z" />
<glyph unicode="z" horiz-adv-x="872" d="M47 0v98l561 738h-532v122h729v-98l-561 -737h581v-123h-778z" />
<glyph unicode="{" horiz-adv-x="532" d="M25 528v123q70 0 126 59.5t56 168.5v364q0 72 18.5 121t49 79t70.5 43t83 13h131v-123h-115q-37 0 -58 -15t-30.5 -40t-11.5 -55.5t-2 -59.5v-352q0 -74 -21.5 -124t-51 -79.5t-60.5 -43t-49 -15.5v-4q18 -2 49 -15.5t60.5 -43t51 -80t21.5 -123.5v-353q0 -29 2 -59.5 t11.5 -55t31 -40t57.5 -15.5h115v-122h-131q-43 0 -83 13t-70.5 43t-49 79t-18.5 121v364q0 109 -56.5 168t-125.5 59z" />
<glyph unicode="|" horiz-adv-x="454" d="M166 -37v1585h123v-1585h-123z" />
<glyph unicode="}" horiz-adv-x="532" d="M-27 -197h115q37 0 58.5 15.5t30.5 40t11 55.5t2 59v353q0 74 21.5 124t51.5 79.5t60.5 43t49.5 15.5v4q-18 2 -49 15.5t-61 43t-51.5 79.5t-21.5 124v352q0 29 -2 59.5t-11 55.5t-30.5 40t-58.5 15h-115v123h131q43 0 83 -13t71 -43t49.5 -79t18.5 -121v-364 q0 -109 56 -168.5t126 -59.5v-123q-70 0 -126 -59t-56 -168v-364q0 -72 -18.5 -121t-49.5 -79t-71 -43t-83 -13h-131v122z" />
<glyph unicode="~" horiz-adv-x="1363" d="M182 569q23 33 50.5 67t61.5 61.5t76 45t91 17.5q33 0 55.5 -1t45 -7.5t49 -18.5t63.5 -33q51 -29 106.5 -62.5t112.5 -33.5q35 0 65.5 15.5t57 39t46 49t34.5 46.5l86 -82q-23 -33 -50.5 -67t-61.5 -61.5t-76 -45t-91 -17.5q-33 0 -55.5 1t-45 7.5t-49 18.5t-63.5 33 q-51 29 -106.5 62.5t-112.5 33.5q-35 0 -65.5 -15.5t-57 -39t-46 -49t-34.5 -46.5z" />
<glyph unicode="&#xa1;" horiz-adv-x="569" d="M174 885q0 43 31 76.5t80 33.5t79.5 -33.5t30.5 -76.5t-30.5 -77t-79.5 -34t-80 34t-31 77zM211 -467v1057h147v-1057h-147z" />
<glyph unicode="&#xa2;" d="M160 479q0 98 29.5 184.5t85 153t135 108.5t180.5 52v129h98v-125q92 -4 178 -45t152 -119l-111 -84q-31 49 -88 85t-131 40v-758q74 4 131.5 40t87.5 85l111 -84q-66 -78 -152 -118.5t-178 -45.5v-124h-98v129q-100 10 -180 52t-135.5 108.5t-85 152.5t-29.5 184z M307 479q0 -72 19.5 -135t56.5 -112.5t89 -82t118 -45.5v750q-66 -12 -118 -45t-89 -82t-56.5 -112.5t-19.5 -135.5z" />
<glyph unicode="&#xa3;" d="M172 0v123h209v563h-197v123h197v178q0 98 20.5 186.5t69.5 155t133 106.5t211 40q90 0 173 -29t145 -94l-97 -105q-41 47 -98 76t-129 29q-94 0 -149.5 -39t-85 -97.5t-38 -124t-8.5 -116.5v-166h344v-123h-344v-563h519v-123h-875z" />
<glyph unicode="&#xa4;" d="M63 305l109 109q-53 68 -82 146.5t-27 164.5q-2 86 27 165t82 146l-109 109l91 90l108 -109q68 53 146.5 81t160.5 28t161 -27.5t147 -81.5l108 109l90 -90l-108 -109q53 -68 81.5 -146.5t26.5 -164.5q2 -86 -26.5 -165t-81.5 -146l108 -109l-90 -90l-108 109 q-68 -53 -147 -81t-161 -28t-160.5 27.5t-146.5 81.5l-108 -109zM199 725q0 -80 28.5 -150.5t79.5 -123t119 -83t145 -30.5q76 0 143.5 30.5t118 83t79 123t28.5 150.5t-28.5 150.5t-79 123t-118 83t-143.5 30.5q-78 0 -145.5 -30.5t-118.5 -83t-79.5 -123t-28.5 -150.5z " />
<glyph unicode="&#xa5;" d="M-4 1450h174l399 -696l400 696h174l-418 -700h252v-111h-320l-14 -25v-157h334v-111h-334v-346h-147v346h-334v111h334v157l-15 25h-319v111h254z" />
<glyph unicode="&#xa6;" horiz-adv-x="454" d="M166 -37v619h123v-619h-123zM166 930v618h123v-618h-123z" />
<glyph unicode="&#xa7;" d="M127 -49l135 65q35 -96 109.5 -137t160.5 -41q41 0 83 10.5t77 35t56.5 64.5t21.5 99q0 63 -39 105.5t-104 74.5l-281 138q-80 39 -132 103t-52 163q0 102 60.5 167.5t152.5 106.5q-20 14 -48 33.5t-52.5 48.5t-41 69t-16.5 95q0 80 29.5 140.5t79 101.5t114 61.5 t135.5 20.5q137 0 229.5 -56.5t123.5 -136.5l-121 -61q-10 20 -27.5 42.5t-45 42t-64.5 33t-84 13.5q-72 0 -115 -22.5t-66.5 -53.5t-31.5 -61.5t-8 -47.5q0 -76 48 -117.5t117 -76.5l226 -115q86 -45 142 -111.5t56 -173.5q0 -94 -49 -159.5t-129 -108.5q78 -53 110 -110.5 t32 -145.5q0 -86 -32 -148.5t-86.5 -104.5t-124 -61.5t-143.5 -19.5q-137 0 -246.5 57.5t-158.5 178.5zM309 641q0 -43 21.5 -74.5t53.5 -55.5t68.5 -42t69.5 -33l135 -65q27 10 53.5 28.5t48 42t35 52t13.5 59.5q0 45 -17.5 79t-45 60.5t-62.5 46t-70 35.5l-116 53l-35 -14 q-59 -25 -105.5 -65.5t-46.5 -106.5z" />
<glyph unicode="&#xa8;" horiz-adv-x="491" d="M-55 1325q0 41 28.5 73t75.5 32t76 -32t29 -73t-29 -72.5t-76 -31.5t-75.5 31.5t-28.5 72.5zM338 1325q0 41 28.5 73t75.5 32t76 -32t29 -73t-29 -72.5t-76 -31.5t-75.5 31.5t-28.5 72.5z" />
<glyph unicode="&#xa9;" horiz-adv-x="1638" d="M51 721q0 164 61.5 304t166 242.5t244 161t296.5 58.5q156 0 296 -58.5t244.5 -160t166 -239.5t61.5 -300q0 -164 -61.5 -304t-166 -242.5t-244.5 -161t-296 -58.5q-158 0 -297 58.5t-243.5 160t-166 239.5t-61.5 300zM174 721q0 -137 50 -255t138.5 -205t205 -137 t251.5 -50t252 50t205 138t138 208t50 259q0 137 -50 256t-138 206t-205 136t-252 49t-251.5 -50t-205 -137t-138.5 -207t-50 -261zM393 725q0 100 31 186t89 147.5t142 96.5t189 35q74 0 139.5 -19.5t116.5 -58.5t86 -97.5t45 -135.5h-115q-16 86 -90 143t-180 57 q-78 0 -139.5 -27.5t-103.5 -74.5t-64.5 -110.5t-22.5 -137.5q0 -72 23.5 -136.5t67.5 -114.5t105.5 -79.5t137.5 -29.5q106 0 178 60t88 149h117q-35 -147 -138.5 -233.5t-244.5 -86.5q-104 0 -188 36t-143.5 98.5t-92.5 147.5t-33 185z" />
<glyph unicode="&#xaa;" horiz-adv-x="690" d="M63 1038q0 47 18.5 85t59.5 64.5t109.5 41t171.5 14.5h45v17q0 117 -131 116q-55 0 -100.5 -16.5t-81.5 -44.5l-66 76q53 51 115.5 67.5t128.5 16.5q76 0 126 -19.5t79.5 -47.5t41 -60.5t11.5 -57.5v-280q0 -35 3 -69t7 -60h-111l-6 73h-2q-29 -41 -79.5 -63.5 t-122.5 -22.5q-41 0 -80 10.5t-69 32t-48.5 53t-18.5 74.5zM186 1044q0 -41 38 -59t83 -18q53 0 85 17t48.5 44t21.5 58.5t5 58.5h-27q-27 0 -69.5 -2t-83.5 -11.5t-71 -30t-30 -57.5z" />
<glyph unicode="&#xab;" horiz-adv-x="987" d="M106 492l287 428l96 -68l-235 -360l235 -361l-96 -68zM479 492l287 428l96 -68l-235 -360l235 -361l-96 -68z" />
<glyph unicode="&#xac;" horiz-adv-x="1363" d="M160 713v123h1044v-570h-123v447h-921z" />
<glyph unicode="&#xad;" horiz-adv-x="681" d="M78 424v135h526v-135h-526z" />
<glyph unicode="&#xae;" horiz-adv-x="1638" d="M51 721q0 164 61.5 304t166 242.5t244 161t296.5 58.5q156 0 296 -58.5t244.5 -160t166 -239.5t61.5 -300q0 -164 -61.5 -304t-166 -242.5t-244.5 -161t-296 -58.5q-158 0 -297 58.5t-243.5 160t-166 239.5t-61.5 300zM174 721q0 -137 50 -255t138.5 -205t205 -137 t251.5 -50t252 50t205 138t138 208t50 259q0 137 -50 256t-138 206t-205 136t-252 49t-251.5 -50t-205 -137t-138.5 -207t-50 -261zM535 279v882h323q160 0 235.5 -60.5t75.5 -193.5q0 -119 -67.5 -174t-165.5 -65l254 -389h-133l-242 378h-158v-378h-122zM657 768h152 q45 0 88 3t77 17.5t53.5 43t19.5 81.5q0 45 -17.5 73t-46.5 42t-64.5 18.5t-70.5 4.5h-191v-283z" />
<glyph unicode="&#xaf;" horiz-adv-x="491" d="M-31 1229v110h553v-110h-553z" />
<glyph unicode="&#xb0;" horiz-adv-x="819" d="M104 1169q0 66 23 122.5t63.5 97.5t97 63.5t122.5 22.5t122 -22.5t97 -63.5t63.5 -97.5t22.5 -122.5t-22.5 -122t-63.5 -97t-97.5 -63.5t-121.5 -22.5q-66 0 -122.5 22.5t-97 63.5t-63.5 97.5t-23 121.5zM203 1169q0 -43 16.5 -80.5t44 -65.5t65.5 -44t81 -16t80.5 16 t65.5 44t44 65.5t16 80.5t-16 81t-44 65.5t-65.5 44t-80.5 16.5t-81 -16.5t-65.5 -44t-44 -65.5t-16.5 -81z" />
<glyph unicode="&#xb1;" horiz-adv-x="1363" d="M160 98v123h1044v-123h-1044zM160 711v123h461v319h122v-319h461v-123h-461v-310h-122v310h-461z" />
<glyph unicode="&#xb2;" horiz-adv-x="739" d="M70 592v117l350 335q41 41 80 89.5t39 107.5q0 25 -14.5 47.5t-36 40t-50 26.5t-55.5 9q-68 0 -116 -34t-64 -81l-115 19q20 100 99 153.5t190 53.5q57 0 108.5 -14.5t90 -42t62.5 -70.5t24 -99q0 -49 -16.5 -92t-43.5 -80t-61.5 -69.5t-69.5 -65.5l-266 -240h465v-110 h-600z" />
<glyph unicode="&#xb3;" horiz-adv-x="739" d="M70 756l106 61q25 -61 70 -94t131 -33q31 0 60.5 12.5t54 32t40 45t15.5 51.5q0 25 -9.5 52.5t-34 51t-67.5 39t-110 15.5h-60v111h49q84 0 144.5 33.5t60.5 103.5q0 55 -42 91t-105 36q-59 0 -97 -19.5t-79 -74.5l-97 67q53 78 119 108t152 30q55 0 104 -15.5t87 -44.5 t59.5 -70.5t21.5 -95.5q0 -72 -48 -126t-120 -76v-5q94 -16 144.5 -74.5t50.5 -138.5q0 -59 -23.5 -106t-65.5 -79t-96.5 -48t-115.5 -16q-104 0 -181 42t-118 134z" />
<glyph unicode="&#xb4;" horiz-adv-x="491" d="M121 1155l205 295h186l-270 -295h-121z" />
<glyph unicode="&#xb5;" d="M147 -467v1425h136v-530q0 -176 56 -253t204 -77q61 0 114.5 24.5t92 72t61.5 116t23 156.5v491h135v-747q0 -53 3 -105.5t7 -105.5h-145v156h-5q-23 -37 -57.5 -70t-77.5 -57.5t-91 -39t-95 -14.5q-141 0 -225 60v-502h-136z" />
<glyph unicode="&#xb6;" horiz-adv-x="1228" d="M98 1028q0 201 125 311.5t342 110.5h486v-1708h-136v1597h-253v-1597h-136v905q-94 0 -173 30t-135 81t-88 120.5t-32 149.5z" />
<glyph unicode="&#xb7;" horiz-adv-x="569" d="M174 643q0 43 31 77t80 34t79.5 -34t30.5 -77t-30.5 -77t-79.5 -34t-80 34t-31 77z" />
<glyph unicode="&#xb8;" horiz-adv-x="491" d="M29 -395l32 73q70 -37 152 -36q45 0 86 20.5t41 71.5q0 8 -4 22.5t-14.5 27.5t-31 22.5t-50.5 9.5q-29 0 -51.5 -6.5t-43.5 -16.5l-36 35l127 172h83l-92 -123l4 -2q16 6 34 10t40 4q61 0 109.5 -39.5t48.5 -113.5q0 -47 -21.5 -82t-55.5 -56.5t-76 -31.5t-83 -10 q-106 0 -198 49z" />
<glyph unicode="&#xb9;" horiz-adv-x="739" d="M111 1280l239 182h111v-870h-123v747l-168 -137z" />
<glyph unicode="&#xba;" horiz-adv-x="788" d="M63 1169q0 66 25 122.5t69 97.5t104.5 63.5t131.5 22.5q74 0 134.5 -22.5t104.5 -63.5t68.5 -97.5t24.5 -122.5t-24.5 -120t-68.5 -95t-104.5 -63.5t-134.5 -22.5q-72 0 -132 22.5t-104 63.5t-69 95.5t-25 119.5zM186 1169q0 -84 57.5 -143t149.5 -59q45 0 84 16t66.5 44 t43 64.5t15.5 77.5q0 43 -15.5 80t-43 65.5t-66.5 45t-84 16.5q-92 0 -149.5 -60.5t-57.5 -146.5z" />
<glyph unicode="&#xbb;" horiz-adv-x="987" d="M125 131l235 361l-235 360l96 68l287 -428l-287 -429zM498 131l235 361l-235 360l96 68l287 -428l-287 -429z" />
<glyph unicode="&#xbc;" horiz-adv-x="1708" d="M131 1280l240 182h110v-870h-123v747l-168 -137zM313 0l924 1516l104 -64l-921 -1518zM938 193v126l367 551h149v-567h123v-110h-123v-193h-123v193h-393zM1049 303h282v445h-4z" />
<glyph unicode="&#xbd;" horiz-adv-x="1708" d="M80 1280l239 182h111v-870h-123v747l-168 -137zM262 0l924 1516l104 -64l-921 -1518zM1028 0v117l350 336q41 41 80 89t39 107q0 25 -14.5 47.5t-36 40t-50 26.5t-55.5 9q-68 0 -115.5 -33.5t-64.5 -81.5l-114 19q20 100 99 153.5t189 53.5q57 0 108.5 -14.5t90.5 -42 t62.5 -70.5t23.5 -99q0 -49 -16.5 -92t-43 -79.5t-61.5 -69.5t-69 -66l-267 -239h465v-111h-600z" />
<glyph unicode="&#xbe;" horiz-adv-x="1708" d="M90 756l105 61q25 -61 69.5 -94t130.5 -33q31 0 60.5 12.5t54.5 32t40 45t15 51.5q0 25 -9 52.5t-33.5 51t-67.5 39t-111 15.5h-59v111h49q84 0 144.5 34.5t60.5 110.5q0 49 -42 84t-106 35q-59 0 -97 -19.5t-79 -74.5l-96 67q53 78 118.5 108t151.5 30q55 0 104.5 -15.5 t87 -44.5t59.5 -70.5t22 -95.5q0 -72 -48.5 -126t-119.5 -76v-5q94 -16 144 -74.5t50 -138.5q0 -59 -23.5 -106t-65.5 -79t-96 -48t-116 -16q-104 0 -181 42t-116 134zM395 0l924 1516l104 -64l-921 -1518zM979 193v126l367 551h149v-567h123v-110h-123v-193h-123v193h-393z M1090 303h282v445h-4z" />
<glyph unicode="&#xbf;" horiz-adv-x="987" d="M90 -133q0 86 24.5 145.5t61.5 103.5t80 78.5t80 74.5t61.5 90.5t24.5 125.5v105h147v-170q-2 -57 -26.5 -102.5t-61.5 -85t-80 -76.5t-78.5 -79t-60 -90t-24.5 -108q0 -104 66.5 -169.5t172.5 -65.5q104 0 173 61.5t87 161.5l154 -19q-12 -80 -48 -143t-90.5 -107 t-124 -67t-149.5 -23q-82 0 -153.5 24t-123.5 69t-82 112.5t-30 153.5zM373 885q0 43 30.5 76.5t79.5 33.5t80 -33.5t31 -76.5t-31 -77t-80 -34t-79.5 34t-30.5 77z" />
<glyph unicode="&#xc0;" horiz-adv-x="1404" d="M0 0l631 1450h143l631 -1450h-172l-160 381h-741l-160 -381h-172zM387 516h629l-314 762zM437 1808h186l205 -295h-121z" />
<glyph unicode="&#xc1;" horiz-adv-x="1404" d="M0 0l631 1450h143l631 -1450h-172l-160 381h-741l-160 -381h-172zM387 516h629l-314 762zM578 1513l205 295h186l-270 -295h-121z" />
<glyph unicode="&#xc2;" horiz-adv-x="1404" d="M0 0l631 1450h143l631 -1450h-172l-160 381h-741l-160 -381h-172zM387 516h629l-314 762zM398 1513l223 295h164l223 -295h-135l-170 221l-170 -221h-135z" />
<glyph unicode="&#xc3;" horiz-adv-x="1404" d="M0 0l631 1450h143l631 -1450h-172l-160 381h-741l-160 -381h-172zM371 1538q6 39 19.5 77.5t36 68.5t54 48.5t78.5 18.5q37 0 75 -14.5t75 -32.5q37 -16 71.5 -32t65.5 -16q47 0 68.5 32t31.5 71h89q-6 -41 -19.5 -79t-36 -67.5t-55.5 -48t-78 -18.5q-37 0 -75 15.5 t-74 31.5q-35 18 -70 32.5t-68 14.5q-47 0 -68.5 -31.5t-31.5 -70.5h-88zM387 516h629l-314 762z" />
<glyph unicode="&#xc4;" horiz-adv-x="1404" d="M0 0l631 1450h143l631 -1450h-172l-160 381h-741l-160 -381h-172zM387 516h629l-314 762zM402 1683q0 41 28.5 73t75.5 32t76 -32t29 -73t-29 -72.5t-76 -31.5t-75.5 31.5t-28.5 72.5zM795 1683q0 41 28.5 73t75.5 32t76 -32t29 -73t-29 -72.5t-76 -31.5t-75.5 31.5 t-28.5 72.5z" />
<glyph unicode="&#xc5;" horiz-adv-x="1404" d="M0 0l631 1450h143l631 -1450h-172l-160 381h-741l-160 -381h-172zM387 516h629l-314 762zM506 1689q0 41 15.5 77t43 61.5t62.5 41t76 15.5q39 0 74.5 -15.5t63.5 -41t43 -61.5t15 -77t-15 -76.5t-43 -62.5t-63.5 -41t-74.5 -14q-41 0 -76 14t-62.5 41t-43 62.5 t-15.5 76.5zM580 1689q0 -51 36 -86t87 -35t87 35t36 86t-36 86t-87 35t-87 -35t-36 -86z" />
<glyph unicode="&#xc6;" horiz-adv-x="1933" d="M0 0l944 1450h852v-135h-602v-494h565v-135h-565v-551h627v-135h-774v406h-611l-262 -406h-174zM522 541h525v774h-23z" />
<glyph unicode="&#xc7;" horiz-adv-x="1441" d="M98 725q0 166 57.5 305t159 240.5t239.5 159t300 57.5q135 0 270.5 -53.5t231.5 -176.5l-129 -96q-23 35 -62 70t-89 61.5t-107.5 43t-114.5 16.5q-139 0 -249.5 -51.5t-187.5 -137.5t-118 -199.5t-41 -238.5t41 -238.5t118 -199.5t187.5 -137.5t249.5 -51.5 q57 0 113.5 10.5t111 35t102.5 66.5t89 105l121 -86q-37 -55 -91.5 -104t-124 -85t-150.5 -56.5t-171 -20.5q-23 0 -45 2l-66 -88l5 -2q16 6 33.5 10t39.5 4q61 0 109.5 -39.5t48.5 -113.5q0 -47 -21.5 -82t-55.5 -56.5t-76 -31.5t-83 -10q-106 0 -198 49l33 73 q70 -37 151 -36q45 0 86 20.5t41 71.5q0 8 -4 22.5t-14.5 27.5t-31 22.5t-50.5 9.5q-29 0 -51.5 -6.5t-42.5 -16.5l-37 35l106 145q-92 12 -178 47q-137 57 -238.5 159t-159 241t-57.5 305z" />
<glyph unicode="&#xc8;" horiz-adv-x="1214" d="M197 0v1450h899v-135h-752v-494h703v-135h-703v-551h776v-135h-923zM342 1808h186l205 -295h-121z" />
<glyph unicode="&#xc9;" horiz-adv-x="1214" d="M197 0v1450h899v-135h-752v-494h703v-135h-703v-551h776v-135h-923zM483 1513l205 295h186l-270 -295h-121z" />
<glyph unicode="&#xca;" horiz-adv-x="1214" d="M197 0v1450h899v-135h-752v-494h703v-135h-703v-551h776v-135h-923zM303 1513l223 295h164l223 -295h-135l-170 221l-170 -221h-135z" />
<glyph unicode="&#xcb;" horiz-adv-x="1214" d="M197 0v1450h899v-135h-752v-494h703v-135h-703v-551h776v-135h-923zM307 1683q0 41 28.5 73t75.5 32t76 -32t29 -73t-29 -72.5t-76 -31.5t-75.5 31.5t-28.5 72.5zM700 1683q0 41 28.5 73t75.5 32t76 -32t29 -73t-29 -72.5t-76 -31.5t-75.5 31.5t-28.5 72.5z" />
<glyph unicode="&#xcc;" horiz-adv-x="540" d="M5 1808h186l205 -295h-121zM197 0v1450h147v-1450h-147z" />
<glyph unicode="&#xcd;" horiz-adv-x="540" d="M146 1513l205 295h186l-270 -295h-121zM197 0v1450h147v-1450h-147z" />
<glyph unicode="&#xce;" horiz-adv-x="540" d="M-34 1513l223 295h164l223 -295h-135l-170 221l-170 -221h-135zM197 0v1450h147v-1450h-147z" />
<glyph unicode="&#xcf;" horiz-adv-x="540" d="M-30 1683q0 41 28.5 73t75.5 32t76 -32t29 -73t-29 -72.5t-76 -31.5t-75.5 31.5t-28.5 72.5zM197 0v1450h147v-1450h-147zM363 1683q0 41 28.5 73t75.5 32t76 -32t29 -73t-29 -72.5t-76 -31.5t-75.5 31.5t-28.5 72.5z" />
<glyph unicode="&#xd0;" horiz-adv-x="1517" d="M27 711v110h149v629h481q135 0 271.5 -45t246 -136t177 -227.5t67.5 -316.5q0 -182 -67.5 -317.5t-177 -226.5t-245.5 -136t-272 -45h-481v711h-149zM324 135h286q166 0 288 50.5t203 133t120 188t39 218.5t-39 218.5t-120 188t-203 133t-288 50.5h-286v-494h528v-110 h-528v-576z" />
<glyph unicode="&#xd1;" horiz-adv-x="1593" d="M197 0v1450h184l864 -1229h4v1229h148v-1450h-185l-864 1241h-4v-1241h-147zM465 1538q6 39 19.5 77.5t36 68.5t54 48.5t78.5 18.5q37 0 75 -14.5t75 -32.5q37 -16 71.5 -32t65.5 -16q47 0 68.5 32t31.5 71h89q-6 -41 -19.5 -79t-36 -67.5t-55.5 -48t-78 -18.5 q-37 0 -75 15.5t-74 31.5q-35 18 -70 32.5t-68 14.5q-47 0 -68.5 -31.5t-31.5 -70.5h-88z" />
<glyph unicode="&#xd2;" horiz-adv-x="1708" d="M98 725q0 166 57.5 305t159 240.5t239.5 159t300 57.5t300 -57.5t239.5 -159t159 -240.5t57.5 -305t-57.5 -305t-159 -240.5t-239.5 -159t-300 -57.5t-300 57.5t-239.5 159t-159 240.5t-57.5 305zM258 725q0 -125 41 -238.5t118 -199.5t187.5 -137.5t249.5 -51.5 t249.5 51.5t187.5 137.5t118 199.5t41 238.5t-41 238.5t-118 199.5t-187.5 137.5t-249.5 51.5t-249.5 -51.5t-187.5 -137.5t-118 -199.5t-41 -238.5zM588 1808h186l205 -295h-121z" />
<glyph unicode="&#xd3;" horiz-adv-x="1708" d="M98 725q0 166 57.5 305t159 240.5t239.5 159t300 57.5t300 -57.5t239.5 -159t159 -240.5t57.5 -305t-57.5 -305t-159 -240.5t-239.5 -159t-300 -57.5t-300 57.5t-239.5 159t-159 240.5t-57.5 305zM258 725q0 -125 41 -238.5t118 -199.5t187.5 -137.5t249.5 -51.5 t249.5 51.5t187.5 137.5t118 199.5t41 238.5t-41 238.5t-118 199.5t-187.5 137.5t-249.5 51.5t-249.5 -51.5t-187.5 -137.5t-118 -199.5t-41 -238.5zM729 1513l205 295h186l-270 -295h-121z" />
<glyph unicode="&#xd4;" horiz-adv-x="1708" d="M98 725q0 166 57.5 305t159 240.5t239.5 159t300 57.5t300 -57.5t239.5 -159t159 -240.5t57.5 -305t-57.5 -305t-159 -240.5t-239.5 -159t-300 -57.5t-300 57.5t-239.5 159t-159 240.5t-57.5 305zM258 725q0 -125 41 -238.5t118 -199.5t187.5 -137.5t249.5 -51.5 t249.5 51.5t187.5 137.5t118 199.5t41 238.5t-41 238.5t-118 199.5t-187.5 137.5t-249.5 51.5t-249.5 -51.5t-187.5 -137.5t-118 -199.5t-41 -238.5zM549 1513l223 295h164l223 -295h-135l-170 221l-170 -221h-135z" />
<glyph unicode="&#xd5;" horiz-adv-x="1708" d="M98 725q0 166 57.5 305t159 240.5t239.5 159t300 57.5t300 -57.5t239.5 -159t159 -240.5t57.5 -305t-57.5 -305t-159 -240.5t-239.5 -159t-300 -57.5t-300 57.5t-239.5 159t-159 240.5t-57.5 305zM258 725q0 -125 41 -238.5t118 -199.5t187.5 -137.5t249.5 -51.5 t249.5 51.5t187.5 137.5t118 199.5t41 238.5t-41 238.5t-118 199.5t-187.5 137.5t-249.5 51.5t-249.5 -51.5t-187.5 -137.5t-118 -199.5t-41 -238.5zM522 1538q6 39 19.5 77.5t36 68.5t54 48.5t78.5 18.5q37 0 75 -14.5t75 -32.5q37 -16 71.5 -32t65.5 -16q47 0 68.5 32 t31.5 71h89q-6 -41 -19.5 -79t-36 -67.5t-55.5 -48t-78 -18.5q-37 0 -75 15.5t-74 31.5q-35 18 -70 32.5t-68 14.5q-47 0 -68.5 -31.5t-31.5 -70.5h-88z" />
<glyph unicode="&#xd6;" horiz-adv-x="1708" d="M98 725q0 166 57.5 305t159 240.5t239.5 159t300 57.5t300 -57.5t239.5 -159t159 -240.5t57.5 -305t-57.5 -305t-159 -240.5t-239.5 -159t-300 -57.5t-300 57.5t-239.5 159t-159 240.5t-57.5 305zM258 725q0 -125 41 -238.5t118 -199.5t187.5 -137.5t249.5 -51.5 t249.5 51.5t187.5 137.5t118 199.5t41 238.5t-41 238.5t-118 199.5t-187.5 137.5t-249.5 51.5t-249.5 -51.5t-187.5 -137.5t-118 -199.5t-41 -238.5zM553 1683q0 41 28.5 73t75.5 32t76 -32t29 -73t-29 -72.5t-76 -31.5t-75.5 31.5t-28.5 72.5zM946 1683q0 41 28.5 73 t75.5 32t76 -32t29 -73t-29 -72.5t-76 -31.5t-75.5 31.5t-28.5 72.5z" />
<glyph unicode="&#xd7;" horiz-adv-x="1363" d="M270 295l326 326l-326 327l86 86l326 -325l324 325l88 -86l-326 -327l326 -326l-88 -88l-324 325l-326 -325z" />
<glyph unicode="&#xd8;" horiz-adv-x="1708" d="M98 725q0 166 57.5 305t159 240.5t239.5 159t300 57.5q141 0 263 -43t220 -123l156 166l76 -70l-156 -168q94 -100 145.5 -233t51.5 -291q0 -166 -57.5 -305t-159 -240.5t-239.5 -159t-300 -57.5q-141 0 -264 44t-219 122l-156 -166l-76 70l156 168q-94 100 -145.5 233 t-51.5 291zM258 725q0 -117 36 -223.5t103 -190.5l842 903q-74 66 -170 102t-215 36q-139 0 -249.5 -51.5t-187.5 -137.5t-118 -199.5t-41 -238.5zM469 236q74 -66 170 -102t215 -36q139 0 249.5 51.5t187.5 137.5t118 199.5t41 238.5q0 117 -36 222.5t-103 191.5z" />
<glyph unicode="&#xd9;" horiz-adv-x="1404" d="M172 541v909h147v-893q0 -104 20.5 -179t54.5 -126t76 -81t84 -46t81 -21.5t67 -5.5q27 0 67 5.5t82 21.5t84 46t75.5 81t54 126t20.5 179v893h148v-909q0 -90 -21.5 -191.5t-81 -187.5t-163 -142.5t-265.5 -56.5q-164 0 -266 56.5t-161.5 142.5t-81 187.5t-21.5 191.5z M437 1808h186l205 -295h-121z" />
<glyph unicode="&#xda;" horiz-adv-x="1404" d="M172 541v909h147v-893q0 -104 20.5 -179t54.5 -126t76 -81t84 -46t81 -21.5t67 -5.5q27 0 67 5.5t82 21.5t84 46t75.5 81t54 126t20.5 179v893h148v-909q0 -90 -21.5 -191.5t-81 -187.5t-163 -142.5t-265.5 -56.5q-164 0 -266 56.5t-161.5 142.5t-81 187.5t-21.5 191.5z M578 1513l205 295h186l-270 -295h-121z" />
<glyph unicode="&#xdb;" horiz-adv-x="1404" d="M172 541v909h147v-893q0 -104 20.5 -179t54.5 -126t76 -81t84 -46t81 -21.5t67 -5.5q27 0 67 5.5t82 21.5t84 46t75.5 81t54 126t20.5 179v893h148v-909q0 -90 -21.5 -191.5t-81 -187.5t-163 -142.5t-265.5 -56.5q-164 0 -266 56.5t-161.5 142.5t-81 187.5t-21.5 191.5z M398 1513l223 295h164l223 -295h-135l-170 221l-170 -221h-135z" />
<glyph unicode="&#xdc;" horiz-adv-x="1404" d="M172 541v909h147v-893q0 -104 20.5 -179t54.5 -126t76 -81t84 -46t81 -21.5t67 -5.5q27 0 67 5.5t82 21.5t84 46t75.5 81t54 126t20.5 179v893h148v-909q0 -90 -21.5 -191.5t-81 -187.5t-163 -142.5t-265.5 -56.5q-164 0 -266 56.5t-161.5 142.5t-81 187.5t-21.5 191.5z M402 1683q0 41 28.5 73t75.5 32t76 -32t29 -73t-29 -72.5t-76 -31.5t-75.5 31.5t-28.5 72.5zM795 1683q0 41 28.5 73t75.5 32t76 -32t29 -73t-29 -72.5t-76 -31.5t-75.5 31.5t-28.5 72.5z" />
<glyph unicode="&#xdd;" horiz-adv-x="1175" d="M-29 1450h185l432 -684l432 684h184l-542 -825v-625h-148v625zM463 1513l205 295h186l-270 -295h-121z" />
<glyph unicode="&#xde;" horiz-adv-x="1175" d="M197 0v1450h147v-320h328q90 0 168 -23.5t134 -71.5t89 -120.5t33 -171.5q0 -98 -33 -170.5t-89 -122t-134 -73t-168 -23.5h-328v-354h-147zM344 489h238q57 0 120.5 6.5t114.5 32t85 76.5t34 139t-34 138.5t-85 76t-114.5 31.5t-120.5 6h-238v-506z" />
<glyph unicode="&#xdf;" horiz-adv-x="1214" d="M172 0v1114q0 90 21.5 173t71.5 146.5t133 101.5t206 38q82 0 153.5 -24.5t124 -70.5t83 -114t30.5 -154q0 -240 -237 -325v-4q90 -8 156.5 -45t109.5 -95.5t63.5 -131t20.5 -152.5q0 -109 -35 -198t-99.5 -152.5t-153.5 -97.5t-197 -34q-29 0 -60 3.5t-59 13.5v117 q25 -6 49.5 -8.5t48.5 -2.5q164 0 261.5 94.5t97.5 266.5q0 186 -111 272t-301 86v123q61 0 116.5 13.5t95.5 43t63.5 77.5t23.5 118q0 123 -74 190.5t-178 67.5q-82 0 -137.5 -30.5t-89 -78t-48 -104.5t-14.5 -111v-1126h-135z" />
<glyph unicode="&#xe0;" horiz-adv-x="1062" d="M98 256q0 117 60.5 183.5t151.5 99t194.5 41t189.5 8.5h68v24q0 248 -246 248q-168 0 -293 -112l-82 96q135 139 406 139q70 0 134 -20.5t111.5 -62.5t76 -105.5t28.5 -151.5v-428q0 -55 5 -115.5t11 -99.5h-131q-6 35 -9 76t-3 80h-4q-59 -96 -140 -138.5t-198 -42.5 q-63 0 -122.5 17.5t-105.5 53.5t-74 88t-28 122zM246 274q0 -47 19.5 -80.5t52 -55t72.5 -31t81 -9.5q74 0 128 24.5t91 66.5t54.5 98.5t17.5 120.5v69h-70q-51 0 -128 -5t-147.5 -24.5t-120.5 -60.5t-50 -113zM267 1450h186l205 -295h-121z" />
<glyph unicode="&#xe1;" horiz-adv-x="1062" d="M98 256q0 117 60.5 183.5t151.5 99t194.5 41t189.5 8.5h68v24q0 248 -246 248q-168 0 -293 -112l-82 96q135 139 406 139q70 0 134 -20.5t111.5 -62.5t76 -105.5t28.5 -151.5v-428q0 -55 5 -115.5t11 -99.5h-131q-6 35 -9 76t-3 80h-4q-59 -96 -140 -138.5t-198 -42.5 q-63 0 -122.5 17.5t-105.5 53.5t-74 88t-28 122zM246 274q0 -47 19.5 -80.5t52 -55t72.5 -31t81 -9.5q74 0 128 24.5t91 66.5t54.5 98.5t17.5 120.5v69h-70q-51 0 -128 -5t-147.5 -24.5t-120.5 -60.5t-50 -113zM408 1155l205 295h186l-270 -295h-121z" />
<glyph unicode="&#xe2;" horiz-adv-x="1062" d="M98 256q0 117 60.5 183.5t151.5 99t194.5 41t189.5 8.5h68v24q0 248 -246 248q-168 0 -293 -112l-82 96q135 139 406 139q70 0 134 -20.5t111.5 -62.5t76 -105.5t28.5 -151.5v-428q0 -55 5 -115.5t11 -99.5h-131q-6 35 -9 76t-3 80h-4q-59 -96 -140 -138.5t-198 -42.5 q-63 0 -122.5 17.5t-105.5 53.5t-74 88t-28 122zM228 1155l223 295h164l223 -295h-135l-170 221l-170 -221h-135zM246 274q0 -47 19.5 -80.5t52 -55t72.5 -31t81 -9.5q74 0 128 24.5t91 66.5t54.5 98.5t17.5 120.5v69h-70q-51 0 -128 -5t-147.5 -24.5t-120.5 -60.5t-50 -113 z" />
<glyph unicode="&#xe3;" horiz-adv-x="1062" d="M98 256q0 117 60.5 183.5t151.5 99t194.5 41t189.5 8.5h68v24q0 248 -246 248q-168 0 -293 -112l-82 96q135 139 406 139q70 0 134 -20.5t111.5 -62.5t76 -105.5t28.5 -151.5v-428q0 -55 5 -115.5t11 -99.5h-131q-6 35 -9 76t-3 80h-4q-59 -96 -140 -138.5t-198 -42.5 q-63 0 -122.5 17.5t-105.5 53.5t-74 88t-28 122zM201 1180q6 39 19.5 77.5t36 68.5t54 48.5t78.5 18.5q37 0 75 -14.5t75 -32.5q37 -16 71.5 -32t65.5 -16q47 0 68.5 32t31.5 71h89q-6 -41 -19.5 -79t-36 -67.5t-55.5 -48t-78 -18.5q-37 0 -75 15.5t-74 31.5 q-35 18 -70 32.5t-68 14.5q-47 0 -68.5 -31.5t-31.5 -70.5h-88zM246 274q0 -47 19.5 -80.5t52 -55t72.5 -31t81 -9.5q74 0 128 24.5t91 66.5t54.5 98.5t17.5 120.5v69h-70q-51 0 -128 -5t-147.5 -24.5t-120.5 -60.5t-50 -113z" />
<glyph unicode="&#xe4;" horiz-adv-x="1062" d="M98 256q0 117 60.5 183.5t151.5 99t194.5 41t189.5 8.5h68v24q0 248 -246 248q-168 0 -293 -112l-82 96q135 139 406 139q70 0 134 -20.5t111.5 -62.5t76 -105.5t28.5 -151.5v-428q0 -55 5 -115.5t11 -99.5h-131q-6 35 -9 76t-3 80h-4q-59 -96 -140 -138.5t-198 -42.5 q-63 0 -122.5 17.5t-105.5 53.5t-74 88t-28 122zM232 1325q0 41 28.5 73t75.5 32t76 -32t29 -73t-29 -72.5t-76 -31.5t-75.5 31.5t-28.5 72.5zM246 274q0 -47 19.5 -80.5t52 -55t72.5 -31t81 -9.5q74 0 128 24.5t91 66.5t54.5 98.5t17.5 120.5v69h-70q-51 0 -128 -5 t-147.5 -24.5t-120.5 -60.5t-50 -113zM625 1325q0 41 28.5 73t75.5 32t76 -32t29 -73t-29 -72.5t-76 -31.5t-75.5 31.5t-28.5 72.5z" />
<glyph unicode="&#xe5;" horiz-adv-x="1062" d="M98 256q0 117 60.5 183.5t151.5 99t194.5 41t189.5 8.5h68v24q0 248 -246 248q-168 0 -293 -112l-82 96q135 139 406 139q70 0 134 -20.5t111.5 -62.5t76 -105.5t28.5 -151.5v-428q0 -55 5 -115.5t11 -99.5h-131q-6 35 -9 76t-3 80h-4q-59 -96 -140 -138.5t-198 -42.5 q-63 0 -122.5 17.5t-105.5 53.5t-74 88t-28 122zM246 274q0 -47 19.5 -80.5t52 -55t72.5 -31t81 -9.5q74 0 128 24.5t91 66.5t54.5 98.5t17.5 120.5v69h-70q-51 0 -128 -5t-147.5 -24.5t-120.5 -60.5t-50 -113zM336 1331q0 41 15.5 77t43 61.5t62.5 41t76 15.5 q39 0 74.5 -15.5t63.5 -41t43 -61.5t15 -77t-15 -76.5t-43 -62.5t-63.5 -41t-74.5 -14q-41 0 -76 14t-62.5 41t-43 62.5t-15.5 76.5zM410 1331q0 -51 36 -86t87 -35t87 35t36 86t-36 86t-87 35t-87 -35t-36 -86z" />
<glyph unicode="&#xe6;" horiz-adv-x="1744" d="M98 256q0 96 43 154.5t110.5 90t150.5 42t163 10.5h228v59q-2 76 -31 124t-68 76t-80 38t-67 10q-170 0 -291 -115l-84 99q70 66 167 102.5t214 36.5q111 0 197 -53t120 -131q47 86 142.5 135t199.5 49q106 0 187.5 -37t136.5 -101.5t83 -152.5t28 -188v-62h-719v-18 q0 -66 19.5 -125t55 -103t88 -71t117.5 -27q61 0 107.5 12.5t81.5 34t61.5 50t48.5 59.5l107 -84q-78 -100 -183.5 -147.5t-218.5 -47.5q-109 0 -207 53.5t-151 170.5q-72 -123 -173 -173.5t-253 -50.5q-63 0 -122.5 17.5t-105.5 53.5t-74 88t-28 122zM246 274 q0 -47 19.5 -80.5t52 -55t72.5 -31t81 -9.5q74 0 133.5 24.5t101.5 67.5t64.5 102.5t22.5 131.5v18h-281q-43 0 -90 -8t-86 -27.5t-64.5 -51t-25.5 -81.5zM928 553h583q0 68 -20.5 124t-59 97t-93 63.5t-121.5 22.5q-61 0 -113.5 -23.5t-91.5 -64.5t-61.5 -97.5 t-22.5 -121.5z" />
<glyph unicode="&#xe7;" horiz-adv-x="987" d="M98 479q0 109 35 202t101.5 160.5t160.5 105.5t211 36q98 -2 188.5 -42t161.5 -124l-110 -84q-35 53 -97.5 90t-142.5 37q-84 2 -150.5 -26.5t-113.5 -80t-71.5 -122t-24.5 -152.5t24.5 -152.5t71.5 -121.5t113.5 -80t150.5 -27q80 0 142.5 37t97.5 90l110 -84 q-72 -84 -161.5 -124t-188.5 -42h-16l-74 -98l4 -2q16 6 33.5 10t40.5 4q61 0 109.5 -39.5t48.5 -113.5q0 -47 -21.5 -82t-55.5 -56.5t-76 -31.5t-83 -10q-106 0 -199 49l33 73q70 -37 152 -36q45 0 86 20.5t41 71.5q0 8 -4 22.5t-14.5 27.5t-31 22.5t-51.5 9.5 q-29 0 -51 -6.5t-43 -16.5l-37 35l113 154q-61 8 -115 28q-94 39 -160.5 106.5t-101.5 161t-35 201.5z" />
<glyph unicode="&#xe8;" d="M98 479q0 109 37 201t102.5 159.5t153.5 105.5t191 38q109 0 194.5 -39t144 -103.5t89 -151.5t30.5 -185v-62h-798q6 -72 34.5 -135t75.5 -109t108.5 -73t133.5 -27q109 0 187.5 50.5t119.5 115.5l105 -86q-86 -109 -189.5 -156t-222.5 -47q-106 0 -197.5 38t-157 105.5 t-103.5 160t-38 200.5zM246 553h647q0 137 -82 222t-229 85q-66 0 -127.5 -25.5t-107.5 -68.5t-73.5 -98.5t-27.5 -114.5zM304 1450h186l205 -295h-121z" />
<glyph unicode="&#xe9;" d="M98 479q0 109 37 201t102.5 159.5t153.5 105.5t191 38q109 0 194.5 -39t144 -103.5t89 -151.5t30.5 -185v-62h-798q6 -72 34.5 -135t75.5 -109t108.5 -73t133.5 -27q109 0 187.5 50.5t119.5 115.5l105 -86q-86 -109 -189.5 -156t-222.5 -47q-106 0 -197.5 38t-157 105.5 t-103.5 160t-38 200.5zM246 553h647q0 137 -82 222t-229 85q-66 0 -127.5 -25.5t-107.5 -68.5t-73.5 -98.5t-27.5 -114.5zM445 1155l205 295h186l-270 -295h-121z" />
<glyph unicode="&#xea;" d="M98 479q0 109 37 201t102.5 159.5t153.5 105.5t191 38q109 0 194.5 -39t144 -103.5t89 -151.5t30.5 -185v-62h-798q6 -72 34.5 -135t75.5 -109t108.5 -73t133.5 -27q109 0 187.5 50.5t119.5 115.5l105 -86q-86 -109 -189.5 -156t-222.5 -47q-106 0 -197.5 38t-157 105.5 t-103.5 160t-38 200.5zM246 553h647q0 137 -82 222t-229 85q-66 0 -127.5 -25.5t-107.5 -68.5t-73.5 -98.5t-27.5 -114.5zM265 1155l223 295h164l223 -295h-135l-170 221l-170 -221h-135z" />
<glyph unicode="&#xeb;" d="M98 479q0 109 37 201t102.5 159.5t153.5 105.5t191 38q109 0 194.5 -39t144 -103.5t89 -151.5t30.5 -185v-62h-798q6 -72 34.5 -135t75.5 -109t108.5 -73t133.5 -27q109 0 187.5 50.5t119.5 115.5l105 -86q-86 -109 -189.5 -156t-222.5 -47q-106 0 -197.5 38t-157 105.5 t-103.5 160t-38 200.5zM246 553h647q0 137 -82 222t-229 85q-66 0 -127.5 -25.5t-107.5 -68.5t-73.5 -98.5t-27.5 -114.5zM269 1325q0 41 28.5 73t75.5 32t76 -32t29 -73t-29 -72.5t-76 -31.5t-75.5 31.5t-28.5 72.5zM662 1325q0 41 28.5 73t75.5 32t76 -32t29 -73 t-29 -72.5t-76 -31.5t-75.5 31.5t-28.5 72.5z" />
<glyph unicode="&#xec;" horiz-adv-x="491" d="M-20 1450h186l205 -295h-121zM178 0v958h135v-958h-135z" />
<glyph unicode="&#xed;" horiz-adv-x="491" d="M121 1155l205 295h186l-270 -295h-121zM178 0v958h135v-958h-135z" />
<glyph unicode="&#xee;" horiz-adv-x="491" d="M-59 1155l223 295h164l223 -295h-135l-170 221l-170 -221h-135zM178 0v958h135v-958h-135z" />
<glyph unicode="&#xef;" horiz-adv-x="491" d="M-55 1325q0 41 28.5 73t75.5 32t76 -32t29 -73t-29 -72.5t-76 -31.5t-75.5 31.5t-28.5 72.5zM178 0v958h135v-958h-135zM338 1325q0 41 28.5 73t75.5 32t76 -32t29 -73t-29 -72.5t-76 -31.5t-75.5 31.5t-28.5 72.5z" />
<glyph unicode="&#xf0;" horiz-adv-x="1214" d="M98 479q0 109 38 201t105.5 159.5t161 105.5t203.5 38q90 0 162 -28.5t145 -90.5l5 4q-41 76 -79 134.5t-77 107.5t-81 92t-89 84l-225 -117l-74 74l221 115q-53 49 -101 90t-94 72l123 75q53 -43 102.5 -85t96.5 -85l209 109l82 -72l-211 -110q94 -94 168 -190.5 t125 -198t77.5 -212t24.5 -231.5q0 -92 -24.5 -188t-83 -176t-156.5 -130.5t-246 -50.5q-111 0 -204 38t-160.5 105.5t-105.5 160t-38 200.5zM246 479q0 -80 25.5 -149.5t71.5 -120.5t112.5 -81t150.5 -30t150.5 30t114 81t73 120.5t25.5 149.5t-25.5 149.5t-73 121t-114 81 t-150.5 29.5t-150.5 -29.5t-112.5 -81t-71.5 -121t-25.5 -149.5z" />
<glyph unicode="&#xf1;" d="M137 958h139q4 -39 5.5 -76.5t1.5 -76.5h4q23 39 57.5 71.5t77.5 56t91 37t95 13.5q184 0 272.5 -97.5t88.5 -277.5v-608h-135v530q0 160 -55.5 245t-205.5 85q-10 0 -57 -8t-99 -45t-93 -110.5t-41 -204.5v-492h-136v748q0 39 -3 98t-7 112zM238 1180q6 39 19.5 77.5 t36 68.5t54 48.5t78.5 18.5q37 0 75 -14.5t75 -32.5q37 -16 71.5 -32t65.5 -16q47 0 68.5 32t31.5 71h89q-6 -41 -19.5 -79t-36 -67.5t-55.5 -48t-78 -18.5q-37 0 -75 15.5t-74 31.5q-35 18 -70 32.5t-68 14.5q-47 0 -68.5 -31.5t-31.5 -70.5h-88z" />
<glyph unicode="&#xf2;" horiz-adv-x="1214" d="M98 479q0 109 38 201t105.5 159.5t161 105.5t203.5 38q113 0 206 -38t160.5 -105.5t105.5 -159.5t38 -201t-38 -201t-105.5 -159.5t-160.5 -105.5t-206 -38q-111 0 -204 38t-160.5 105.5t-105.5 160t-38 200.5zM246 479q0 -80 25.5 -149.5t71.5 -120.5t112.5 -81 t150.5 -30t150.5 30t114 81t73 120.5t25.5 149.5t-25.5 149.5t-73 121t-114 81t-150.5 29.5t-150.5 -29.5t-112.5 -81t-71.5 -121t-25.5 -149.5zM342 1450h186l205 -295h-121z" />
<glyph unicode="&#xf3;" horiz-adv-x="1214" d="M98 479q0 109 38 201t105.5 159.5t161 105.5t203.5 38q113 0 206 -38t160.5 -105.5t105.5 -159.5t38 -201t-38 -201t-105.5 -159.5t-160.5 -105.5t-206 -38q-111 0 -204 38t-160.5 105.5t-105.5 160t-38 200.5zM246 479q0 -80 25.5 -149.5t71.5 -120.5t112.5 -81 t150.5 -30t150.5 30t114 81t73 120.5t25.5 149.5t-25.5 149.5t-73 121t-114 81t-150.5 29.5t-150.5 -29.5t-112.5 -81t-71.5 -121t-25.5 -149.5zM483 1155l205 295h186l-270 -295h-121z" />
<glyph unicode="&#xf4;" horiz-adv-x="1214" d="M98 479q0 109 38 201t105.5 159.5t161 105.5t203.5 38q113 0 206 -38t160.5 -105.5t105.5 -159.5t38 -201t-38 -201t-105.5 -159.5t-160.5 -105.5t-206 -38q-111 0 -204 38t-160.5 105.5t-105.5 160t-38 200.5zM246 479q0 -80 25.5 -149.5t71.5 -120.5t112.5 -81 t150.5 -30t150.5 30t114 81t73 120.5t25.5 149.5t-25.5 149.5t-73 121t-114 81t-150.5 29.5t-150.5 -29.5t-112.5 -81t-71.5 -121t-25.5 -149.5zM303 1155l223 295h164l223 -295h-135l-170 221l-170 -221h-135z" />
<glyph unicode="&#xf5;" horiz-adv-x="1214" d="M98 479q0 109 38 201t105.5 159.5t161 105.5t203.5 38q113 0 206 -38t160.5 -105.5t105.5 -159.5t38 -201t-38 -201t-105.5 -159.5t-160.5 -105.5t-206 -38q-111 0 -204 38t-160.5 105.5t-105.5 160t-38 200.5zM246 479q0 -80 25.5 -149.5t71.5 -120.5t112.5 -81 t150.5 -30t150.5 30t114 81t73 120.5t25.5 149.5t-25.5 149.5t-73 121t-114 81t-150.5 29.5t-150.5 -29.5t-112.5 -81t-71.5 -121t-25.5 -149.5zM276 1180q6 39 19.5 77.5t36 68.5t54 48.5t78.5 18.5q37 0 75 -14.5t75 -32.5q37 -16 71.5 -32t65.5 -16q47 0 68.5 32t31.5 71 h89q-6 -41 -19.5 -79t-36 -67.5t-55.5 -48t-78 -18.5q-37 0 -75 15.5t-74 31.5q-35 18 -70 32.5t-68 14.5q-47 0 -68.5 -31.5t-31.5 -70.5h-88z" />
<glyph unicode="&#xf6;" horiz-adv-x="1214" d="M98 479q0 109 38 201t105.5 159.5t161 105.5t203.5 38q113 0 206 -38t160.5 -105.5t105.5 -159.5t38 -201t-38 -201t-105.5 -159.5t-160.5 -105.5t-206 -38q-111 0 -204 38t-160.5 105.5t-105.5 160t-38 200.5zM246 479q0 -80 25.5 -149.5t71.5 -120.5t112.5 -81 t150.5 -30t150.5 30t114 81t73 120.5t25.5 149.5t-25.5 149.5t-73 121t-114 81t-150.5 29.5t-150.5 -29.5t-112.5 -81t-71.5 -121t-25.5 -149.5zM307 1325q0 41 28.5 73t75.5 32t76 -32t29 -73t-29 -72.5t-76 -31.5t-75.5 31.5t-28.5 72.5zM700 1325q0 41 28.5 73t75.5 32 t76 -32t29 -73t-29 -72.5t-76 -31.5t-75.5 31.5t-28.5 72.5z" />
<glyph unicode="&#xf7;" horiz-adv-x="1363" d="M160 559v123h1044v-123h-1044zM571 289q0 43 31 76.5t80 33.5t80 -33.5t31 -76.5t-31 -77t-80 -34t-80 34t-31 77zM571 952q0 43 31 77t80 34t80 -34t31 -77t-31 -76.5t-80 -33.5t-80 33.5t-31 76.5z" />
<glyph unicode="&#xf8;" horiz-adv-x="1214" d="M82 6l135 139q-57 66 -88 151t-31 183q0 109 38 201t105.5 159.5t161 105.5t203.5 38q96 0 178 -27.5t148 -78.5l135 139l66 -64l-136 -139q55 -63 87 -148t32 -186q0 -109 -38 -201t-105.5 -159.5t-160.5 -105.5t-206 -38q-98 0 -179 29t-142 78l-138 -139zM246 479 q0 -139 69 -233l523 534q-92 80 -232 80q-84 0 -150.5 -29.5t-112.5 -81t-71.5 -121t-25.5 -149.5zM377 176q45 -37 102.5 -57.5t126.5 -20.5q84 0 150.5 30t114 81t73 120.5t25.5 149.5q0 133 -70 234z" />
<glyph unicode="&#xf9;" d="M147 350v608h136v-530q0 -80 12 -141.5t42 -103.5t80 -63.5t126 -21.5q10 0 57 8.5t99.5 45t93.5 110.5t41 205v491h135v-747q0 -39 3 -98.5t7 -112.5h-139q-4 39 -5 77t-1 77h-5q-23 -39 -57.5 -72t-77.5 -56.5t-91 -37t-95 -13.5q-184 0 -272.5 97.5t-88.5 277.5z M304 1450h186l205 -295h-121z" />
<glyph unicode="&#xfa;" d="M147 350v608h136v-530q0 -80 12 -141.5t42 -103.5t80 -63.5t126 -21.5q10 0 57 8.5t99.5 45t93.5 110.5t41 205v491h135v-747q0 -39 3 -98.5t7 -112.5h-139q-4 39 -5 77t-1 77h-5q-23 -39 -57.5 -72t-77.5 -56.5t-91 -37t-95 -13.5q-184 0 -272.5 97.5t-88.5 277.5z M445 1155l205 295h186l-270 -295h-121z" />
<glyph unicode="&#xfb;" d="M147 350v608h136v-530q0 -80 12 -141.5t42 -103.5t80 -63.5t126 -21.5q10 0 57 8.5t99.5 45t93.5 110.5t41 205v491h135v-747q0 -39 3 -98.5t7 -112.5h-139q-4 39 -5 77t-1 77h-5q-23 -39 -57.5 -72t-77.5 -56.5t-91 -37t-95 -13.5q-184 0 -272.5 97.5t-88.5 277.5z M265 1155l223 295h164l223 -295h-135l-170 221l-170 -221h-135z" />
<glyph unicode="&#xfc;" d="M147 350v608h136v-530q0 -80 12 -141.5t42 -103.5t80 -63.5t126 -21.5q10 0 57 8.5t99.5 45t93.5 110.5t41 205v491h135v-747q0 -39 3 -98.5t7 -112.5h-139q-4 39 -5 77t-1 77h-5q-23 -39 -57.5 -72t-77.5 -56.5t-91 -37t-95 -13.5q-184 0 -272.5 97.5t-88.5 277.5z M269 1325q0 41 28.5 73t75.5 32t76 -32t29 -73t-29 -72.5t-76 -31.5t-75.5 31.5t-28.5 72.5zM662 1325q0 41 28.5 73t75.5 32t76 -32t29 -73t-29 -72.5t-76 -31.5t-75.5 31.5t-28.5 72.5z" />
<glyph unicode="&#xfd;" horiz-adv-x="987" d="M33 958h170l301 -792l293 792h164l-480 -1208q-43 -111 -109.5 -176.5t-191.5 -65.5q-31 0 -62.5 2.5t-62.5 12.5l15 131q43 -23 102 -23q72 0 113 45t71 127l70 185zM369 1155l205 295h186l-270 -295h-121z" />
<glyph unicode="&#xfe;" horiz-adv-x="1251" d="M147 -467v2015h136v-768h4q45 61 94 101.5t97 63t94 30.5t87 8q113 0 206 -38t161 -105.5t105.5 -159.5t37.5 -201t-37.5 -201t-105.5 -159.5t-161 -105.5t-206 -38q-47 0 -99 10.5t-101 33t-94.5 57.5t-77.5 84h-4v-627h-136zM276 479q0 -80 27 -149.5t77 -120.5 t120.5 -81t158.5 -30q84 0 151 30t114 81t72.5 120.5t25.5 149.5t-25.5 149.5t-72.5 121t-114 81t-151 29.5t-153.5 -29.5t-120.5 -81t-80 -121t-29 -149.5z" />
<glyph unicode="&#xff;" horiz-adv-x="987" d="M33 958h170l301 -792l293 792h164l-480 -1208q-43 -111 -109.5 -176.5t-191.5 -65.5q-31 0 -62.5 2.5t-62.5 12.5l15 131q43 -23 102 -23q72 0 113 45t71 127l70 185zM193 1325q0 41 28.5 73t75.5 32t76 -32t29 -73t-29 -72.5t-76 -31.5t-75.5 31.5t-28.5 72.5zM586 1325 q0 41 28.5 73t75.5 32t76 -32t29 -73t-29 -72.5t-76 -31.5t-75.5 31.5t-28.5 72.5z" />
<glyph unicode="&#x100;" horiz-adv-x="1404" d="M0 0l631 1450h143l631 -1450h-172l-160 381h-741l-160 -381h-172zM387 516h629l-314 762zM426 1620v111h553v-111h-553z" />
<glyph unicode="&#x101;" horiz-adv-x="1062" d="M98 256q0 117 60.5 183.5t151.5 99t194.5 41t189.5 8.5h68v24q0 248 -246 248q-168 0 -293 -112l-82 96q135 139 406 139q70 0 134 -20.5t111.5 -62.5t76 -105.5t28.5 -151.5v-428q0 -55 5 -115.5t11 -99.5h-131q-6 35 -9 76t-3 80h-4q-59 -96 -140 -138.5t-198 -42.5 q-63 0 -122.5 17.5t-105.5 53.5t-74 88t-28 122zM227 1229v110h553v-110h-553zM246 274q0 -47 19.5 -80.5t52 -55t72.5 -31t81 -9.5q74 0 128 24.5t91 66.5t54.5 98.5t17.5 120.5v69h-70q-51 0 -128 -5t-147.5 -24.5t-120.5 -60.5t-50 -113z" />
<glyph unicode="&#x102;" horiz-adv-x="1404" d="M0 0l631 1450h143l631 -1450h-172l-160 381h-741l-160 -381h-172zM387 516h629l-314 762zM402 1839h90q14 -80 73.5 -120t137.5 -40t137 40t74 120h90q-8 -129 -91 -199.5t-210 -70.5t-210 70.5t-91 199.5z" />
<glyph unicode="&#x103;" horiz-adv-x="1062" d="M98 256q0 117 60.5 183.5t151.5 99t194.5 41t189.5 8.5h68v24q0 248 -246 248q-168 0 -293 -112l-82 96q135 139 406 139q70 0 134 -20.5t111.5 -62.5t76 -105.5t28.5 -151.5v-428q0 -55 5 -115.5t11 -99.5h-131q-6 35 -9 76t-3 80h-4q-59 -96 -140 -138.5t-198 -42.5 q-63 0 -122.5 17.5t-105.5 53.5t-74 88t-28 122zM203 1450h90q14 -80 73.5 -120t137.5 -40t137 40t74 120h90q-8 -129 -91 -199.5t-210 -70.5t-210 70.5t-91 199.5zM246 274q0 -47 19.5 -80.5t52 -55t72.5 -31t81 -9.5q74 0 128 24.5t91 66.5t54.5 98.5t17.5 120.5v69h-70 q-51 0 -128 -5t-147.5 -24.5t-120.5 -60.5t-50 -113z" />
<glyph unicode="&#x104;" horiz-adv-x="1404" d="M0 0l631 1450h143l631 -1450h-72q-68 -68 -104 -119q-41 -57 -41 -117q0 -43 30.5 -70.5t71.5 -27.5q29 0 56.5 11.5t48.5 33.5l39 -82q-35 -35 -84.5 -54t-100.5 -19q-37 0 -69.5 12t-58 35.5t-41 55.5t-15.5 71q0 43 16.5 83t43 75.5t59.5 68.5q25 25 49 43l-160 381 h-741l-160 -381h-172zM387 516h629l-314 762z" />
<glyph unicode="&#x105;" horiz-adv-x="1062" d="M98 256q0 117 60.5 183.5t151.5 99t194.5 41t189.5 8.5h68v24q0 248 -246 248q-168 0 -293 -112l-82 96q135 139 406 139q70 0 134 -20.5t111.5 -62.5t76 -105.5t28.5 -151.5v-428q0 -55 5 -115.5t11 -99.5h-26q-68 -68 -105 -119q-41 -57 -41 -117q0 -43 31 -70.5 t72 -27.5q29 0 56.5 11.5t47.5 33.5l39 -82q-35 -35 -84 -54t-100 -19q-37 0 -70 12t-58.5 35.5t-41 55.5t-15.5 71q0 43 16.5 83t43.5 75.5t59 68.5q25 23 47 43h-2q-6 35 -9 76t-3 80h-4q-59 -96 -140 -138.5t-198 -42.5q-63 0 -122.5 17.5t-105.5 53.5t-74 88t-28 122z M246 274q0 -47 19.5 -80.5t52 -55t72.5 -31t81 -9.5q74 0 128 24.5t91 66.5t54.5 98.5t17.5 120.5v69h-70q-51 0 -128 -5t-147.5 -24.5t-120.5 -60.5t-50 -113z" />
<glyph unicode="&#x106;" horiz-adv-x="1441" d="M98 725q0 166 57.5 305t159 240.5t239.5 159t300 57.5q135 0 270.5 -53.5t231.5 -176.5l-129 -96q-23 35 -62 70t-89 61.5t-107.5 43t-114.5 16.5q-139 0 -249.5 -51.5t-187.5 -137.5t-118 -199.5t-41 -238.5t41 -238.5t118 -199.5t187.5 -137.5t249.5 -51.5 q57 0 113.5 10.5t111 35t102.5 66.5t89 105l121 -86q-37 -55 -91.5 -104t-124 -85t-150.5 -56.5t-171 -20.5q-162 0 -300 57.5t-239.5 159t-159 240.5t-57.5 305zM762 1556l205 295h186l-270 -295h-121z" />
<glyph unicode="&#x107;" horiz-adv-x="987" d="M98 479q0 109 35 202t101.5 160.5t160.5 105.5t211 36q98 -2 188.5 -42t161.5 -124l-110 -84q-35 53 -97.5 90t-142.5 37q-84 2 -150.5 -26.5t-113.5 -80t-71.5 -122t-24.5 -152.5t24.5 -152.5t71.5 -121.5t113.5 -80t150.5 -27q80 0 142.5 37t97.5 90l110 -84 q-72 -84 -161.5 -124t-188.5 -42q-117 -2 -211 36t-160.5 105.5t-101.5 161t-35 201.5zM488 1155l205 295h186l-270 -295h-121z" />
<glyph unicode="&#x108;" horiz-adv-x="1441" d="M98 725q0 166 57.5 305t159 240.5t239.5 159t300 57.5q135 0 270.5 -53.5t231.5 -176.5l-129 -96q-23 35 -62 70t-89 61.5t-107.5 43t-114.5 16.5q-139 0 -249.5 -51.5t-187.5 -137.5t-118 -199.5t-41 -238.5t41 -238.5t118 -199.5t187.5 -137.5t249.5 -51.5 q57 0 113.5 10.5t111 35t102.5 66.5t89 105l121 -86q-37 -55 -91.5 -104t-124 -85t-150.5 -56.5t-171 -20.5q-162 0 -300 57.5t-239.5 159t-159 240.5t-57.5 305zM537 1556l223 295h164l223 -295h-135l-170 222l-170 -222h-135z" />
<glyph unicode="&#x109;" horiz-adv-x="987" d="M98 479q0 109 35 202t101.5 160.5t160.5 105.5t211 36q98 -2 188.5 -42t161.5 -124l-110 -84q-35 53 -97.5 90t-142.5 37q-84 2 -150.5 -26.5t-113.5 -80t-71.5 -122t-24.5 -152.5t24.5 -152.5t71.5 -121.5t113.5 -80t150.5 -27q80 0 142.5 37t97.5 90l110 -84 q-72 -84 -161.5 -124t-188.5 -42q-117 -2 -211 36t-160.5 105.5t-101.5 161t-35 201.5zM291 1155l223 295h164l223 -295h-135l-170 221l-170 -221h-135z" />
<glyph unicode="&#x10a;" horiz-adv-x="1441" d="M98 725q0 166 57.5 305t159 240.5t239.5 159t300 57.5q135 0 270.5 -53.5t231.5 -176.5l-129 -96q-23 35 -62 70t-89 61.5t-107.5 43t-114.5 16.5q-139 0 -249.5 -51.5t-187.5 -137.5t-118 -199.5t-41 -238.5t41 -238.5t118 -199.5t187.5 -137.5t249.5 -51.5 q57 0 113.5 10.5t111 35t102.5 66.5t89 105l121 -86q-37 -55 -91.5 -104t-124 -85t-150.5 -56.5t-171 -20.5q-162 0 -300 57.5t-239.5 159t-159 240.5t-57.5 305zM733 1673q0 41 29 73t76 32t75.5 -32t28.5 -73t-28.5 -72.5t-75.5 -31.5t-76 31.5t-29 72.5z" />
<glyph unicode="&#x10b;" horiz-adv-x="987" d="M98 479q0 109 35 202t101.5 160.5t160.5 105.5t211 36q98 -2 188.5 -42t161.5 -124l-110 -84q-35 53 -97.5 90t-142.5 37q-84 2 -150.5 -26.5t-113.5 -80t-71.5 -122t-24.5 -152.5t24.5 -152.5t71.5 -121.5t113.5 -80t150.5 -27q80 0 142.5 37t97.5 90l110 -84 q-72 -84 -161.5 -124t-188.5 -42q-117 -2 -211 36t-160.5 105.5t-101.5 161t-35 201.5zM475 1346q0 41 29 72.5t76 31.5t75.5 -32t28.5 -72q0 -41 -28.5 -73t-75.5 -32t-76 32t-29 73z" />
<glyph unicode="&#x10c;" horiz-adv-x="1441" d="M98 725q0 166 57.5 305t159 240.5t239.5 159t300 57.5q135 0 270.5 -53.5t231.5 -176.5l-129 -96q-23 35 -62 70t-89 61.5t-107.5 43t-114.5 16.5q-139 0 -249.5 -51.5t-187.5 -137.5t-118 -199.5t-41 -238.5t41 -238.5t118 -199.5t187.5 -137.5t249.5 -51.5 q57 0 113.5 10.5t111 35t102.5 66.5t89 105l121 -86q-37 -55 -91.5 -104t-124 -85t-150.5 -56.5t-171 -20.5q-162 0 -300 57.5t-239.5 159t-159 240.5t-57.5 305zM516 1851h135l170 -221l170 221h135l-223 -295h-164z" />
<glyph unicode="&#x10d;" horiz-adv-x="987" d="M98 479q0 109 35 202t101.5 160.5t160.5 105.5t211 36q98 -2 188.5 -42t161.5 -124l-110 -84q-35 53 -97.5 90t-142.5 37q-84 2 -150.5 -26.5t-113.5 -80t-71.5 -122t-24.5 -152.5t24.5 -152.5t71.5 -121.5t113.5 -80t150.5 -27q80 0 142.5 37t97.5 90l110 -84 q-72 -84 -161.5 -124t-188.5 -42q-117 -2 -211 36t-160.5 105.5t-101.5 161t-35 201.5zM283 1450h135l170 -221l170 221h135l-223 -295h-164z" />
<glyph unicode="&#x10e;" horiz-adv-x="1517" d="M176 0v1450h481q135 0 271.5 -45t246 -136t177 -227.5t67.5 -316.5q0 -182 -67.5 -317.5t-177 -226.5t-245.5 -136t-272 -45h-481zM324 135h286q166 0 288 50.5t203 133t120 188t39 218.5t-39 218.5t-120 188t-203 133t-288 50.5h-286v-1180zM400 1851h135l170 -221 l170 221h135l-223 -295h-164z" />
<glyph unicode="&#x10f;" horiz-adv-x="1251" d="M82 479q0 109 38 201t105.5 159.5t160.5 105.5t206 38q47 0 99 -10t101.5 -32.5t94.5 -57.5t78 -84h4v749h135v-1548h-135v160h-4q-33 -49 -78 -84t-94.5 -57.5t-101.5 -33t-99 -10.5q-113 0 -206 38t-160.5 105.5t-105.5 160t-38 200.5zM229 479q0 -80 26 -149.5 t73 -120.5t113.5 -81t150.5 -30q82 0 152.5 30t122 81t80 120.5t28.5 149.5t-28.5 149.5t-80 121t-122 81t-152.5 29.5q-84 0 -150.5 -29.5t-113.5 -81t-73 -121t-26 -149.5zM1229 1071l127 379h146l-156 -379h-117z" />
<glyph unicode="&#x110;" horiz-adv-x="1517" d="M27 711v110h149v629h481q135 0 271.5 -45t246 -136t177 -227.5t67.5 -316.5q0 -182 -67.5 -317.5t-177 -226.5t-245.5 -136t-272 -45h-481v711h-149zM324 135h286q166 0 288 50.5t203 133t120 188t39 218.5t-39 218.5t-120 188t-203 133t-288 50.5h-286v-494h528v-110 h-528v-576z" />
<glyph unicode="&#x111;" horiz-adv-x="1251" d="M82 479q0 109 38 201t105.5 159.5t160.5 105.5t206 38q47 0 99 -10t101.5 -32.5t94.5 -57.5t78 -84h4v348h-408v106h408v295h135v-295h110v-106h-110v-1147h-135v160h-4q-33 -49 -78 -84t-94.5 -57.5t-101.5 -33t-99 -10.5q-113 0 -206 38t-160.5 105.5t-105.5 160 t-38 200.5zM229 479q0 -80 26 -149.5t73 -120.5t113.5 -81t150.5 -30q82 0 152.5 30t122 81t80 120.5t28.5 149.5t-28.5 149.5t-80 121t-122 81t-152.5 29.5q-84 0 -150.5 -29.5t-113.5 -81t-73 -121t-26 -149.5z" />
<glyph unicode="&#x112;" horiz-adv-x="1214" d="M197 0v1450h899v-135h-752v-494h703v-135h-703v-551h776v-135h-923zM379 1620v111h553v-111h-553z" />
<glyph unicode="&#x113;" d="M98 479q0 109 37 201t102.5 159.5t153.5 105.5t191 38q109 0 194.5 -39t144 -103.5t89 -151.5t30.5 -185v-62h-798q6 -72 34.5 -135t75.5 -109t108.5 -73t133.5 -27q109 0 187.5 50.5t119.5 115.5l105 -86q-86 -109 -189.5 -156t-222.5 -47q-106 0 -197.5 38t-157 105.5 t-103.5 160t-38 200.5zM246 553h647q0 137 -82 222t-229 85q-66 0 -127.5 -25.5t-107.5 -68.5t-73.5 -98.5t-27.5 -114.5zM299 1229v110h553v-110h-553z" />
<glyph unicode="&#x114;" horiz-adv-x="1214" d="M197 0v1450h899v-135h-752v-494h703v-135h-703v-551h776v-135h-923zM359 1839h90q14 -80 73.5 -120t137.5 -40t137 40t74 120h90q-8 -129 -91 -199.5t-210 -70.5t-210 70.5t-91 199.5z" />
<glyph unicode="&#x115;" d="M98 479q0 109 37 201t102.5 159.5t153.5 105.5t191 38q109 0 194.5 -39t144 -103.5t89 -151.5t30.5 -185v-62h-798q6 -72 34.5 -135t75.5 -109t108.5 -73t133.5 -27q109 0 187.5 50.5t119.5 115.5l105 -86q-86 -109 -189.5 -156t-222.5 -47q-106 0 -197.5 38t-157 105.5 t-103.5 160t-38 200.5zM246 553h647q0 137 -82 222t-229 85q-66 0 -127.5 -25.5t-107.5 -68.5t-73.5 -98.5t-27.5 -114.5zM287 1450h90q14 -80 73.5 -120t137.5 -40t137 40t74 120h90q-8 -129 -91 -199.5t-210 -70.5t-210 70.5t-91 199.5z" />
<glyph unicode="&#x116;" horiz-adv-x="1214" d="M197 0v1450h899v-135h-752v-494h703v-135h-703v-551h776v-135h-923zM571 1673q0 41 29 73t76 32t75.5 -32t28.5 -73t-28.5 -72.5t-75.5 -31.5t-76 31.5t-29 72.5z" />
<glyph unicode="&#x117;" d="M98 479q0 109 37 201t102.5 159.5t153.5 105.5t191 38q109 0 194.5 -39t144 -103.5t89 -151.5t30.5 -185v-62h-798q6 -72 34.5 -135t75.5 -109t108.5 -73t133.5 -27q109 0 187.5 50.5t119.5 115.5l105 -86q-86 -109 -189.5 -156t-222.5 -47q-106 0 -197.5 38t-157 105.5 t-103.5 160t-38 200.5zM246 553h647q0 137 -82 222t-229 85q-66 0 -127.5 -25.5t-107.5 -68.5t-73.5 -98.5t-27.5 -114.5zM487 1346q0 41 29 72.5t76 31.5t75.5 -32t28.5 -72q0 -41 -28.5 -73t-75.5 -32t-76 32t-29 73z" />
<glyph unicode="&#x118;" horiz-adv-x="1214" d="M197 0v1450h899v-135h-752v-494h703v-135h-703v-551h776v-135h-33q-68 -68 -104 -119q-41 -57 -41 -117q0 -43 31 -70.5t71 -27.5q29 0 56.5 11.5t48.5 33.5l39 -82q-35 -35 -84 -54t-100 -19q-37 0 -70 12t-58.5 35.5t-41 55.5t-15.5 71q0 43 16.5 83t43 75.5t59.5 68.5 q25 23 47 43h-788z" />
<glyph unicode="&#x119;" d="M98 479q0 109 37 201t102.5 159.5t153.5 105.5t191 38q109 0 194.5 -39t144 -103.5t89 -151.5t30.5 -185v-62h-798q6 -72 34.5 -135t75.5 -109t108.5 -73t133.5 -27q109 0 187.5 50.5t119.5 115.5l105 -86q-86 -109 -191 -155q-63 -29 -135 -39q-53 -57 -86 -103 q-41 -57 -41 -117q0 -43 30.5 -70.5t71.5 -27.5q29 0 56.5 11.5t48.5 33.5l39 -82q-35 -35 -84 -54t-101 -19q-37 0 -69.5 12t-58 35.5t-41 55.5t-15.5 71q0 43 16.5 83t43 75.5t59.5 68.5q10 10 20 18q-92 4 -174 37q-90 39 -155.5 106.5t-103.5 160t-38 200.5zM246 553 h647q0 137 -82 222t-229 85q-66 0 -127.5 -25.5t-107.5 -68.5t-73.5 -98.5t-27.5 -114.5z" />
<glyph unicode="&#x11a;" horiz-adv-x="1214" d="M197 0v1450h899v-135h-752v-494h703v-135h-703v-551h776v-135h-923zM357 1851h135l170 -221l170 221h135l-223 -295h-164z" />
<glyph unicode="&#x11b;" d="M98 479q0 109 37 201t102.5 159.5t153.5 105.5t191 38q109 0 194.5 -39t144 -103.5t89 -151.5t30.5 -185v-62h-798q6 -72 34.5 -135t75.5 -109t108.5 -73t133.5 -27q109 0 187.5 50.5t119.5 115.5l105 -86q-86 -109 -189.5 -156t-222.5 -47q-106 0 -197.5 38t-157 105.5 t-103.5 160t-38 200.5zM246 553h647q0 137 -82 222t-229 85q-66 0 -127.5 -25.5t-107.5 -68.5t-73.5 -98.5t-27.5 -114.5zM291 1450h135l170 -221l170 221h135l-223 -295h-164z" />
<glyph unicode="&#x11c;" horiz-adv-x="1593" d="M98 725q0 166 57.5 305t159 240.5t239.5 159t300 57.5q174 0 300 -48t224 -147l-110 -108q-74 78 -176.5 123t-237.5 45q-139 0 -249.5 -51.5t-187.5 -137.5t-118 -199.5t-41 -238.5t41 -238.5t118 -199.5t187.5 -137.5t249.5 -51.5q113 0 216.5 28t184.5 75v485h-346 v135h494v-710q-123 -72 -269.5 -110t-279.5 -38q-162 0 -300 57.5t-239.5 159t-159 240.5t-57.5 305zM533 1556l223 295h164l223 -295h-135l-170 222l-170 -222h-135z" />
<glyph unicode="&#x11d;" horiz-adv-x="1251" d="M98 487q0 104 37 194.5t101.5 158t153.5 105.5t196 38q43 0 91 -8t96 -28.5t95 -56.5t88 -91h5v159h135v-950q0 -78 -19.5 -166t-76 -161.5t-157 -123t-261.5 -49.5q-143 0 -256 47.5t-205 145.5l100 106q59 -80 154.5 -128t212.5 -48q102 0 174 30t116 81t63.5 119.5 t19.5 146.5v172h-5q-66 -98 -160 -139t-198 -41t-195.5 37t-159 101.5t-106.5 154.5t-39 194zM246 492q0 -76 27.5 -142.5t75.5 -117t112.5 -80t140.5 -29.5q74 0 140.5 26.5t117.5 74.5t79 116t26 152q0 76 -25 142t-72 116.5t-114.5 80t-151.5 29.5q-76 0 -140.5 -29.5 t-112.5 -80t-75.5 -116.5t-27.5 -142zM314 1155l223 295h164l223 -295h-135l-170 221l-170 -221h-135z" />
<glyph unicode="&#x11e;" horiz-adv-x="1593" d="M98 725q0 166 57.5 305t159 240.5t239.5 159t300 57.5q174 0 300 -48t224 -147l-110 -108q-74 78 -176.5 123t-237.5 45q-139 0 -249.5 -51.5t-187.5 -137.5t-118 -199.5t-41 -238.5t41 -238.5t118 -199.5t187.5 -137.5t249.5 -51.5q113 0 216.5 28t184.5 75v485h-346 v135h494v-710q-123 -72 -269.5 -110t-279.5 -38q-162 0 -300 57.5t-239.5 159t-159 240.5t-57.5 305zM539 1839h90q14 -80 73.5 -120t137.5 -40t137 40t74 120h90q-8 -129 -91 -199.5t-210 -70.5t-210 70.5t-91 199.5z" />
<glyph unicode="&#x11f;" horiz-adv-x="1251" d="M98 487q0 104 37 194.5t101.5 158t153.5 105.5t196 38q43 0 91 -8t96 -28.5t95 -56.5t88 -91h5v159h135v-950q0 -78 -19.5 -166t-76 -161.5t-157 -123t-261.5 -49.5q-143 0 -256 47.5t-205 145.5l100 106q59 -80 154.5 -128t212.5 -48q102 0 174 30t116 81t63.5 119.5 t19.5 146.5v172h-5q-66 -98 -160 -139t-198 -41t-195.5 37t-159 101.5t-106.5 154.5t-39 194zM246 492q0 -76 27.5 -142.5t75.5 -117t112.5 -80t140.5 -29.5q74 0 140.5 26.5t117.5 74.5t79 116t26 152q0 76 -25 142t-72 116.5t-114.5 80t-151.5 29.5q-76 0 -140.5 -29.5 t-112.5 -80t-75.5 -116.5t-27.5 -142zM326 1450h90q14 -80 73.5 -120t137.5 -40t137 40t74 120h90q-8 -129 -91 -199.5t-210 -70.5t-210 70.5t-91 199.5z" />
<glyph unicode="&#x120;" horiz-adv-x="1593" d="M98 725q0 166 57.5 305t159 240.5t239.5 159t300 57.5q174 0 300 -48t224 -147l-110 -108q-74 78 -176.5 123t-237.5 45q-139 0 -249.5 -51.5t-187.5 -137.5t-118 -199.5t-41 -238.5t41 -238.5t118 -199.5t187.5 -137.5t249.5 -51.5q113 0 216.5 28t184.5 75v485h-346 v135h494v-710q-123 -72 -269.5 -110t-279.5 -38q-162 0 -300 57.5t-239.5 159t-159 240.5t-57.5 305zM762 1673q0 41 29 73t76 32t75.5 -32t28.5 -73t-28.5 -72.5t-75.5 -31.5t-76 31.5t-29 72.5z" />
<glyph unicode="&#x121;" horiz-adv-x="1251" d="M98 487q0 104 37 194.5t101.5 158t153.5 105.5t196 38q43 0 91 -8t96 -28.5t95 -56.5t88 -91h5v159h135v-950q0 -78 -19.5 -166t-76 -161.5t-157 -123t-261.5 -49.5q-143 0 -256 47.5t-205 145.5l100 106q59 -80 154.5 -128t212.5 -48q102 0 174 30t116 81t63.5 119.5 t19.5 146.5v172h-5q-66 -98 -160 -139t-198 -41t-195.5 37t-159 101.5t-106.5 154.5t-39 194zM246 492q0 -76 27.5 -142.5t75.5 -117t112.5 -80t140.5 -29.5q74 0 140.5 26.5t117.5 74.5t79 116t26 152q0 76 -25 142t-72 116.5t-114.5 80t-151.5 29.5q-76 0 -140.5 -29.5 t-112.5 -80t-75.5 -116.5t-27.5 -142zM524 1346q0 41 29 72.5t76 31.5t75.5 -32t28.5 -72q0 -41 -28.5 -73t-75.5 -32t-76 32t-29 73z" />
<glyph unicode="&#x122;" horiz-adv-x="1593" d="M98 725q0 166 57.5 305t159 240.5t239.5 159t300 57.5q174 0 300 -48t224 -147l-110 -108q-74 78 -176.5 123t-237.5 45q-139 0 -249.5 -51.5t-187.5 -137.5t-118 -199.5t-41 -238.5t41 -238.5t118 -199.5t187.5 -137.5t249.5 -51.5q113 0 216.5 28t184.5 75v485h-346 v135h494v-710q-123 -72 -269.5 -110t-279.5 -38q-162 0 -300 57.5t-239.5 159t-159 240.5t-57.5 305zM686 -471l127 379h146l-156 -379h-117z" />
<glyph unicode="&#x123;" horiz-adv-x="1251" d="M98 487q0 104 37 194.5t101.5 158t153.5 105.5t196 38q43 0 91 -8t96 -28.5t95 -56.5t88 -91h5v159h135v-950q0 -78 -19.5 -166t-76 -161.5t-157 -123t-261.5 -49.5q-143 0 -256 47.5t-205 145.5l100 106q59 -80 154.5 -128t212.5 -48q102 0 174 30t116 81t63.5 119.5 t19.5 146.5v172h-5q-66 -98 -160 -139t-198 -41t-195.5 37t-159 101.5t-106.5 154.5t-39 194zM246 492q0 -76 27.5 -142.5t75.5 -117t112.5 -80t140.5 -29.5q74 0 140.5 26.5t117.5 74.5t79 116t26 152q0 76 -25 142t-72 116.5t-114.5 80t-151.5 29.5q-76 0 -140.5 -29.5 t-112.5 -80t-75.5 -116.5t-27.5 -142zM537 1155l155 379h117l-127 -379h-145z" />
<glyph unicode="&#x124;" horiz-adv-x="1478" d="M197 0v1450h147v-629h791v629h147v-1450h-147v686h-791v-686h-147zM437 1556l223 295h164l223 -295h-135l-170 222l-170 -222h-135z" />
<glyph unicode="&#x125;" d="M147 0v1548h136v-743h4q23 39 57.5 71.5t77.5 56t91 37t95 13.5q184 0 272.5 -97.5t88.5 -277.5v-608h-135v530q0 160 -55.5 245t-205.5 85q-10 0 -57 -8t-99 -45t-93 -110.5t-41 -204.5v-492h-136zM271 1630l223 295h164l223 -295h-135l-170 221l-170 -221h-135z" />
<glyph unicode="&#x126;" horiz-adv-x="1478" d="M197 0v1450h147v-338h791v338h147v-1450h-147v686h-791v-686h-147zM344 821h791v168h-791v-168z" />
<glyph unicode="&#x127;" d="M25 1145v108h122v295h136v-295h395v-108h-395v-340h4q23 39 57.5 71.5t77.5 56t91 37t95 13.5q184 0 272.5 -97.5t88.5 -277.5v-608h-135v530q0 160 -55.5 245t-205.5 85q-10 0 -57 -8t-99 -45t-93 -110.5t-41 -204.5v-492h-136v1145h-122z" />
<glyph unicode="&#x128;" horiz-adv-x="540" d="M-59 1579q6 39 19.5 78t36 68.5t54 48t78.5 18.5q37 0 75 -14.5t75 -32.5q37 -16 71.5 -31.5t65.5 -15.5q47 0 68.5 31.5t31.5 70.5h89q-6 -41 -19.5 -79t-36 -67.5t-55.5 -48t-78 -18.5q-37 0 -75 15.5t-74 31.5q-35 18 -70 32.5t-68 14.5q-47 0 -68.5 -31.5 t-31.5 -70.5h-88zM197 0v1450h147v-1450h-147z" />
<glyph unicode="&#x129;" horiz-adv-x="491" d="M-82 1180q6 39 19.5 77.5t36 68.5t54 48.5t78.5 18.5q37 0 75 -14.5t75 -32.5q37 -16 71.5 -32t65.5 -16q47 0 68.5 32t31.5 71h89q-6 -41 -19.5 -79t-36 -67.5t-55.5 -48t-78 -18.5q-37 0 -75 15.5t-74 31.5q-35 18 -70 32.5t-68 14.5q-47 0 -68.5 -31.5t-31.5 -70.5 h-88zM178 0v958h135v-958h-135z" />
<glyph unicode="&#x12a;" horiz-adv-x="540" d="M-8 1620v111h553v-111h-553zM197 0v1450h147v-1450h-147z" />
<glyph unicode="&#x12b;" horiz-adv-x="491" d="M-29 1229v110h553v-110h-553zM178 0v958h135v-958h-135z" />
<glyph unicode="&#x12e;" horiz-adv-x="540" d="M39 -270q0 43 16.5 83t43 75.5t59.5 68.5q25 23 47 43h-8v1450h147v-1450h-37q-68 -68 -104 -119q-41 -57 -41 -117q0 -43 30.5 -70.5t71.5 -27.5q29 0 56.5 11.5t48.5 33.5l39 -82q-35 -35 -84.5 -54t-100.5 -19q-37 0 -69.5 12t-58 35.5t-41 55.5t-15.5 71z" />
<glyph unicode="&#x12f;" horiz-adv-x="491" d="M16 -270q0 43 16.5 83t43 75.5t59.5 68.5q25 23 47 43h-4v958h135v-958h-28q-68 -68 -105 -119q-41 -57 -41 -117q0 -43 31 -70.5t72 -27.5q29 0 56.5 11.5t47.5 33.5l39 -82q-35 -35 -84 -54t-100 -19q-37 0 -70 12t-58.5 35.5t-41 55.5t-15.5 71zM147 1327 q0 43 31 70.5t68 27.5t67.5 -27.5t30.5 -70.5t-30.5 -70.5t-67.5 -27.5t-68 27.5t-31 70.5z" />
<glyph unicode="&#x130;" horiz-adv-x="540" d="M168 1673q0 41 29 73t76 32t75.5 -32t28.5 -73t-28.5 -72.5t-75.5 -31.5t-76 31.5t-29 72.5zM197 0v1450h147v-1450h-147z" />
<glyph unicode="&#x131;" horiz-adv-x="491" d="M178 0v958h135v-958h-135z" />
<glyph unicode="&#x132;" horiz-adv-x="1409" d="M197 0v1450h147v-1450h-147zM451 266l149 31q20 -92 75.5 -145.5t154.5 -53.5q80 0 130 32t77.5 82t38 114.5t10.5 132.5v991h147v-1053q0 -74 -19.5 -150.5t-67.5 -139t-126 -103.5t-195 -41q-150 0 -250 77t-124 226z" />
<glyph unicode="&#x133;" horiz-adv-x="972" d="M147 1327q0 43 31 70.5t68 27.5t67.5 -27.5t30.5 -70.5t-30.5 -70.5t-67.5 -27.5t-68 27.5t-31 70.5zM178 0v958h135v-958h-135zM418 -471l18 117l6 -2q16 -4 35.5 -8.5t36.5 -4.5q49 0 78.5 18.5t44 48.5t18.5 64.5t4 69.5v1126h135v-1148q0 -20 -2 -70.5t-25.5 -102 t-79.5 -90.5t-163 -39q-57 0 -106 21zM628 1327q0 43 31 70.5t68 27.5t67.5 -27.5t30.5 -70.5t-30.5 -70.5t-67.5 -27.5t-68 27.5t-31 70.5z" />
<glyph unicode="&#x134;" horiz-adv-x="987" d="M29 266l149 31q20 -92 75.5 -145.5t154.5 -53.5q80 0 130 32t77.5 82t38 114.5t10.5 132.5v991h147v-1053q0 -74 -19.5 -150.5t-67.5 -139t-126 -103.5t-195 -41q-150 0 -250 77t-124 226zM428 1556l223 295h164l223 -295h-135l-170 222l-170 -222h-135z" />
<glyph unicode="&#x135;" horiz-adv-x="491" d="M-63 -471l18 117l6 -2q16 -4 35.5 -8.5t36.5 -4.5q49 0 78.5 18.5t44 48.5t18.5 64.5t4 69.5v1126h135v-1148q0 -20 -2 -70.5t-25.5 -102t-79.5 -90.5t-163 -39q-57 0 -106 21zM-61 1155l223 295h164l223 -295h-135l-170 221l-170 -221h-135z" />
<glyph unicode="&#x136;" horiz-adv-x="1290" d="M197 0v1450h147v-629h2h19l682 629h210l-731 -657l772 -793h-217l-712 748h-23h-2v-748h-147zM473 -471l127 379h146l-156 -379h-117z" />
<glyph unicode="&#x137;" horiz-adv-x="987" d="M147 0v1548h136v-1022l452 432h203l-477 -438l528 -520h-209l-497 504v-504h-136zM288 -471l127 379h146l-156 -379h-117z" />
<glyph unicode="&#x139;" horiz-adv-x="1024" d="M197 0v1450h147v-1315h676v-135h-823zM223 1556l205 295h186l-270 -295h-121z" />
<glyph unicode="&#x13a;" horiz-adv-x="491" d="M178 0v1548h135v-1548h-135zM178 1622l205 295h186l-270 -295h-121z" />
<glyph unicode="&#x13b;" horiz-adv-x="1024" d="M197 0v1450h147v-1315h676v-135h-823zM430 -471l127 379h146l-156 -379h-117z" />
<glyph unicode="&#x13c;" horiz-adv-x="491" d="M55 -471l127 379h146l-156 -379h-117zM178 0v1548h135v-1548h-135z" />
<glyph unicode="&#x13d;" horiz-adv-x="1024" d="M197 0v1450h147v-1315h676v-135h-823zM522 1071l127 379h146l-156 -379h-117z" />
<glyph unicode="&#x13e;" horiz-adv-x="491" d="M178 0v1548h135v-1548h-135zM414 1071l127 379h146l-156 -379h-117z" />
<glyph unicode="&#x13f;" horiz-adv-x="1024" d="M197 0v1450h147v-1315h676v-135h-823zM659 834q0 41 29 72.5t76 31.5t75.5 -32t28.5 -72q0 -41 -28.5 -73t-75.5 -32t-76 32t-29 73z" />
<glyph unicode="&#x140;" horiz-adv-x="614" d="M178 0v1548h135v-1548h-135zM440 842q0 41 29 72.5t76 31.5t75.5 -32t28.5 -72q0 -41 -28.5 -73t-75.5 -32t-76 32t-29 73z" />
<glyph unicode="&#x141;" horiz-adv-x="1024" d="M29 328v143l168 143v836h147v-709l442 381v-143l-442 -381v-463h676v-135h-823v471z" />
<glyph unicode="&#x142;" horiz-adv-x="491" d="M12 479v150l166 168v751h135v-610l166 172v-149l-166 -170v-791h-135v649z" />
<glyph unicode="&#x143;" horiz-adv-x="1593" d="M197 0v1450h184l864 -1229h4v1229h148v-1450h-185l-864 1241h-4v-1241h-147zM699 1556l205 295h186l-270 -295h-121z" />
<glyph unicode="&#x144;" d="M137 958h139q4 -39 5.5 -76.5t1.5 -76.5h4q23 39 57.5 71.5t77.5 56t91 37t95 13.5q184 0 272.5 -97.5t88.5 -277.5v-608h-135v530q0 160 -55.5 245t-205.5 85q-10 0 -57 -8t-99 -45t-93 -110.5t-41 -204.5v-492h-136v748q0 39 -3 98t-7 112zM475 1155l205 295h186 l-270 -295h-121z" />
<glyph unicode="&#x145;" horiz-adv-x="1593" d="M197 0v1450h184l864 -1229h4v1229h148v-1450h-185l-864 1241h-4v-1241h-147zM616 -471l127 379h146l-156 -379h-117z" />
<glyph unicode="&#x146;" d="M137 958h139q4 -39 5.5 -76.5t1.5 -76.5h4q23 39 57.5 71.5t77.5 56t91 37t95 13.5q184 0 272.5 -97.5t88.5 -277.5v-608h-135v530q0 160 -55.5 245t-205.5 85q-10 0 -57 -8t-99 -45t-93 -110.5t-41 -204.5v-492h-136v748q0 39 -3 98t-7 112zM387 -471l127 379h146 l-156 -379h-117z" />
<glyph unicode="&#x147;" horiz-adv-x="1593" d="M197 0v1450h184l864 -1229h4v1229h148v-1450h-185l-864 1241h-4v-1241h-147zM496 1851h135l170 -221l170 221h135l-223 -295h-164z" />
<glyph unicode="&#x148;" d="M137 958h139q4 -39 5.5 -76.5t1.5 -76.5h4q23 39 57.5 71.5t77.5 56t91 37t95 13.5q184 0 272.5 -97.5t88.5 -277.5v-608h-135v530q0 160 -55.5 245t-205.5 85q-10 0 -57 -8t-99 -45t-93 -110.5t-41 -204.5v-492h-136v748q0 39 -3 98t-7 112zM256 1450h135l170 -221 l170 221h135l-223 -295h-164z" />
<glyph unicode="&#x149;" d="M39 1071l127 379h146l-156 -379h-117zM137 958h139q4 -39 5.5 -76.5t1.5 -76.5h4q23 39 57.5 71.5t77.5 56t91 37t95 13.5q184 0 272.5 -97.5t88.5 -277.5v-608h-135v530q0 160 -55.5 245t-205.5 85q-10 0 -57 -8t-99 -45t-93 -110.5t-41 -204.5v-492h-136v748 q0 39 -3 98t-7 112z" />
<glyph unicode="&#x14c;" horiz-adv-x="1708" d="M98 725q0 166 57.5 305t159 240.5t239.5 159t300 57.5t300 -57.5t239.5 -159t159 -240.5t57.5 -305t-57.5 -305t-159 -240.5t-239.5 -159t-300 -57.5t-300 57.5t-239.5 159t-159 240.5t-57.5 305zM258 725q0 -125 41 -238.5t118 -199.5t187.5 -137.5t249.5 -51.5 t249.5 51.5t187.5 137.5t118 199.5t41 238.5t-41 238.5t-118 199.5t-187.5 137.5t-249.5 51.5t-249.5 -51.5t-187.5 -137.5t-118 -199.5t-41 -238.5zM579 1620v111h553v-111h-553z" />
<glyph unicode="&#x14d;" horiz-adv-x="1214" d="M98 479q0 109 38 201t105.5 159.5t161 105.5t203.5 38q113 0 206 -38t160.5 -105.5t105.5 -159.5t38 -201t-38 -201t-105.5 -159.5t-160.5 -105.5t-206 -38q-111 0 -204 38t-160.5 105.5t-105.5 160t-38 200.5zM246 479q0 -80 25.5 -149.5t71.5 -120.5t112.5 -81 t150.5 -30t150.5 30t114 81t73 120.5t25.5 149.5t-25.5 149.5t-73 121t-114 81t-150.5 29.5t-150.5 -29.5t-112.5 -81t-71.5 -121t-25.5 -149.5zM331 1229v110h553v-110h-553z" />
<glyph unicode="&#x14e;" horiz-adv-x="1708" d="M98 725q0 166 57.5 305t159 240.5t239.5 159t300 57.5t300 -57.5t239.5 -159t159 -240.5t57.5 -305t-57.5 -305t-159 -240.5t-239.5 -159t-300 -57.5t-300 57.5t-239.5 159t-159 240.5t-57.5 305zM258 725q0 -125 41 -238.5t118 -199.5t187.5 -137.5t249.5 -51.5 t249.5 51.5t187.5 137.5t118 199.5t41 238.5t-41 238.5t-118 199.5t-187.5 137.5t-249.5 51.5t-249.5 -51.5t-187.5 -137.5t-118 -199.5t-41 -238.5zM551 1839h90q14 -80 73.5 -120t137.5 -40t137 40t74 120h90q-8 -129 -91 -199.5t-210 -70.5t-210 70.5t-91 199.5z" />
<glyph unicode="&#x14f;" horiz-adv-x="1214" d="M98 479q0 109 38 201t105.5 159.5t161 105.5t203.5 38q113 0 206 -38t160.5 -105.5t105.5 -159.5t38 -201t-38 -201t-105.5 -159.5t-160.5 -105.5t-206 -38q-111 0 -204 38t-160.5 105.5t-105.5 160t-38 200.5zM246 479q0 -80 25.5 -149.5t71.5 -120.5t112.5 -81 t150.5 -30t150.5 30t114 81t73 120.5t25.5 149.5t-25.5 149.5t-73 121t-114 81t-150.5 29.5t-150.5 -29.5t-112.5 -81t-71.5 -121t-25.5 -149.5zM307 1450h90q14 -80 73.5 -120t137.5 -40t137 40t74 120h90q-8 -129 -91 -199.5t-210 -70.5t-210 70.5t-91 199.5z" />
<glyph unicode="&#x150;" horiz-adv-x="1708" d="M98 725q0 166 57.5 305t159 240.5t239.5 159t300 57.5t300 -57.5t239.5 -159t159 -240.5t57.5 -305t-57.5 -305t-159 -240.5t-239.5 -159t-300 -57.5t-300 57.5t-239.5 159t-159 240.5t-57.5 305zM258 725q0 -125 41 -238.5t118 -199.5t187.5 -137.5t249.5 -51.5 t249.5 51.5t187.5 137.5t118 199.5t41 238.5t-41 238.5t-118 199.5t-187.5 137.5t-249.5 51.5t-249.5 -51.5t-187.5 -137.5t-118 -199.5t-41 -238.5zM530 1556l207 295h187l-273 -295h-121zM942 1556l205 295h186l-270 -295h-121z" />
<glyph unicode="&#x151;" horiz-adv-x="1214" d="M98 479q0 109 38 201t105.5 159.5t161 105.5t203.5 38q113 0 206 -38t160.5 -105.5t105.5 -159.5t38 -201t-38 -201t-105.5 -159.5t-160.5 -105.5t-206 -38q-111 0 -204 38t-160.5 105.5t-105.5 160t-38 200.5zM246 479q0 -80 25.5 -149.5t71.5 -120.5t112.5 -81 t150.5 -30t150.5 30t114 81t73 120.5t25.5 149.5t-25.5 149.5t-73 121t-114 81t-150.5 29.5t-150.5 -29.5t-112.5 -81t-71.5 -121t-25.5 -149.5zM290 1155l207 295h187l-273 -295h-121zM702 1155l205 295h186l-270 -295h-121z" />
<glyph unicode="&#x152;" horiz-adv-x="1933" d="M129 727q0 182 68.5 318.5t180 226.5t254 134t288.5 44h895v-135h-603v-494h578v-135h-578v-551h627v-135h-915q-219 0 -370 69.5t-246 176t-137 235.5t-42 246zM289 721q0 -43 10 -103.5t35.5 -125t70 -129t115 -114.5t168.5 -82t232 -32h145v1180h-117q-141 0 -262 -38 t-209 -112.5t-138 -186.5t-50 -257z" />
<glyph unicode="&#x153;" horiz-adv-x="1888" d="M98 479q0 109 37 201t102.5 159.5t154.5 105.5t192 38q117 0 227.5 -50t177.5 -165q68 104 153 159.5t214 55.5q106 0 187 -37t136.5 -101.5t83 -152.5t27.5 -188v-62h-719v-18q0 -66 19.5 -125t55.5 -103t88 -71t118 -27q61 0 107 12.5t81 34t61.5 50t49.5 59.5l106 -84 q-78 -100 -183.5 -147.5t-217.5 -47.5q-117 0 -216.5 53.5t-156.5 164.5q-41 -59 -91 -100.5t-103.5 -67t-106.5 -38t-98 -12.5q-111 0 -200 38t-152.5 105.5t-98.5 160t-35 200.5zM246 479q0 -80 24.5 -149.5t69.5 -120.5t107.5 -81t136.5 -30q82 0 145.5 31t106.5 83 t65.5 120.5t22.5 146.5q0 76 -22.5 145.5t-65.5 122t-106.5 83t-145.5 30.5q-74 0 -136.5 -29.5t-107.5 -81t-69.5 -121t-24.5 -149.5zM1071 553h584q0 68 -20.5 124t-59.5 97t-93.5 63.5t-121.5 22.5q-61 0 -113.5 -23.5t-91.5 -64.5t-61.5 -97.5t-22.5 -121.5z" />
<glyph unicode="&#x154;" horiz-adv-x="1214" d="M197 0v1450h446q221 0 349 -96.5t128 -290.5q0 -152 -95 -255t-275 -120l417 -688h-180l-397 674h-246v-674h-147zM344 809h262q98 0 167 20.5t110 54.5t59.5 80t18.5 99q0 51 -18.5 97t-59.5 81t-109.5 54.5t-167.5 19.5h-262v-506zM498 1556l205 295h186l-270 -295 h-121z" />
<glyph unicode="&#x155;" horiz-adv-x="679" d="M154 958h133v-178h4q14 39 40.5 75t64.5 64.5t88.5 46t113.5 17.5q57 0 100 -12l-26 -133q-27 10 -78 10q-78 0 -133 -30t-92 -76t-54.5 -99t-17.5 -102v-541h-135v659q0 63 -3 129t-5 170zM281 1155l205 295h186l-270 -295h-121z" />
<glyph unicode="&#x156;" horiz-adv-x="1214" d="M197 0v1450h446q221 0 349 -96.5t128 -290.5q0 -152 -95 -255t-275 -120l417 -688h-180l-397 674h-246v-674h-147zM344 809h262q98 0 167 20.5t110 54.5t59.5 80t18.5 99q0 51 -18.5 97t-59.5 81t-109.5 54.5t-167.5 19.5h-262v-506zM448 -471l127 379h146l-156 -379 h-117z" />
<glyph unicode="&#x157;" horiz-adv-x="679" d="M43 -471l127 379h146l-156 -379h-117zM154 958h133v-178h4q14 39 40.5 75t64.5 64.5t88.5 46t113.5 17.5q57 0 100 -12l-26 -133q-27 10 -78 10q-78 0 -133 -30t-92 -76t-54.5 -99t-17.5 -102v-541h-135v659q0 63 -3 129t-5 170z" />
<glyph unicode="&#x158;" horiz-adv-x="1214" d="M197 0v1450h446q221 0 349 -96.5t128 -290.5q0 -152 -95 -255t-275 -120l417 -688h-180l-397 674h-246v-674h-147zM297 1851h135l170 -221l170 221h135l-223 -295h-164zM344 809h262q98 0 167 20.5t110 54.5t59.5 80t18.5 99q0 51 -18.5 97t-59.5 81t-109.5 54.5 t-167.5 19.5h-262v-506z" />
<glyph unicode="&#x159;" horiz-adv-x="679" d="M62 1450h135l170 -221l170 221h135l-223 -295h-164zM154 958h133v-178h4q14 39 40.5 75t64.5 64.5t88.5 46t113.5 17.5q57 0 100 -12l-26 -133q-27 10 -78 10q-78 0 -133 -30t-92 -76t-54.5 -99t-17.5 -102v-541h-135v659q0 63 -3 129t-5 170z" />
<glyph unicode="&#x15a;" d="M102 178l134 96q47 -80 131 -128t198 -48q55 0 110.5 17.5t99.5 51.5t73 83t29 112q0 76 -32 126.5t-84 84t-119 56t-137.5 45t-137 51.5t-118.5 73t-84 110.5t-32 166.5q0 104 40 182t106.5 129.5t150.5 76t172 24.5q123 0 223.5 -39t186.5 -137l-129 -101 q-96 141 -281 142q-57 0 -112.5 -15.5t-99.5 -47.5t-70.5 -82t-26.5 -117q0 -98 55 -152.5t137 -89.5t179.5 -62.5t179.5 -73.5t137 -122t55 -207q0 -98 -42 -177t-110.5 -132.5t-153.5 -82t-171 -28.5q-133 0 -253 50t-204 165zM514 1556l205 295h186l-270 -295h-121z" />
<glyph unicode="&#x15b;" horiz-adv-x="872" d="M68 162l116 80q41 -66 103.5 -105t148.5 -39q41 0 82 9.5t73 29t51.5 50t19.5 71.5q0 72 -53.5 103.5t-129.5 50.5l-131 30q-25 6 -66.5 20.5t-81.5 43.5t-69 75t-29 113q0 74 30 129.5t80 90t113.5 52t131.5 17.5q100 0 186 -39t133 -133l-121 -80q-31 59 -82 94 t-124 35q-35 0 -71 -8t-64.5 -25.5t-46 -44t-17.5 -65.5q0 -68 47 -98.5t141 -53.5l137 -33q100 -23 167 -91t67 -171q0 -78 -32 -134t-84 -92t-119.5 -52.5t-137.5 -16.5q-111 0 -206 42t-162 145zM365 1155l205 295h186l-270 -295h-121z" />
<glyph unicode="&#x15c;" d="M102 178l134 96q47 -80 131 -128t198 -48q55 0 110.5 17.5t99.5 51.5t73 83t29 112q0 76 -32 126.5t-84 84t-119 56t-137.5 45t-137 51.5t-118.5 73t-84 110.5t-32 166.5q0 104 40 182t106.5 129.5t150.5 76t172 24.5q123 0 223.5 -39t186.5 -137l-129 -101 q-96 141 -281 142q-57 0 -112.5 -15.5t-99.5 -47.5t-70.5 -82t-26.5 -117q0 -98 55 -152.5t137 -89.5t179.5 -62.5t179.5 -73.5t137 -122t55 -207q0 -98 -42 -177t-110.5 -132.5t-153.5 -82t-171 -28.5q-133 0 -253 50t-204 165zM308 1556l223 295h164l223 -295h-135 l-170 222l-170 -222h-135z" />
<glyph unicode="&#x15d;" horiz-adv-x="872" d="M68 162l116 80q41 -66 103.5 -105t148.5 -39q41 0 82 9.5t73 29t51.5 50t19.5 71.5q0 72 -53.5 103.5t-129.5 50.5l-131 30q-25 6 -66.5 20.5t-81.5 43.5t-69 75t-29 113q0 74 30 129.5t80 90t113.5 52t131.5 17.5q100 0 186 -39t133 -133l-121 -80q-31 59 -82 94 t-124 35q-35 0 -71 -8t-64.5 -25.5t-46 -44t-17.5 -65.5q0 -68 47 -98.5t141 -53.5l137 -33q100 -23 167 -91t67 -171q0 -78 -32 -134t-84 -92t-119.5 -52.5t-137.5 -16.5q-111 0 -206 42t-162 145zM136 1155l223 295h164l223 -295h-135l-170 221l-170 -221h-135z" />
<glyph unicode="&#x15e;" d="M102 178l134 96q47 -80 131 -128t198 -48q55 0 110.5 17.5t99.5 51.5t73 83t29 112q0 76 -32 126.5t-84 84t-119 56t-137.5 45t-137 51.5t-118.5 73t-84 110.5t-32 166.5q0 104 40 182t106.5 129.5t150.5 76t172 24.5q123 0 223.5 -39t186.5 -137l-129 -101 q-96 141 -281 142q-57 0 -112.5 -15.5t-99.5 -47.5t-70.5 -82t-26.5 -117q0 -98 55 -152.5t137 -89.5t179.5 -62.5t179.5 -73.5t137 -122t55 -207q0 -98 -42 -177t-110.5 -132.5t-154.5 -81.5q-57 -18 -117 -25l-65 -90l4 -2q16 6 33.5 10t40.5 4q61 0 109 -39.5t48 -113.5 q0 -47 -21.5 -82t-55 -56.5t-75.5 -31.5t-83 -10q-106 0 -199 49l33 73q70 -37 151 -36q45 0 86 20.5t41 71.5q0 8 -4 22.5t-14 27.5t-30.5 22.5t-51.5 9.5q-29 0 -51.5 -6.5t-42.5 -16.5l-37 35l100 137q-117 4 -223 47q-119 51 -203 166z" />
<glyph unicode="&#x15f;" horiz-adv-x="872" d="M68 162l116 80q41 -66 103.5 -105t148.5 -39q41 0 82 9.5t73 29t51.5 50t19.5 71.5q0 72 -53.5 103.5t-129.5 50.5l-131 30q-25 6 -66.5 20.5t-81.5 43.5t-69 75t-29 113q0 74 30 129.5t80 90t113.5 52t131.5 17.5q100 0 186 -39t133 -133l-121 -80q-31 59 -82 94 t-124 35q-35 0 -71 -8t-64.5 -25.5t-46 -44t-17.5 -65.5q0 -68 47 -98.5t141 -53.5l137 -33q100 -23 167 -91t67 -171q0 -78 -32 -134t-84 -92t-120 -52q-39 -8 -75 -12l-76 -103l4 -2q16 6 33.5 10t40.5 4q61 0 109 -39.5t48 -113.5q0 -47 -21.5 -82t-55 -56.5t-75.5 -31.5 t-83 -10q-106 0 -199 49l33 73q70 -37 152 -36q45 0 86 20.5t41 71.5q0 8 -4.5 22.5t-14.5 27.5t-30.5 22.5t-51.5 9.5q-29 0 -51.5 -6.5t-42.5 -16.5l-37 35l109 147q-98 6 -183 41q-94 43 -161 146z" />
<glyph unicode="&#x160;" d="M102 178l134 96q47 -80 131 -128t198 -48q55 0 110.5 17.5t99.5 51.5t73 83t29 112q0 76 -32 126.5t-84 84t-119 56t-137.5 45t-137 51.5t-118.5 73t-84 110.5t-32 166.5q0 104 40 182t106.5 129.5t150.5 76t172 24.5q123 0 223.5 -39t186.5 -137l-129 -101 q-96 141 -281 142q-57 0 -112.5 -15.5t-99.5 -47.5t-70.5 -82t-26.5 -117q0 -98 55 -152.5t137 -89.5t179.5 -62.5t179.5 -73.5t137 -122t55 -207q0 -98 -42 -177t-110.5 -132.5t-153.5 -82t-171 -28.5q-133 0 -253 50t-204 165zM265 1808h135l170 -221l170 221h135 l-223 -295h-164z" />
<glyph unicode="&#x161;" horiz-adv-x="872" d="M68 162l116 80q41 -66 103.5 -105t148.5 -39q41 0 82 9.5t73 29t51.5 50t19.5 71.5q0 72 -53.5 103.5t-129.5 50.5l-131 30q-25 6 -66.5 20.5t-81.5 43.5t-69 75t-29 113q0 74 30 129.5t80 90t113.5 52t131.5 17.5q100 0 186 -39t133 -133l-121 -80q-31 59 -82 94 t-124 35q-35 0 -71 -8t-64.5 -25.5t-46 -44t-17.5 -65.5q0 -68 47 -98.5t141 -53.5l137 -33q100 -23 167 -91t67 -171q0 -78 -32 -134t-84 -92t-119.5 -52.5t-137.5 -16.5q-111 0 -206 42t-162 145zM131 1450h135l170 -221l170 221h135l-223 -295h-164z" />
<glyph unicode="&#x162;" horiz-adv-x="1175" d="M29 1315v135h1118v-135h-485v-1315h-148v1315h-485zM407 -471l127 379h146l-156 -379h-117z" />
<glyph unicode="&#x163;" horiz-adv-x="679" d="M29 836v122h202v271h136v-271h276v-122h-276v-566q0 -53 10 -86.5t28.5 -52t44 -26t56.5 -7.5q35 0 71.5 10.5t67.5 26.5l6 -125q-76 -35 -182 -35q-39 0 -81 10.5t-77 39t-57.5 78t-22.5 128.5v605h-202zM213 -471l127 379h146l-156 -379h-117z" />
<glyph unicode="&#x164;" horiz-adv-x="1175" d="M29 1315v135h1118v-135h-485v-1315h-148v1315h-485zM283 1851h135l170 -221l170 221h135l-223 -295h-164z" />
<glyph unicode="&#x165;" horiz-adv-x="679" d="M29 836v122h202v271h136v-271h276v-122h-276v-566q0 -53 10 -86.5t28.5 -52t44 -26t56.5 -7.5q35 0 71.5 10.5t67.5 26.5l6 -125q-76 -35 -182 -35q-39 0 -81 10.5t-77 39t-57.5 78t-22.5 128.5v605h-202zM491 1071l127 379h146l-156 -379h-117z" />
<glyph unicode="&#x166;" horiz-adv-x="1175" d="M29 1315v135h1118v-135h-485v-367h448v-123h-448v-825h-148v825h-448v123h448v367h-485z" />
<glyph unicode="&#x167;" horiz-adv-x="679" d="M29 836v122h202v271h136v-271h276v-122h-276v-209h235v-109h-235v-248q0 -53 10 -86.5t28.5 -52t44 -26t56.5 -7.5q35 0 71.5 10.5t67.5 26.5l6 -125q-76 -35 -182 -35q-39 0 -81 10.5t-77 39t-57.5 78t-22.5 128.5v287h-159v109h159v209h-202z" />
<glyph unicode="&#x168;" horiz-adv-x="1404" d="M172 541v909h147v-893q0 -104 20.5 -179t54.5 -126t76 -81t84 -46t81 -21.5t67 -5.5q27 0 67 5.5t82 21.5t84 46t75.5 81t54 126t20.5 179v893h148v-909q0 -90 -21.5 -191.5t-81 -187.5t-163 -142.5t-265.5 -56.5q-164 0 -266 56.5t-161.5 142.5t-81 187.5t-21.5 191.5z M389 1579q6 39 19.5 78t36 68.5t54 48t78.5 18.5q37 0 75 -14.5t75 -32.5q37 -16 71.5 -31.5t65.5 -15.5q47 0 68.5 31.5t31.5 70.5h89q-6 -41 -19.5 -79t-36 -67.5t-55.5 -48t-78 -18.5q-37 0 -75 15.5t-74 31.5q-35 18 -70 32.5t-68 14.5q-47 0 -68.5 -31.5t-31.5 -70.5 h-88z" />
<glyph unicode="&#x169;" d="M147 350v608h136v-530q0 -80 12 -141.5t42 -103.5t80 -63.5t126 -21.5q10 0 57 8.5t99.5 45t93.5 110.5t41 205v491h135v-747q0 -39 3 -98.5t7 -112.5h-139q-4 39 -5 77t-1 77h-5q-23 -39 -57.5 -72t-77.5 -56.5t-91 -37t-95 -13.5q-184 0 -272.5 97.5t-88.5 277.5z M238 1180q6 39 19.5 77.5t36 68.5t54 48.5t78.5 18.5q37 0 75 -14.5t75 -32.5q37 -16 71.5 -32t65.5 -16q47 0 68.5 32t31.5 71h89q-6 -41 -19.5 -79t-36 -67.5t-55.5 -48t-78 -18.5q-37 0 -75 15.5t-74 31.5q-35 18 -70 32.5t-68 14.5q-47 0 -68.5 -31.5t-31.5 -70.5h-88z " />
<glyph unicode="&#x16a;" horiz-adv-x="1404" d="M172 541v909h147v-893q0 -104 20.5 -179t54.5 -126t76 -81t84 -46t81 -21.5t67 -5.5q27 0 67 5.5t82 21.5t84 46t75.5 81t54 126t20.5 179v893h148v-909q0 -90 -21.5 -191.5t-81 -187.5t-163 -142.5t-265.5 -56.5q-164 0 -266 56.5t-161.5 142.5t-81 187.5t-21.5 191.5z M430 1620v111h553v-111h-553z" />
<glyph unicode="&#x16b;" d="M147 350v608h136v-530q0 -80 12 -141.5t42 -103.5t80 -63.5t126 -21.5q10 0 57 8.5t99.5 45t93.5 110.5t41 205v491h135v-747q0 -39 3 -98.5t7 -112.5h-139q-4 39 -5 77t-1 77h-5q-23 -39 -57.5 -72t-77.5 -56.5t-91 -37t-95 -13.5q-184 0 -272.5 97.5t-88.5 277.5z M284 1229v110h553v-110h-553z" />
<glyph unicode="&#x16c;" horiz-adv-x="1404" d="M172 541v909h147v-893q0 -104 20.5 -179t54.5 -126t76 -81t84 -46t81 -21.5t67 -5.5q27 0 67 5.5t82 21.5t84 46t75.5 81t54 126t20.5 179v893h148v-909q0 -90 -21.5 -191.5t-81 -187.5t-163 -142.5t-265.5 -56.5q-164 0 -266 56.5t-161.5 142.5t-81 187.5t-21.5 191.5z M406 1839h90q14 -80 73.5 -120t137.5 -40t137 40t74 120h90q-8 -129 -91 -199.5t-210 -70.5t-210 70.5t-91 199.5z" />
<glyph unicode="&#x16d;" d="M147 350v608h136v-530q0 -80 12 -141.5t42 -103.5t80 -63.5t126 -21.5q10 0 57 8.5t99.5 45t93.5 110.5t41 205v491h135v-747q0 -39 3 -98.5t7 -112.5h-139q-4 39 -5 77t-1 77h-5q-23 -39 -57.5 -72t-77.5 -56.5t-91 -37t-95 -13.5q-184 0 -272.5 97.5t-88.5 277.5z M264 1450h90q14 -80 73.5 -120t137.5 -40t137 40t74 120h90q-8 -129 -91 -199.5t-210 -70.5t-210 70.5t-91 199.5z" />
<glyph unicode="&#x16e;" horiz-adv-x="1404" d="M172 541v909h147v-893q0 -104 20.5 -179t54.5 -126t76 -81t84 -46t81 -21.5t67 -5.5q27 0 67 5.5t82 21.5t84 46t75.5 81t54 126t20.5 179v893h148v-909q0 -90 -21.5 -191.5t-81 -187.5t-163 -142.5t-265.5 -56.5q-164 0 -266 56.5t-161.5 142.5t-81 187.5t-21.5 191.5z M514 1710q0 41 15.5 77t43 61.5t62.5 41t76 15.5q39 0 74.5 -15.5t63.5 -41t43 -61.5t15 -77t-15 -77t-43 -62.5t-63.5 -40.5t-74.5 -14q-41 0 -76 14t-62.5 40.5t-43 62.5t-15.5 77zM588 1710q0 -51 36 -86t87 -35t87 35t36 86t-36 86t-87 35t-87 -35t-36 -86z" />
<glyph unicode="&#x16f;" d="M147 350v608h136v-530q0 -80 12 -141.5t42 -103.5t80 -63.5t126 -21.5q10 0 57 8.5t99.5 45t93.5 110.5t41 205v491h135v-747q0 -39 3 -98.5t7 -112.5h-139q-4 39 -5 77t-1 77h-5q-23 -39 -57.5 -72t-77.5 -56.5t-91 -37t-95 -13.5q-184 0 -272.5 97.5t-88.5 277.5z M362 1331q0 41 15.5 77t43 61.5t62.5 41t76 15.5q39 0 74.5 -15.5t63.5 -41t43 -61.5t15 -77t-15 -76.5t-43 -62.5t-63.5 -41t-74.5 -14q-41 0 -76 14t-62.5 41t-43 62.5t-15.5 76.5zM436 1331q0 -51 36 -86t87 -35t87 35t36 86t-36 86t-87 35t-87 -35t-36 -86z" />
<glyph unicode="&#x170;" horiz-adv-x="1404" d="M172 541v909h147v-893q0 -104 20.5 -179t54.5 -126t76 -81t84 -46t81 -21.5t67 -5.5q27 0 67 5.5t82 21.5t84 46t75.5 81t54 126t20.5 179v893h148v-909q0 -90 -21.5 -191.5t-81 -187.5t-163 -142.5t-265.5 -56.5q-164 0 -266 56.5t-161.5 142.5t-81 187.5t-21.5 191.5z M395 1556l207 295h187l-273 -295h-121zM807 1556l205 295h186l-270 -295h-121z" />
<glyph unicode="&#x171;" d="M147 350v608h136v-530q0 -80 12 -141.5t42 -103.5t80 -63.5t126 -21.5q10 0 57 8.5t99.5 45t93.5 110.5t41 205v491h135v-747q0 -39 3 -98.5t7 -112.5h-139q-4 39 -5 77t-1 77h-5q-23 -39 -57.5 -72t-77.5 -56.5t-91 -37t-95 -13.5q-184 0 -272.5 97.5t-88.5 277.5z M282 1155l207 295h187l-273 -295h-121zM694 1155l205 295h186l-270 -295h-121z" />
<glyph unicode="&#x172;" horiz-adv-x="1404" d="M172 541v909h147v-893q0 -104 20.5 -179t54.5 -126t76 -81t84 -46t81 -21.5t67 -5.5q27 0 67 5.5t82 21.5t84 46t75.5 81t54 126t20.5 179v893h148v-909q0 -90 -21.5 -191.5t-81 -187.5t-163.5 -144q-78 -41 -189 -51q-45 -49 -71 -86q-41 -57 -41 -117q0 -43 30.5 -70.5 t71.5 -27.5q29 0 56.5 11.5t47.5 33.5l39 -82q-35 -35 -84 -54t-100 -19q-37 0 -69.5 12t-58.5 35.5t-41 55.5t-15 71q0 43 16 83t43 75.5t60 68.5l6 6q-139 6 -232 55q-102 57 -161.5 143.5t-81 188t-21.5 191.5z" />
<glyph unicode="&#x173;" d="M147 350v608h136v-530q0 -80 12 -141.5t42 -103.5t80 -63.5t126 -21.5q10 0 57 8.5t99.5 45t93.5 110.5t41 205v491h135v-747q0 -39 3 -98.5t7 -112.5h-33q-68 -68 -104 -119q-41 -57 -41 -117q0 -43 30.5 -70.5t71.5 -27.5q29 0 56.5 11.5t48.5 33.5l39 -82 q-35 -35 -84.5 -54t-100.5 -19q-37 0 -69.5 12t-58 35.5t-41 55.5t-15.5 71q0 43 16.5 83t43 75.5t59.5 68.5q25 23 47 43h-4q-4 39 -5 77t-1 77h-5q-23 -39 -57.5 -72t-77.5 -56.5t-91 -37t-95 -13.5q-184 0 -272.5 97.5t-88.5 277.5z" />
<glyph unicode="&#x174;" horiz-adv-x="1933" d="M0 1450h164l348 -1241h4l365 1241h176l364 -1241h4l344 1241h164l-428 -1450h-172l-364 1241h-4l-365 -1241h-172zM664 1556l223 295h164l223 -295h-135l-170 222l-170 -222h-135z" />
<glyph unicode="&#x175;" horiz-adv-x="1478" d="M29 958h159l222 -778h4l256 778h139l256 -778h4l221 778h160l-303 -958h-152l-254 786h-4l-254 -786h-151zM435 1155l223 295h164l223 -295h-135l-170 221l-170 -221h-135z" />
<glyph unicode="&#x176;" horiz-adv-x="1175" d="M-29 1450h185l432 -684l432 684h184l-542 -825v-625h-148v625zM283 1556l223 295h164l223 -295h-135l-170 222l-170 -222h-135z" />
<glyph unicode="&#x177;" horiz-adv-x="987" d="M33 958h170l301 -792l293 792h164l-480 -1208q-43 -111 -109.5 -176.5t-191.5 -65.5q-31 0 -62.5 2.5t-62.5 12.5l15 131q43 -23 102 -23q72 0 113 45t71 127l70 185zM185 1155l223 295h164l223 -295h-135l-170 221l-170 -221h-135z" />
<glyph unicode="&#x178;" horiz-adv-x="1175" d="M-29 1450h185l432 -684l432 684h184l-542 -825v-625h-148v625zM287 1683q0 41 28.5 73t75.5 32t76 -32t29 -73t-29 -72.5t-76 -31.5t-75.5 31.5t-28.5 72.5zM680 1683q0 41 28.5 73t75.5 32t76 -32t29 -73t-29 -72.5t-76 -31.5t-75.5 31.5t-28.5 72.5z" />
<glyph unicode="&#x179;" d="M47 0v123l848 1192h-836v135h1020v-123l-846 -1192h859v-135h-1045zM440 1556l205 295h186l-270 -295h-121z" />
<glyph unicode="&#x17a;" horiz-adv-x="872" d="M47 0v98l561 738h-532v122h729v-98l-561 -737h581v-123h-778zM322 1155l205 295h186l-270 -295h-121z" />
<glyph unicode="&#x17b;" d="M47 0v123l848 1192h-836v135h1020v-123l-846 -1192h859v-135h-1045zM444 1673q0 41 29 73t76 32t75.5 -32t28.5 -73t-28.5 -72.5t-75.5 -31.5t-76 31.5t-29 72.5z" />
<glyph unicode="&#x17c;" horiz-adv-x="872" d="M47 0v98l561 738h-532v122h729v-98l-561 -737h581v-123h-778zM331 1346q0 41 29 72.5t76 31.5t75.5 -32t28.5 -72q0 -41 -28.5 -73t-75.5 -32t-76 32t-29 73z" />
<glyph unicode="&#x17d;" d="M47 0v123l848 1192h-836v135h1020v-123l-846 -1192h859v-135h-1045zM265 1808h135l170 -221l170 221h135l-223 -295h-164z" />
<glyph unicode="&#x17e;" horiz-adv-x="872" d="M47 0v98l561 738h-532v122h729v-98l-561 -737h581v-123h-778zM131 1450h135l170 -221l170 221h135l-223 -295h-164z" />
<glyph unicode="&#x192;" d="M0 -236l66 99q23 -12 51 -18.5t55 -6.5q47 0 78 19.5t50 50.5t30.5 69.5t17.5 77.5l129 693h-221v110h244l55 295q12 63 32.5 120.5t57.5 102.5t90 72t131 27q106 0 195 -60l-70 -98q-27 16 -56.5 25.5t-60.5 9.5q-51 0 -83.5 -24.5t-53 -61.5t-31 -78t-16.5 -74 l-45 -256h221v-110h-243l-138 -721q-10 -55 -30.5 -110.5t-56.5 -100.5t-92 -73t-138 -28q-45 0 -89 11.5t-79 37.5z" />
<glyph unicode="&#x2c6;" horiz-adv-x="491" d="M-59 1155l223 295h164l223 -295h-135l-170 221l-170 -221h-135z" />
<glyph unicode="&#x2c7;" horiz-adv-x="491" d="M-59 1450h135l170 -221l170 221h135l-223 -295h-164z" />
<glyph unicode="&#x2d8;" horiz-adv-x="491" d="M-55 1450h90q14 -80 73.5 -120t137.5 -40t137 40t74 120h90q-8 -129 -91 -199.5t-210 -70.5t-210 70.5t-91 199.5z" />
<glyph unicode="&#x2d9;" horiz-adv-x="491" d="M141 1346q0 41 29 72.5t76 31.5t75.5 -32t28.5 -72q0 -41 -28.5 -73t-75.5 -32t-76 32t-29 73z" />
<glyph unicode="&#x2da;" horiz-adv-x="491" d="M49 1331q0 41 15.5 77t43 61.5t62.5 41t76 15.5q39 0 74.5 -15.5t63.5 -41t43 -61.5t15 -77t-15 -76.5t-43 -62.5t-63.5 -41t-74.5 -14q-41 0 -76 14t-62.5 41t-43 62.5t-15.5 76.5zM123 1331q0 -51 36 -86t87 -35t87 35t36 86t-36 86t-87 35t-87 -35t-36 -86z" />
<glyph unicode="&#x2db;" horiz-adv-x="491" d="M61 -270q0 43 16.5 83t43 75.5t59.5 67.5t64 56h98q-76 -76 -117 -132t-41 -116q0 -43 31 -70.5t72 -27.5q29 0 56.5 11.5t47.5 33.5l39 -82q-35 -35 -84 -54t-100 -19q-37 0 -70 12t-58.5 35.5t-41 55.5t-15.5 71z" />
<glyph unicode="&#x2dc;" horiz-adv-x="491" d="M-86 1180q6 39 19.5 77.5t36 68.5t54 48.5t78.5 18.5q37 0 75 -14.5t75 -32.5q37 -16 71.5 -32t65.5 -16q47 0 68.5 32t31.5 71h89q-6 -41 -19.5 -79t-36 -67.5t-55.5 -48t-78 -18.5q-37 0 -75 15.5t-74 31.5q-35 18 -70 32.5t-68 14.5q-47 0 -68.5 -31.5t-31.5 -70.5 h-88z" />
<glyph unicode="&#x2dd;" horiz-adv-x="491" d="M-156 1155l207 295h187l-273 -295h-121zM256 1155l205 295h186l-270 -295h-121z" />
<glyph unicode="&#x3a9;" horiz-adv-x="1523" d="M96 0v119h404v168q-96 27 -171 82t-127 129.5t-79 165t-27 188.5q0 137 52.5 252t142.5 197.5t208.5 129t252.5 46.5q133 0 250.5 -46.5t206.5 -129t141.5 -197.5t52.5 -250q0 -98 -26.5 -189.5t-78 -166t-126 -130t-173.5 -81.5v-168h404v-119h-514v371q92 16 162.5 58 t119 105.5t72 143.5t23.5 172q0 111 -40 203t-109.5 158.5t-164 103.5t-202.5 37q-109 0 -203 -38t-164 -104.5t-110 -159t-40 -200.5q0 -90 24 -171t72 -144.5t118.5 -106.5t162.5 -57v-371h-514z" />
<glyph unicode="&#x3c0;" horiz-adv-x="1153" d="M66 838v120h1011v-120h-155v-625q0 -45 11 -78t66 -33q41 0 86 21v-100q-35 -16 -64.5 -25.5t-66.5 -9.5q-59 0 -93 19.5t-49 53t-18 76.5t-3 90v611h-451v-838h-131v838h-143z" />
<glyph unicode="&#x2000;" horiz-adv-x="962" />
<glyph unicode="&#x2001;" horiz-adv-x="1925" />
<glyph unicode="&#x2002;" horiz-adv-x="962" />
<glyph unicode="&#x2003;" horiz-adv-x="1925" />
<glyph unicode="&#x2004;" horiz-adv-x="641" />
<glyph unicode="&#x2005;" horiz-adv-x="481" />
<glyph unicode="&#x2006;" horiz-adv-x="320" />
<glyph unicode="&#x2007;" horiz-adv-x="320" />
<glyph unicode="&#x2008;" horiz-adv-x="240" />
<glyph unicode="&#x2009;" horiz-adv-x="385" />
<glyph unicode="&#x200a;" horiz-adv-x="106" />
<glyph unicode="&#x2010;" horiz-adv-x="681" d="M78 424v135h526v-135h-526z" />
<glyph unicode="&#x2011;" horiz-adv-x="681" d="M78 424v135h526v-135h-526z" />
<glyph unicode="&#x2012;" horiz-adv-x="681" d="M78 424v135h526v-135h-526z" />
<glyph unicode="&#x2013;" horiz-adv-x="1024" d="M0 424v135h1024v-135h-1024z" />
<glyph unicode="&#x2014;" horiz-adv-x="2048" d="M0 424v135h2048v-135h-2048z" />
<glyph unicode="&#x2018;" horiz-adv-x="532" d="M115 969l166 481h137l-137 -481h-166z" />
<glyph unicode="&#x2019;" horiz-adv-x="532" d="M115 969l137 481h166l-166 -481h-137z" />
<glyph unicode="&#x201a;" horiz-adv-x="532" d="M115 -287l137 482h166l-166 -482h-137z" />
<glyph unicode="&#x201c;" horiz-adv-x="1062" d="M195 969l165 481h138l-138 -481h-165zM565 969l166 481h137l-137 -481h-166z" />
<glyph unicode="&#x201d;" horiz-adv-x="1062" d="M195 969l137 481h166l-166 -481h-137zM565 969l137 481h166l-166 -481h-137z" />
<glyph unicode="&#x201e;" horiz-adv-x="1062" d="M195 -287l137 482h166l-166 -482h-137zM565 -287l137 482h166l-166 -482h-137z" />
<glyph unicode="&#x2020;" d="M84 909v123h418v418h135v-418h418v-123h-418v-1167h-135v1167h-418z" />
<glyph unicode="&#x2021;" d="M102 135v123h400v676h-400v123h400v393h135v-393h399v-123h-399v-676h399v-123h-399v-393h-135v393h-400z" />
<glyph unicode="&#x2022;" horiz-adv-x="1024" d="M150 725q0 76 28.5 141.5t77.5 114.5t114.5 77.5t141.5 28.5t141.5 -28.5t114.5 -77.5t77.5 -114.5t28.5 -141.5t-28.5 -141.5t-77.5 -114.5t-114.5 -78t-141.5 -29t-141.5 29t-114.5 78t-77.5 114.5t-28.5 141.5z" />
<glyph unicode="&#x2026;" horiz-adv-x="2048" d="M231 98q0 43 31 77t80 34t80 -34t31 -77t-31 -76.5t-80 -33.5t-80 33.5t-31 76.5zM913 98q0 43 31 77t80 34t80 -34t31 -77t-31 -76.5t-80 -33.5t-80 33.5t-31 76.5zM1595 98q0 43 31 77t80 34t80 -34t31 -77t-31 -76.5t-80 -33.5t-80 33.5t-31 76.5z" />
<glyph unicode="&#x202f;" horiz-adv-x="385" />
<glyph unicode="&#x2030;" horiz-adv-x="2048" d="M51 1159q0 63 24.5 120.5t66.5 100.5t99.5 69t123.5 26t123 -26t99 -69t66.5 -100.5t24.5 -120.5q0 -66 -24.5 -123t-66.5 -100t-99.5 -67.5t-122.5 -24.5q-66 0 -123.5 24.5t-99.5 67.5t-66.5 100.5t-24.5 122.5zM150 -8l923 1521l105 -55l-922 -1521zM162 1159 q0 -86 58.5 -145.5t144.5 -59.5t144 59.5t58 145.5t-58 145.5t-144 59.5t-144.5 -59.5t-58.5 -145.5zM653 291q0 63 24.5 120.5t66.5 100.5t99.5 68.5t123.5 25.5t123 -25.5t99 -68.5t66.5 -100.5t24.5 -120.5q0 -66 -24.5 -123t-66.5 -100t-99.5 -68t-122.5 -25 q-66 0 -123.5 25t-99.5 68t-66.5 100t-24.5 123zM764 291q0 -86 58.5 -145.5t144.5 -59.5t144 59.5t58 145.5t-58 145.5t-144 59.5t-144.5 -59.5t-58.5 -145.5zM1370 291q0 63 24.5 120.5t66.5 100.5t99.5 68.5t122.5 25.5q66 0 123.5 -25.5t99.5 -68.5t66.5 -100.5 t24.5 -120.5q0 -66 -24.5 -123t-66.5 -100t-99.5 -68t-123.5 -25t-123 25t-99 68t-66.5 100t-24.5 123zM1481 291q0 -86 58 -145.5t144 -59.5t144.5 59.5t58.5 145.5t-58.5 145.5t-144.5 59.5t-144 -59.5t-58 -145.5z" />
<glyph unicode="&#x2039;" horiz-adv-x="645" d="M121 492l287 428l96 -68l-236 -360l236 -361l-96 -68z" />
<glyph unicode="&#x203a;" horiz-adv-x="645" d="M141 131l236 361l-236 360l97 68l286 -428l-286 -429z" />
<glyph unicode="&#x2044;" horiz-adv-x="344" d="M-342 0l924 1516l104 -64l-922 -1518z" />
<glyph unicode="&#x205f;" horiz-adv-x="481" />
<glyph unicode="&#x20ac;" d="M47 477l41 113h100q-2 29 -3 58.5t-1 60.5q0 78 6 149h-141l41 115h117q51 258 195.5 380t342.5 122q86 0 175.5 -25t140.5 -57l-43 -127q-47 35 -118 57.5t-157 22.5q-307 0 -381 -373h580l-35 -115h-563q-6 -74 -6 -156q0 -29 1 -56.5t3 -55.5h492l-37 -113h-443 q31 -178 116 -278.5t232 -100.5q82 0 152 38t104 93l97 -69q-57 -94 -158.5 -139.5t-212.5 -45.5t-193.5 37t-141 103.5t-95.5 159t-53 202.5h-154z" />
<glyph unicode="&#x2122;" horiz-adv-x="2048" d="M147 1339v111h674v-111h-272v-733h-123v733h-279zM997 606v844h191l264 -647l264 647h185v-844h-123v709h-4l-285 -709h-80l-285 709h-4v-709h-123z" />
<glyph unicode="&#x2202;" horiz-adv-x="1015" d="M63 434q0 88 27 168t78 139.5t125 94t168 34.5q100 0 188 -47t152 -125q0 27 1 53.5t1 53.5q0 86 -17.5 183t-59.5 181t-112.5 139.5t-177.5 55.5q-72 0 -124 -26.5t-105 -67.5l-74 88q66 57 137.5 88t159.5 31q98 0 174 -32t131.5 -87t93 -128t60 -155t33 -167 t10.5 -165q0 -113 -16.5 -247t-65.5 -249.5t-140.5 -193.5t-238.5 -78q-96 0 -172 38t-128 101.5t-80 146.5t-28 173zM193 430q0 -61 17 -122.5t53 -112t88 -81t122 -30.5q88 0 147.5 49t96.5 123t53.5 158.5t20.5 154.5q-55 74 -137.5 130.5t-180.5 56.5q-70 0 -122 -27 t-88 -72t-53 -104t-17 -123z" />
<glyph unicode="&#x2206;" horiz-adv-x="1372" d="M31 0l575 1458h152l588 -1458h-1315zM217 127h932l-469 1194z" />
<glyph unicode="&#x220f;" horiz-adv-x="1456" d="M145 -438v2048h1168v-2048h-135v1921h-897v-1921h-136z" />
<glyph unicode="&#x2211;" horiz-adv-x="1236" d="M51 -326l674 918l-645 903v115h1079v-127h-905l633 -891l-672 -905h969v-125h-1133v112z" />
<glyph unicode="&#x221a;" horiz-adv-x="1009" d="M-16 315l204 99l324 -680l387 1876h129l-430 -2048h-135l-336 696l-94 -45z" />
<glyph unicode="&#x221e;" horiz-adv-x="1517" d="M84 510q0 61 19.5 116.5t56.5 97.5t89 65.5t118 23.5q59 0 113.5 -21.5t102.5 -55.5t92 -73.5t85 -78.5q41 39 83 80t88 74.5t98 55t114 21.5q66 0 119 -22.5t92 -62.5t59.5 -95.5t20.5 -118.5t-20.5 -118.5t-57.5 -96.5t-90.5 -64.5t-118.5 -23.5q-59 0 -112.5 19.5 t-100.5 51t-91 70.5t-83 78q-45 -37 -88 -76t-89 -70.5t-98.5 -52t-113.5 -20.5q-66 0 -118 22.5t-90 62.5t-58.5 94t-20.5 118zM201 512q0 -78 45 -129t127 -51q41 0 84 17.5t84 44t76.5 58t64.5 58.5q-31 27 -67.5 58.5t-78.5 60t-85 48t-86 19.5q-39 0 -70 -15t-51.5 -41 t-31.5 -58.5t-11 -69.5zM838 508q33 -29 68.5 -59.5t75.5 -57t82 -43t89 -16.5q78 0 121 51t43 127q0 78 -43 133t-127 55q-43 0 -85 -19.5t-82 -48t-76 -62t-66 -60.5z" />
<glyph unicode="&#x222b;" horiz-adv-x="1112" d="M207 -340q0 29 19.5 47.5t47.5 18.5q27 0 41.5 -12.5t23.5 -27t17.5 -26.5t20.5 -12q27 0 41 46t19 104.5t5 110.5v64l2 43v1014q0 47 -2 108.5t1 126t14.5 126t39 110.5t73.5 79t118 30q23 0 48.5 -5.5t47 -17.5t34.5 -31.5t13 -48.5q0 -35 -21.5 -52t-53.5 -17 q-29 0 -43.5 12t-23.5 27.5t-17 29t-23 13.5q-25 0 -39 -27t-21 -67t-10.5 -87t-2 -91t2.5 -76.5t1 -43.5v-1032q0 -66 -2.5 -157t-25 -174.5t-73.5 -142t-149 -58.5q-43 0 -83 22.5t-40 73.5z" />
<glyph unicode="&#x2248;" horiz-adv-x="1363" d="M145 178q8 53 24.5 104.5t46.5 92.5t75 65.5t106 24.5q68 0 142.5 -22.5t152.5 -51.5q76 -29 147.5 -52.5t131.5 -23.5q72 0 108.5 47.5t50.5 112.5h91q-6 -53 -23.5 -104.5t-48.5 -91t-76 -63t-106 -23.5q-66 0 -142.5 23.5t-152.5 51.5q-76 29 -146.5 51.5t-126.5 22.5 q-70 0 -110.5 -50t-50.5 -114h-93zM145 528q6 53 23.5 104.5t48.5 91.5t76 64.5t106 24.5q68 0 142.5 -22.5t150.5 -51.5q78 -29 148.5 -52t130.5 -23q74 0 110.5 47t51.5 112h88q-6 -53 -23.5 -104t-48.5 -90t-75 -62.5t-105 -23.5q-66 0 -142.5 23.5t-154.5 51.5 q-76 29 -146.5 51.5t-126.5 22.5q-70 0 -110.5 -50t-50.5 -114h-93z" />
<glyph unicode="&#x2260;" horiz-adv-x="1363" d="M168 246v123h371l139 266h-510v123h577l158 301l107 -58l-129 -243h315v-123h-381l-141 -266h522v-123h-588l-155 -295l-107 55l127 240h-305z" />
<glyph unicode="&#x2264;" horiz-adv-x="1363" d="M168 12v121h1028v-121h-1028zM168 606v133l1028 387v-133l-858 -321l858 -318v-133z" />
<glyph unicode="&#x2265;" horiz-adv-x="1363" d="M168 12v121h1028v-121h-1028zM168 221v133l860 318l-860 321v133l1028 -387v-133z" />
<glyph unicode="&#x25ca;" horiz-adv-x="1214" d="M195 729l346 801h129l350 -801l-350 -801h-129zM328 729l278 -666l281 666l-281 666z" />
<glyph unicode="&#x25fc;" horiz-adv-x="962" d="M0 0v963h963v-963h-963z" />
<glyph unicode="&#xf8ff;" horiz-adv-x="1048" d="M0 0v1470h1049v-1470h-1049zM102 102h844v1264h-844v-1264zM254 967q14 147 90 213.5t186 66.5q111 0 182.5 -72.5t71.5 -195.5q0 -66 -25.5 -120t-103.5 -126q-76 -68 -88 -106q-12 -41 -12 -148h-94l-4 35q0 115 26 166q14 27 37 56.5t58 64.5q33 31 53 54.5t30.5 43 t14.5 36.5t4 36q0 74 -46 124t-110 50q-63 0 -109 -45t-59 -150zM455 240v137h114v-137h-114z" />
<glyph unicode="&#xfb01;" horiz-adv-x="1099" d="M29 836v122h202v263q0 190 88.5 271t233.5 81q29 0 58.5 -4t58.5 -10l-25 -123q-25 6 -51.5 10t-52.5 4q-55 0 -90 -18.5t-53.5 -52t-24.5 -79t-6 -96.5v-246h227v-122h-227v-836h-136v836h-202zM756 1327q0 43 30.5 70.5t67.5 27.5t67.5 -27.5t30.5 -70.5t-30.5 -70.5 t-67.5 -27.5t-67.5 27.5t-30.5 70.5zM786 0v958h136v-958h-136z" />
<glyph unicode="&#xfb02;" horiz-adv-x="1099" d="M29 836v122h202v263q0 190 88.5 271t233.5 81q29 0 58.5 -4t58.5 -10l-25 -123q-25 6 -51.5 10t-52.5 4q-55 0 -90 -18.5t-53.5 -52t-24.5 -79t-6 -96.5v-246h227v-122h-227v-836h-136v836h-202zM786 0v1548h136v-1548h-136z" />
</font>
</defs>
</svg>
