<?xml version="1.0" standalone="no"?>
<!DOCTYPE svg PUBLIC "-//W3C//DTD SVG 1.1//EN" "http://www.w3.org/Graphics/SVG/1.1/DTD/svg11.dtd" >
<svg xmlns="http://www.w3.org/2000/svg">
<metadata></metadata>
<defs>
<font id="dhblack_oblique" horiz-adv-x="1175" >
<font-face units-per-em="2048" ascent="1638" descent="-410" />
<missing-glyph horiz-adv-x="606" />
<glyph horiz-adv-x="0" />
<glyph unicode="&#xd;" horiz-adv-x="0" />
<glyph unicode=" "  horiz-adv-x="606" />
<glyph unicode="&#x09;" horiz-adv-x="606" />
<glyph unicode="&#xa0;" horiz-adv-x="606" />
<glyph unicode="!" horiz-adv-x="909" d="M291 176q6 39 25.5 74t48 60.5t65.5 40t76 14.5q78 0 125 -55.5t37 -133.5q-6 -39 -25.5 -73.5t-49.5 -60.5t-65.5 -40t-74.5 -14t-72 14t-54.5 40t-31.5 60.5t-4 73.5zM367 479l137 971h307l-137 -971h-307z" />
<glyph unicode="&#x22;" horiz-adv-x="1064" d="M287 872l82 578h258l-82 -578h-258zM762 872l82 578h258l-82 -578h-258z" />
<glyph unicode="#" horiz-adv-x="1212" d="M150 412l24 184h197l71 258h-172l27 184h197l114 412h199l-115 -412h203l115 412h198l-114 -412h172l-27 -184h-197l-71 -258h172l-25 -184h-196l-115 -412h-199l115 412h-203l-114 -412h-199l115 412h-172zM569 596h203l72 258h-203z" />
<glyph unicode="$" horiz-adv-x="1212" d="M49 141l252 244q45 -66 116.5 -93.5t153.5 -33.5l50 346l-144 45q-147 49 -217 138.5t-47 244.5q14 96 64.5 174t123 133.5t161.5 90t181 45.5l21 143h135l-20 -143q111 0 225.5 -29t193.5 -100l-231 -240q-43 43 -103.5 62.5t-125.5 23.5l-45 -326l188 -57 q129 -41 197.5 -134t48.5 -237q-16 -109 -66.5 -190.5t-126.5 -139t-170 -90t-196 -43.5l-21 -143h-135l20 143q-135 0 -264 37t-219 129zM535 1047q-6 -47 8 -74t36.5 -42.5t46 -21.5t36.5 -10l40 287q-59 -12 -108 -43t-59 -96zM707 262q33 6 65.5 17.5t60 30t46 44 t24.5 60.5q4 33 -3 55.5t-23.5 37.5t-40 26.5t-48.5 21.5l-36 14z" />
<glyph unicode="%" horiz-adv-x="1857" d="M160 1069q12 84 54 157.5t104.5 129t140.5 87.5t162 32t152.5 -32t115.5 -87.5t68.5 -129t9.5 -157.5t-54.5 -157.5t-105 -129t-140 -87t-161.5 -31.5t-152.5 31.5t-116 87t-68.5 129t-9 157.5zM369 1069q-12 -82 36 -139.5t130 -57.5q41 0 78.5 15.5t67.5 42t50.5 62.5 t26.5 77q10 82 -38 139.5t-130 57.5q-41 0 -79 -15.5t-67.5 -42t-49 -62.5t-25.5 -77zM432 23l1041 1493l157 -97l-1055 -1485zM1094 383q12 84 54 157.5t104.5 129t140 87t161.5 31.5t153 -31.5t116 -87t68.5 -129t9.5 -157.5t-54.5 -158.5t-105 -130t-140 -87.5 t-161.5 -32t-152.5 32t-116 87.5t-68.5 130t-9 158.5zM1303 383q-12 -84 35.5 -141.5t129.5 -57.5q41 0 79 15.5t68 42t50.5 63.5t26.5 78q10 82 -38 139.5t-130 57.5q-41 0 -79 -15.5t-67.5 -42t-49 -62.5t-25.5 -77z" />
<glyph unicode="&#x26;" horiz-adv-x="1554" d="M141 397q10 70 43 132.5t81 113.5t109.5 89t129.5 61q-31 39 -55.5 73.5t-40 73.5t-21.5 82t2 96q14 98 62.5 168t118 115t154.5 65.5t171 20.5q84 0 156.5 -21.5t125 -65.5t77 -110.5t12.5 -159.5q-10 -66 -39 -121t-73 -103t-98.5 -86t-111.5 -66l160 -199l168 193h356 l-362 -406l276 -342h-395l-103 137q-104 -92 -212.5 -133t-237.5 -41q-98 0 -187.5 26.5t-153 81t-96 136.5t-16.5 190zM475 412q-6 -41 5.5 -74t36 -55.5t58 -36t70.5 -13.5q72 0 128 31t114 76l-217 278q-33 -18 -65 -37.5t-59.5 -43t-46 -54t-24.5 -71.5zM694 1106 q-4 -27 4.5 -52.5t23.5 -49t33.5 -44t35.5 -36.5q25 14 56.5 33.5t59 43t49 51t25.5 58.5q8 63 -29 97t-96 34t-105 -37t-57 -98z" />
<glyph unicode="'" horiz-adv-x="606" d="M295 872l82 578h258l-82 -578h-258z" />
<glyph unicode="(" horiz-adv-x="643" d="M172 590q35 254 142.5 472t279.5 429l4 8l195 -123q-76 -98 -137.5 -188t-108.5 -183.5t-80 -194.5t-49 -220t-13 -220.5t24.5 -194.5t57 -183t84.5 -189l-227 -122l-4 8q-113 211 -158 429t-10 472z" />
<glyph unicode=")" horiz-adv-x="643" d="M14 -197q76 98 137.5 188.5t108.5 183.5t80 194.5t49 220.5t13 220t-24.5 194.5t-57 183.5t-84.5 188l227 123l4 -8q113 -211 158 -429t10 -472t-142.5 -472t-279.5 -429l-4 -8z" />
<glyph unicode="*" horiz-adv-x="987" d="M207 1069l92 195l256 -97l39 283h209l-39 -283l280 88l33 -194l-280 -86l137 -234l-186 -125l-140 236l-196 -225l-150 125l203 223z" />
<glyph unicode="+" horiz-adv-x="1363" d="M188 492l37 258h432l62 432h258l-62 -432h433l-37 -258h-432l-60 -433h-258l60 433h-433z" />
<glyph unicode="," horiz-adv-x="606" d="M0 -246l231 578h295l-264 -578h-262z" />
<glyph unicode="-" horiz-adv-x="606" d="M104 387l35 246h504l-35 -246h-504z" />
<glyph unicode="." horiz-adv-x="606" d="M139 176q6 39 25.5 74t48.5 60.5t65.5 40t75.5 14.5q78 0 125 -55.5t37 -133.5q-6 -39 -25.5 -73.5t-49 -60.5t-65.5 -40t-75 -14t-71.5 14t-54 40t-32 60.5t-4.5 73.5z" />
<glyph unicode="/" horiz-adv-x="833" d="M-10 -37l833 1596l226 -72l-840 -1596z" />
<glyph unicode="0" horiz-adv-x="1212" d="M155 463q-5 133 13 262t61 262t119 241.5t189.5 177.5t275.5 69t256 -69t139 -177.5t50.5 -241.5t-13.5 -262q-18 -129 -60 -262t-118 -241.5t-189.5 -177.5t-275.5 -69t-256 69t-140 177.5t-51 241.5zM461 588q-6 -80 6 -154t51 -125t123 -51q82 0 136 51t87 125 t49.5 154t24.5 137t14 137t-6 154t-52 125t-122 51q-84 0 -137 -51t-86 -125t-49.5 -154t-24.5 -137t-14 -137z" />
<glyph unicode="1" horiz-adv-x="1212" d="M272 1051l529 399h286l-202 -1450h-295l153 1106l-325 -256z" />
<glyph unicode="2" horiz-adv-x="1212" d="M100 0l45 326l635 505q25 20 50.5 42t47 46.5t38 53t20.5 61.5q10 74 -37 116t-119 42q-86 0 -141 -53.5t-72 -130.5l-305 22q23 113 76 196t128 138t170 83t202 28q98 0 180 -28t137 -82t80 -136t10 -191q-20 -139 -85.5 -228t-160.5 -161l-493 -379h643l-37 -270h-1012 z" />
<glyph unicode="3" horiz-adv-x="1212" d="M115 350l334 76q4 -78 48 -123t142 -45q100 0 156.5 52t66.5 134q8 61 -12.5 95t-59 50.5t-89 19.5t-101.5 3h-72l37 267h101q43 0 85 6t77.5 23.5t60 49t33.5 82.5q8 66 -38 109t-122 43q-72 0 -124 -39t-75 -96l-327 69q37 94 95 161t132 108t160 60.5t178 19.5 q96 0 181 -24t145.5 -74t90 -125.5t15.5 -180.5q-16 -121 -93 -207t-200 -110v-6q63 -8 109.5 -39t75 -76t39 -102.5t1.5 -120.5q-16 -109 -68.5 -191t-131 -136t-178 -81t-205.5 -27q-96 0 -178 21.5t-143.5 68t-99.5 117t-46 168.5z" />
<glyph unicode="4" horiz-adv-x="1212" d="M88 291l37 258l719 901h336l-127 -901h186l-37 -258h-186l-39 -291h-295l39 291h-633zM432 549h326l69 500h-4z" />
<glyph unicode="5" horiz-adv-x="1212" d="M113 346l331 74q2 -78 48.5 -126t125.5 -48q98 0 166 61.5t80 155.5q10 72 -13.5 118t-66.5 73.5t-101 37.5t-118 10q-76 0 -154.5 -14t-154.5 -39l129 801h877l-39 -270h-576l-37 -224q29 10 59.5 13.5t71.5 3.5q111 0 198 -33t145.5 -95.5t83 -151.5t8.5 -199 q-16 -123 -71.5 -219.5t-138.5 -163t-189.5 -101.5t-225.5 -35q-188 0 -302 92.5t-136 278.5z" />
<glyph unicode="6" horiz-adv-x="1212" d="M127 473q10 78 33.5 142.5t55.5 122t71 109.5t82 107l387 496h374l-413 -518q27 6 51.5 10t50.5 4q102 0 181 -37t129.5 -100.5t72 -150.5t6.5 -185q-16 -113 -70.5 -204t-136 -156.5t-186 -101.5t-217.5 -36q-115 0 -208 36t-157.5 101.5t-93 156.5t-12.5 204zM436 485 q-14 -98 42.5 -162.5t158.5 -64.5q104 0 178 64.5t88 162.5t-43 163t-160 65q-104 0 -176.5 -64.5t-87.5 -163.5z" />
<glyph unicode="7" horiz-adv-x="1212" d="M199 0l757 1167h-716l39 283h1060l-39 -270l-743 -1180h-358z" />
<glyph unicode="8" horiz-adv-x="1212" d="M152 397q18 135 101 226.5t218 126.5v4q-113 35 -165 118.5t-36 202.5q14 100 63.5 175t123 125t165 75t191.5 25t185 -25t143.5 -75t86 -124.5t13.5 -175.5q-16 -119 -92 -203t-199 -118v-4q127 -35 183.5 -126.5t37.5 -226.5q-14 -104 -67 -184t-131 -132t-174.5 -79 t-196.5 -27t-189 27t-151.5 79t-93.5 132t-16 184zM465 440q-10 -76 37 -129t139 -53q90 0 154.5 53.5t74.5 128.5q10 78 -38 131.5t-140 53.5t-154.5 -53.5t-72.5 -131.5zM571 1032q-10 -68 33 -115t123 -47t135.5 47.5t65.5 114.5q10 66 -33 113t-123 47t-135.5 -47 t-65.5 -113z" />
<glyph unicode="9" horiz-adv-x="1212" d="M207 977q14 113 69.5 204t137.5 156.5t185 101.5t218 36q113 0 207 -36t157.5 -101.5t92.5 -156.5t14 -204q-12 -78 -35.5 -142.5t-55.5 -122t-71 -109.5t-79 -107l-388 -496h-374l411 518q-27 -6 -51 -10t-51 -4q-102 0 -181 37t-129.5 100.5t-70.5 150.5t-6 185z M512 965q-14 -98 42 -163t159 -65q104 0 178 64.5t88 163.5q14 98 -43 162.5t-160 64.5q-104 0 -177 -64.5t-87 -162.5z" />
<glyph unicode=":" horiz-adv-x="606" d="M139 176q6 39 25.5 74t48.5 60.5t65.5 40t75.5 14.5q78 0 125 -55.5t37 -133.5q-6 -39 -25.5 -73.5t-49 -60.5t-65.5 -40t-75 -14t-71.5 14t-54 40t-32 60.5t-4.5 73.5zM231 831q6 39 24.5 74t48.5 60.5t66 40t74 14.5q39 0 72 -14.5t55.5 -40t32.5 -60.5t4 -74 t-25.5 -73.5t-49 -60t-65.5 -40t-75 -14.5t-71.5 14.5t-54 40t-32 60t-4.5 73.5z" />
<glyph unicode=";" horiz-adv-x="606" d="M0 -246l231 578h295l-264 -578h-262zM231 831q6 39 24.5 74t48.5 60.5t66 40t74 14.5q39 0 72 -14.5t55.5 -40t32.5 -60.5t4 -74t-25.5 -73.5t-49 -60t-65.5 -40t-75 -14.5t-71.5 14.5t-54 40t-32 60t-4.5 73.5z" />
<glyph unicode="&#x3c;" horiz-adv-x="1363" d="M231 492l37 258l1094 405l-39 -278l-686 -254v-5l614 -253l-41 -279z" />
<glyph unicode="=" horiz-adv-x="1363" d="M162 295l35 258h1122l-35 -258h-1122zM217 688l35 258h1122l-35 -258h-1122z" />
<glyph unicode="&#x3e;" horiz-adv-x="1363" d="M174 86l41 279l684 253v5l-612 254l39 278l979 -405l-37 -258z" />
<glyph unicode="?" horiz-adv-x="1138" d="M256 1042q53 217 206.5 331t368.5 114q94 0 174 -25.5t135.5 -77t82 -127t12.5 -174.5q-8 -59 -27.5 -107t-55.5 -95t-91 -95.5t-137 -105.5q-53 -37 -74 -72t-27 -69l-8 -60h-307l14 90q8 61 30.5 104.5t65.5 80.5q63 55 118 96t94.5 77t64.5 67.5t29 66.5 q10 68 -27 105.5t-100 37.5q-96 0 -153.5 -53t-74.5 -129zM432 176q6 39 25.5 74t48.5 60.5t65.5 40t75.5 14.5q78 0 125 -55.5t37 -133.5q-6 -39 -25.5 -73.5t-49 -60.5t-65.5 -40t-75 -14t-72 14t-54.5 40t-31.5 60.5t-4 73.5z" />
<glyph unicode="@" horiz-adv-x="1638" d="M166 723q23 164 104.5 303t202.5 241.5t271.5 161t312.5 58.5q135 0 259 -44t214 -130t134 -212t22 -288q-23 -164 -90.5 -262t-148.5 -151.5t-161 -70t-125 -16.5q-86 0 -117.5 35t-27.5 76h-4q-47 -41 -114 -76t-165 -35q-66 0 -117 26t-82.5 71t-44 108.5t-2.5 138.5 q12 90 52.5 173t101.5 147.5t142 102.5t178 38q82 0 132 -26.5t72 -90.5h4l31 93h193l-133 -404q-10 -29 -21.5 -67.5t-15.5 -67.5q-4 -23 5 -40t42 -17t66.5 17t63.5 55t53.5 95.5t35.5 137.5q16 123 -10.5 216t-89 156.5t-155.5 95.5t-210 32q-127 0 -237.5 -43 t-196.5 -121t-141.5 -184.5t-73.5 -231.5q-18 -135 12.5 -241.5t100 -180.5t175 -114t234.5 -40q117 0 218.5 33t184.5 92h226q-131 -152 -307.5 -230.5t-364.5 -78.5q-164 0 -300 56.5t-230.5 156.5t-137.5 240.5t-20 306.5zM708 614.5q1 -32.5 13 -58.5t37.5 -42t68.5 -16 q63 0 108.5 22.5t75 58t45 79.5t21.5 87q10 82 -18.5 135.5t-106.5 53.5q-47 0 -88 -19.5t-72.5 -54.5t-52 -81t-28.5 -99q-4 -33 -3 -65.5z" />
<glyph unicode="A" horiz-adv-x="1517" d="M-2 0l829 1450h265l428 -1450h-361l-82 307h-563l-164 -307h-352zM651 578h355l-115 450z" />
<glyph unicode="B" horiz-adv-x="1327" d="M147 0l203 1450h541q94 0 187 -13.5t164 -53.5q72 -39 108 -111q25 -50 25 -123q0 -32 -5 -68q-16 -123 -97 -203.5t-198 -115.5v-4q70 -10 124 -40t89 -76q36 -46 50 -108q8 -35 7 -72q0 -29 -4 -59q-16 -115 -75.5 -191.5t-143.5 -123.5t-184 -67.5t-197 -20.5h-594z M504 270h287q37 0 76.5 8.5t72.5 29t57.5 53t30.5 79.5q1 12 1 22q1 36 -15 61q-20 32 -57 48.5t-81.5 22.5t-82.5 6h-242zM588 870h231q37 0 74 8.5t68.5 27t53 49t27.5 73.5q2 13 2 24q0 29 -11 51q-15 30 -43.5 46t-66.5 23.5t-75 7.5h-217z" />
<glyph unicode="C" horiz-adv-x="1402" d="M170 725q25 174 103.5 315.5t196.5 240.5t269.5 152.5t321.5 53.5q61 0 125.5 -11.5t126 -36t116 -65.5t91.5 -100l-275 -201q-41 57 -104.5 88t-153.5 31t-172 -35t-146.5 -97.5t-108.5 -148.5t-58 -186q-6 -43 -6 -83q0 -55 11 -104q19 -85 65 -147.5t117 -97.5 t157 -35q98 0 180 41t141 115l238 -199q-111 -129 -260.5 -190.5t-298.5 -61.5q-170 0 -306.5 53.5t-226.5 152.5t-129 241q-24 86 -24 184q0 63 10 131z" />
<glyph unicode="D" horiz-adv-x="1554" d="M147 0l203 1450h479q174 0 325 -39t256.5 -126t153.5 -226q31 -89 31 -202q0 -64 -10 -136q-25 -176 -109.5 -310.5t-209.5 -225.5t-280 -138t-316 -47h-523zM508 295h166q111 0 209 22.5t175 74.5t128 137t69 208q5 36 5 68q0 64 -18 117q-28 79 -89 130.5t-148 77 t-188 25.5h-188z" />
<glyph unicode="E" horiz-adv-x="1290" d="M160 0l202 1450h986l-41 -295h-666l-39 -270h629l-41 -295h-629l-41 -295h703l-41 -295h-1022z" />
<glyph unicode="F" horiz-adv-x="1214" d="M160 0l202 1450h973l-41 -295h-653l-41 -295h604l-43 -295h-604l-78 -565h-319z" />
<glyph unicode="G" horiz-adv-x="1593" d="M170 725q25 174 103.5 315.5t196.5 240.5t269.5 152.5t321.5 53.5q174 0 314.5 -42t236.5 -145l-260 -245q-55 68 -133 102.5t-201 34.5q-102 0 -190.5 -35t-156 -97.5t-111.5 -148.5t-58 -186q-6 -42 -6 -81q0 -56 12 -106q20 -85 70.5 -147.5t128 -97.5t180.5 -35 q104 0 184 23.5t127 48.5l33 235h-260l43 295h567l-106 -758q-154 -74 -311.5 -106.5t-317.5 -32.5q-170 0 -306.5 53.5t-226.5 152.5t-129 241q-24 86 -24 184q0 63 10 131z" />
<glyph unicode="H" horiz-adv-x="1554" d="M147 0l203 1450h320l-76 -541h620l76 541h320l-203 -1450h-320l89 627h-621l-88 -627h-320z" />
<glyph unicode="I" horiz-adv-x="606" d="M143 0l203 1450h320l-203 -1450h-320z" />
<glyph unicode="J" horiz-adv-x="1024" d="M31 301l303 72v-5q0 -50 35 -85q37 -37 90 -37q55 0 90 27.5t55.5 68.5t29.5 89t15 89l131 930h320l-135 -965q-14 -100 -45 -194t-90.5 -167t-157 -117t-244.5 -44q-172 0 -279.5 82t-117.5 256z" />
<glyph unicode="K" horiz-adv-x="1478" d="M160 0l202 1450h320l-84 -602l647 602h418l-739 -674l592 -776h-447l-494 688l-96 -688h-319z" />
<glyph unicode="L" horiz-adv-x="1099" d="M160 0l202 1450h320l-162 -1155h592l-41 -295h-911z" />
<glyph unicode="M" horiz-adv-x="1933" d="M147 0l203 1450h484l200 -946h4l469 946h482l-203 -1450h-320l156 1112h-4l-537 -1112h-243l-211 1112h-4l-156 -1112h-320z" />
<glyph unicode="N" horiz-adv-x="1669" d="M147 0l203 1450h434l476 -1008h4l141 1008h319l-202 -1450h-418l-490 1032h-4l-143 -1032h-320z" />
<glyph unicode="O" horiz-adv-x="1703" d="M170 725q25 174 103.5 315.5t196.5 240.5t269.5 152.5t321.5 53.5t305 -53.5t225 -152.5t129 -241q24 -88 24 -187q0 -62 -9 -128q-25 -174 -103 -315.5t-196.5 -240.5t-269 -152.5t-320.5 -53.5t-306.5 53.5t-226.5 152.5t-129 241q-24 86 -24 184q0 63 10 131zM502 725 q-6 -42 -6 -81q0 -56 12 -106q20 -85 70.5 -147.5t128 -97.5t180.5 -35q102 0 190 35t155.5 97.5t112 147.5t58.5 187q6 42 6 81q1 55 -11 105q-20 86 -71 148.5t-129 97.5t-180 35t-190.5 -35t-156 -97.5t-111.5 -148.5t-58 -186z" />
<glyph unicode="P" horiz-adv-x="1290" d="M147 0l203 1450h539q113 0 210 -20.5t164.5 -70.5t100.5 -135q21 -54 21 -126q0 -41 -7 -88q-18 -127 -71.5 -213t-132 -137.5t-180 -73t-216.5 -21.5h-233l-78 -565h-320zM584 836h213q43 0 84 8t75.5 27.5t59 53t31.5 85.5q2 15 2 28q1 36 -15 61q-22 34 -60 52 t-86 23.5t-93 5.5h-164z" />
<glyph unicode="Q" horiz-adv-x="1744" d="M174 743q23 164 102.5 301.5t198.5 235.5t267.5 152.5t310.5 54.5t295 -55.5t223 -153.5t132 -234q27 -89 27 -188q0 -55 -8 -113q-12 -78 -39.5 -151.5t-71.5 -139t-105.5 -117.5t-141.5 -85l-2 -4h405l-32 -246h-879q-170 0 -307 50t-229.5 146.5t-131.5 233.5 q-23 84 -23 184q0 61 9 129zM506 743q-5 -35 -5 -69q0 -56 15 -107q23 -82 74 -142t127 -95t168 -35t177 35t153.5 95t114.5 142t61 176q4 32 4 62q0 60 -15 114q-24 82 -75.5 142.5t-127 95.5t-167.5 35t-177 -35t-154 -95.5t-115 -142.5t-58 -176z" />
<glyph unicode="R" horiz-adv-x="1327" d="M147 0l203 1450h561q111 0 207 -21.5t164 -71.5t100 -135q21 -55 21 -127q0 -40 -6 -85q-23 -154 -117 -261.5t-252 -136.5l283 -612h-383l-223 580h-158l-80 -580h-320zM586 850h188q43 0 91 3t89 18.5t72 48t39 92.5q2 17 2 31q-1 34 -13 57q-18 33 -50.5 50 t-76.5 23.5t-87 6.5h-209z" />
<glyph unicode="S" d="M57 145l265 250q41 -66 109.5 -101.5t148.5 -35.5q39 0 79.5 9t75.5 27.5t58.5 47.5t29.5 68q2 12 2 23q0 51 -38 81q-46 38 -117.5 64t-155.5 52.5t-153.5 72t-109.5 119.5q-29 52 -29 129q0 31 5 65q16 117 74.5 205t144.5 147t190.5 89t211.5 30q123 0 232.5 -35 t189.5 -117l-252 -239q-33 49 -96.5 72.5t-122.5 23.5q-35 0 -74 -8t-73 -25.5t-58.5 -46.5t-30.5 -70q-1 -10 -2 -19q-1 -35 19 -61q24 -32 68 -53.5t102.5 -38t118 -37t115.5 -49t97 -72.5t61 -110q11 -39 11 -88q0 -35 -6 -74q-16 -121 -74.5 -211t-143.5 -149.5 t-190.5 -88t-218.5 -28.5q-141 0 -255.5 43t-207.5 139z" />
<glyph unicode="T" d="M178 1167l39 283h1147l-39 -283h-414l-163 -1167h-320l164 1167h-414z" />
<glyph unicode="U" horiz-adv-x="1517" d="M225 559l125 891h320l-123 -879q-4 -30 -5 -57q0 -36 8 -68q13 -57 47 -99t84 -65.5t114 -23.5q63 0 119.5 23.5t101.5 65.5t74.5 99.5t39.5 124.5l123 879h320l-125 -891q-18 -129 -72.5 -237.5t-142.5 -188.5t-209 -125t-270 -45q-152 0 -260.5 45t-173.5 125 q-66 81 -90 189q-13 61 -13 129q0 52 8 108z" />
<glyph unicode="V" horiz-adv-x="1441" d="M207 1450h364l226 -950h4l497 950h342l-800 -1450h-256z" />
<glyph unicode="W" horiz-adv-x="2048" d="M199 1450h348l100 -930h4l434 930h297l168 -954h4l377 954h324l-627 -1450h-285l-180 1004h-4l-459 -1004h-274z" />
<glyph unicode="X" horiz-adv-x="1478" d="M0 0l614 758l-383 692h402l237 -508l369 508h387l-565 -686l418 -764h-402l-272 584l-426 -584h-379z" />
<glyph unicode="Y" horiz-adv-x="1327" d="M162 1450h397l232 -543l401 543h379l-662 -832l-86 -618h-319l86 618z" />
<glyph unicode="Z" horiz-adv-x="1290" d="M72 0l41 295l858 872h-709l39 283h1096l-39 -283l-844 -872h746l-41 -295h-1147z" />
<glyph unicode="[" horiz-adv-x="606" d="M90 -319l254 1818h430l-24 -184h-185l-205 -1450h185l-25 -184h-430z" />
<glyph unicode="\" horiz-adv-x="833" d="M203 1487l241 72l390 -1596l-242 -72z" />
<glyph unicode="]" horiz-adv-x="606" d="M-2 -319l22 184h185l205 1450h-185l25 184h430l-254 -1818h-428z" />
<glyph unicode="^" horiz-adv-x="1363" d="M262 702l473 748h299l264 -748h-290l-160 488l-297 -488h-289z" />
<glyph unicode="_" horiz-adv-x="1024" d="M-35 -256l15 102h1021l-14 -102h-1022z" />
<glyph unicode="`" horiz-adv-x="532" d="M53 1450h418l166 -295h-270z" />
<glyph unicode="a" horiz-adv-x="1099" d="M98 283q18 129 97 199.5t186.5 104.5t225.5 40t214 6q2 13 2 26q0 64 -43 104q-51 48 -131 48q-76 0 -142.5 -31.5t-123.5 -87.5l-139 168q96 80 216 120t242 40q135 0 218.5 -34t126.5 -99.5t50 -160.5q2 -26 2 -53q0 -75 -14 -167l-69 -506h-283l17 125h-5 q-61 -80 -151 -115t-184 -35q-70 0 -131.5 19.5t-105.5 58.5q-45 39 -65 97q-14 39 -13 85q0 23 3 48zM395 293q-1 -8 -1 -15q0 -20 8 -34q10 -20 28.5 -33.5t44 -20t49.5 -6.5q45 0 89 12.5t80 35t60.5 57.5t30.5 82l9 65h-76q-35 0 -87 -3t-102.5 -17.5t-88.5 -43 t-44 -79.5z" />
<glyph unicode="b" horiz-adv-x="1290" d="M137 0l217 1548h308l-95 -659h4q63 72 150.5 101.5t183.5 29.5q106 0 184 -44t127.5 -118t66.5 -169q9 -52 10 -107q0 -45 -7 -93q-16 -113 -64 -207t-122 -162.5t-169 -106.5t-206 -38q-53 0 -98 14.5t-82 37t-63.5 50t-41.5 54.5h-4l-16 -131h-283zM489 498 q-4 -26 -4 -49q1 -79 43 -133q54 -70 170 -70q117 0 192 69.5t91 182.5q4 25 4 49q0 79 -43 133q-55 70 -172 70t-191 -69.5t-90 -182.5z" />
<glyph unicode="c" horiz-adv-x="987" d="M147 498q16 119 72.5 215t140.5 164.5t190.5 105.5t221.5 37q88 0 181.5 -29.5t154.5 -103.5l-231 -213q-18 33 -56.5 54.5t-85.5 21.5q-117 0 -190.5 -70t-89.5 -182q-4 -26 -4 -49q0 -79 42 -133q54 -70 171 -70q51 0 92 22.5t71 53.5l172 -213q-84 -74 -184 -104 t-188 -30q-115 0 -211.5 37t-161 105.5t-94.5 164.5q-19 63 -19 135q0 39 6 81z" />
<glyph unicode="d" horiz-adv-x="1290" d="M139 489q14 104 59.5 199.5t114 169.5t158.5 118t197 44q96 0 176 -29.5t121 -101.5h4l94 659h307l-217 -1548h-283l17 131h-4q-20 -27 -54 -54.5t-77 -50t-93.5 -37t-101.5 -14.5q-111 0 -196 38t-140 106.5t-77 162.5q-12 54 -12 115q0 44 7 92zM449 498q-4 -26 -4 -49 q0 -79 42 -133q54 -70 170 -70q117 0 192 69.5t91 182.5q4 25 4 49q0 79 -43 133q-55 70 -172 70t-190.5 -70t-89.5 -182z" />
<glyph unicode="e" d="M147 498q16 119 72.5 215t140.5 164.5t190.5 105.5t221.5 37q106 0 188 -37t134 -105q50 -70 70 -166q10 -52 11 -109q0 -50 -8 -105l-14 -97h-713q6 -88 60.5 -140t144.5 -52q76 0 132.5 33.5t103.5 87.5l192 -158q-86 -94 -205.5 -145.5t-240.5 -51.5q-115 0 -211.5 37 t-161 105.5t-94.5 164.5q-19 63 -19 135q0 39 6 81zM469 610h405q3 17 3 32q1 58 -35 102q-44 56 -129 55q-51 0 -92 -16.5t-72 -42t-51.5 -59.5t-28.5 -71z" />
<glyph unicode="f" horiz-adv-x="757" d="M117 750l35 245h202l25 176q12 82 35.5 155t73 128t130 87t205.5 32q47 0 92.5 -4t85.5 -15l-51 -260q-25 10 -46 15.5t-50 5.5q-74 0 -115 -32t-55 -130l-22 -158h227l-35 -245h-227l-105 -750h-307l104 750h-202z" />
<glyph unicode="g" horiz-adv-x="1290" d="M29 -346l204 254q63 -59 137 -94t169 -35q141 0 216.5 68.5t92.5 175.5l14 96h-4q-63 -72 -146 -101.5t-153 -29.5q-111 0 -195.5 37.5t-140 106.5t-77.5 163q-12 54 -12 114q0 45 7 93q14 98 58.5 192t113 166t158.5 116t197 44q66 0 119 -14.5t93 -37t66.5 -50 t40.5 -54.5h4l19 131h282l-129 -911q-39 -283 -201.5 -429.5t-453.5 -146.5q-133 0 -258 30t-221 116zM449 504q-2 -16 -2 -32q0 -32 8 -61q12 -44 39.5 -78t69.5 -54.5t95 -20.5q51 0 99.5 20.5t86.5 54.5t63.5 78t31.5 93q2 16 2 32q0 32 -8 61q-12 44 -40 78t-71 54.5 t-94 20.5q-53 0 -100 -20.5t-85 -54.5t-63.5 -78t-31.5 -93z" />
<glyph unicode="h" d="M109 0l217 1548h307l-96 -688h4q14 29 41.5 57.5t65.5 51t87 37t105 14.5q117 0 184.5 -36t98 -99.5t32.5 -149.5v-22q0 -77 -12 -164l-76 -549h-307l67 487q7 43 11 89q1 14 1 28q1 32 -7 58q-10 38 -39 63t-88 25t-99.5 -21.5t-65 -57.5t-36.5 -81t-19 -94l-69 -496 h-307z" />
<glyph unicode="i" horiz-adv-x="532" d="M113 0l139 995h307l-139 -995h-307zM270 1309q6 37 24.5 69.5t46.5 56t62.5 38t71.5 14.5q74 -1 118 -53q36 -43 36 -99q0 -13 -2 -26q-4 -37 -22.5 -70t-46.5 -56.5t-62.5 -38t-71.5 -14.5t-67.5 14.5t-50.5 37.5q-20 24 -30 57q-7 23 -7 48q0 11 1 22z" />
<glyph unicode="j" horiz-adv-x="532" d="M-158 -475l56 272q33 -18 75 -18q39 0 63.5 20.5t39 51t21.5 65.5t12 64l143 1015h307l-151 -1069q-12 -96 -41 -173t-79 -131t-125 -84t-179 -30q-35 0 -72 3.5t-70 13.5zM270 1309q6 37 24.5 69.5t46.5 56t62.5 38t71.5 14.5q74 0 118 -53q36 -42 36 -99q0 -12 -2 -26 q-4 -37 -22.5 -70t-46.5 -56.5t-62.5 -38t-71.5 -14.5t-67.5 14.5t-51 38t-29.5 56.5q-7 23 -7 48q0 11 1 22z" />
<glyph unicode="k" horiz-adv-x="1138" d="M109 0l217 1548h307l-133 -946l395 393h377l-459 -448l330 -547h-387l-267 504h-4l-69 -504h-307z" />
<glyph unicode="l" horiz-adv-x="532" d="M113 0l217 1548h307l-217 -1548h-307z" />
<glyph unicode="m" horiz-adv-x="1781" d="M109 0l139 995h295l-19 -135h4q18 29 49 57.5t70 51t88 37t105 14.5q104 0 180 -43t102 -135q68 96 149 137t191 41q100 0 164 -34t96.5 -92t38.5 -137q2 -26 2 -54q0 -55 -8 -115l-82 -588h-307l80 580q3 22 3 41q1 44 -15 79q-22 50 -99 50q-53 0 -91 -17.5 t-64.5 -48.5t-41 -72t-20.5 -86l-74 -526h-307l74 526q4 27 7 66q1 12 1 23q0 27 -5 51q-7 34 -31.5 59t-77.5 25q-59 0 -99.5 -21.5t-65 -57.5t-36.5 -81t-19 -94l-69 -496h-307z" />
<glyph unicode="n" d="M109 0l139 995h295l-19 -135h4q18 29 49 57.5t70 51t88 37t105 14.5q117 0 184.5 -36t98 -99.5t32.5 -149.5v-22q0 -77 -12 -164l-76 -549h-307l67 487q7 43 11 89q1 14 1 28q1 32 -7 58q-10 38 -39 63t-88 25t-99.5 -21.5t-65 -57.5t-36.5 -81t-19 -94l-69 -496h-307z " />
<glyph unicode="o" horiz-adv-x="1249" d="M141 498q16 119 72.5 215t140.5 164.5t190.5 105.5t221.5 37t211 -37t161 -105q66 -70 96 -166q19 -62 20 -131q0 -40 -7 -83q-16 -119 -73.5 -215.5t-141.5 -165t-190.5 -105.5t-220.5 -37q-115 0 -211.5 37t-161 105.5t-94.5 164.5q-19 63 -19 135q0 39 6 81zM449 498 q-4 -26 -4 -49q0 -79 42 -133q54 -70 170 -70q117 0 192 69.5t91 182.5q4 25 4 49q0 79 -43 133q-55 70 -172 70t-190.5 -69.5t-89.5 -182.5z" />
<glyph unicode="p" horiz-adv-x="1290" d="M70 -467l206 1462h283l-18 -131h4q20 27 55 54.5t77 50t91 37t102 14.5q111 0 196 -38t140.5 -106.5t77.5 -163.5q12 -52 12 -111q0 -46 -8 -95q-14 -104 -59 -199.5t-113.5 -169.5t-159 -118t-196.5 -44q-96 0 -176 30t-121 101h-4l-82 -573h-307zM489 498 q-4 -26 -4 -49q0 -80 43 -133q54 -70 170 -70q117 0 192 69.5t91 182.5q4 25 4 49q0 80 -43 133q-55 70 -172 70t-191 -69.5t-90 -182.5z" />
<glyph unicode="q" horiz-adv-x="1290" d="M141 506q16 113 64.5 207t122 162.5t169 106.5t205.5 38q51 0 97.5 -14.5t83.5 -37t63.5 -50t40.5 -54.5h4l19 131h282l-207 -1462h-307l82 573h-4q-63 -72 -150.5 -101.5t-183.5 -29.5q-106 0 -184 44t-127 118t-67 169q-9 53 -9 109q0 44 6 91zM449 498q-4 -26 -4 -49 q0 -80 42 -133q54 -70 170 -70q117 0 192 69.5t91 182.5q4 25 4 49q0 80 -43 133q-55 70 -172 70t-190.5 -70t-89.5 -182z" />
<glyph unicode="r" horiz-adv-x="833" d="M109 0l139 995h307l-23 -159h5q61 92 134.5 138t176.5 46q27 0 53.5 -2t48.5 -8l-39 -281q-33 10 -63.5 15.5t-65.5 5.5q-88 0 -143 -25t-88 -69t-50.5 -105.5t-27.5 -134.5l-57 -416h-307z" />
<glyph unicode="s" horiz-adv-x="948" d="M63 111l216 206q37 -53 85 -80.5t117 -27.5q53 0 98.5 15.5t51.5 56.5q1 6 1 11q0 31 -31 47q-36 19 -92 32.5t-120.5 29t-118.5 45.5q-56 32 -86 88q-21 39 -20 95q0 26 4 55q12 88 57 151.5t109.5 104.5t142.5 60.5t156 19.5q98 0 194.5 -28.5t155.5 -102.5l-213 -187 q-55 84 -168 84q-39 0 -78 -18t-45 -63q-1 -5 -1 -10q0 -29 32 -45q37 -18 92 -31t119.5 -28.5t118.5 -48.5q52 -32 82 -88q21 -40 21 -100q0 -24 -3 -51q-12 -96 -63.5 -158.5t-122 -100.5t-154.5 -53.5t-164 -15.5q-104 0 -206.5 30t-166.5 106z" />
<glyph unicode="t" horiz-adv-x="833" d="M117 750l35 245h196l41 295h307l-41 -295h271l-35 -245h-270l-48 -332q-6 -41 -6 -75t11.5 -58.5t39 -38t76.5 -13.5q25 0 65 5.5t62 23.5l-35 -256q-53 -18 -109 -24.5t-110 -6.5q-78 0 -141.5 16.5t-107.5 52.5t-63 94q-12 38 -12 85q0 25 3 53l67 474h-196z" />
<glyph unicode="u" d="M158 260v22q0 77 12 164l78 549h307l-70 -487q-6 -43 -10 -89q-1 -13 -1 -25q0 -32 8 -60q10 -39 38.5 -63.5t87.5 -24.5t99.5 21.5t65 57t37.5 81t19 94.5l70 495h307l-139 -995h-295l19 135h-5q-20 -29 -49.5 -57.5t-69.5 -51t-89.5 -37t-104.5 -14.5q-117 0 -184.5 36 t-98 99.5t-32.5 149.5z" />
<glyph unicode="v" horiz-adv-x="1138" d="M143 995h332l156 -676h4l330 676h309l-533 -995h-325z" />
<glyph unicode="w" horiz-adv-x="1705" d="M129 995h328l114 -624h4l259 624h335l97 -624h4l274 624h311l-493 -995h-303l-115 662h-4l-276 -662h-310z" />
<glyph unicode="x" horiz-adv-x="1138" d="M-16 0l467 532l-267 463h363l137 -270l209 270h342l-389 -463l309 -532h-362l-172 332l-279 -332h-358z" />
<glyph unicode="y" horiz-adv-x="1138" d="M-33 -455l76 252q61 -30 132 -30h5q51 0 86 11t59.5 32.5t43 52.5t41.5 71l30 58l-295 1003h332l164 -657h4l311 657h316l-615 -1157q-41 -80 -77.5 -141.5t-87 -103.5t-121 -63.5t-181.5 -21.5q-119 0 -223 37z" />
<glyph unicode="z" horiz-adv-x="1024" d="M70 0l43 307l577 443h-504l35 245h860l-41 -295l-606 -454h553l-33 -246h-884z" />
<glyph unicode="{" horiz-adv-x="757" d="M94 473l33 234q18 0 56 4t77 18t70.5 43t38.5 76l49 354q12 80 39.5 136.5t67.5 92t90.5 52t107.5 16.5h215l-33 -233h-100q-47 0 -76 -12.5t-44 -32t-22.5 -43t-9.5 -43.5l-45 -330q-10 -72 -35.5 -113t-59.5 -62.5t-70.5 -28.5t-69.5 -9v-4q31 -2 65.5 -8.5t62 -28 t41 -62t5.5 -112.5l-45 -332q-4 -20 -4 -44t11 -43t35.5 -31.5t71.5 -12.5h101l-33 -233h-215q-55 0 -101 16t-77 53t-44.5 93.5t-0.5 136.5l49 352q6 47 -16.5 75.5t-57.5 43t-71.5 18.5t-55.5 4z" />
<glyph unicode="|" horiz-adv-x="454" d="M25 -512l288 2048h258l-288 -2048h-258z" />
<glyph unicode="}" horiz-adv-x="757" d="M-14 -319l30 233h101q47 0 75.5 12.5t44 31.5t21.5 43t10 44l45 330q10 72 36 112.5t59.5 62t70.5 28t70 10.5v4q-31 2 -65.5 8t-62.5 27.5t-42 62.5t-4 113l45 332q2 20 3 43.5t-10.5 43t-36 32t-71.5 12.5h-100l33 233h221q51 0 96 -16.5t76 -53t43 -93t2 -136.5 l-49 -352q-6 -47 16.5 -76t56 -43t69.5 -18t58 -4l-32 -234q-23 0 -60 -4t-75.5 -18.5t-69.5 -43t-37 -75.5l-49 -355q-12 -80 -40 -136t-68 -92t-90 -52t-107 -16h-213z" />
<glyph unicode="~" horiz-adv-x="1363" d="M299 643q20 33 48 64.5t62.5 56t76.5 40t94 15.5q53 0 108 -19.5t109 -45.5q53 -25 105 -49.5t93 -24.5q31 0 57.5 13.5t51 32.5t47.5 44t45 49l43 -221q-23 -33 -49.5 -64.5t-61 -56t-77.5 -40t-95 -15.5q-53 0 -107 19.5t-110 45.5q-53 25 -105 49.5t-93 24.5 q-31 0 -58.5 -13t-52 -32.5t-47.5 -44.5t-43 -49z" />
<glyph unicode="&#xa1;" horiz-adv-x="909" d="M236 -455l137 971h307l-137 -971h-307zM381 819q6 39 25.5 74t48 60.5t65.5 40t76 14.5q78 0 125 -55.5t37 -133.5q-6 -39 -25.5 -73.5t-48.5 -60.5t-65.5 -40t-75.5 -14q-78 0 -125 55t-37 133z" />
<glyph unicode="&#xa2;" horiz-adv-x="1212" d="M225 498q14 109 61.5 198.5t119 157.5t166 111t204.5 55l21 135h123l-21 -135q104 0 184 -29.5t152 -97.5l-227 -209q-35 41 -72 59.5t-72 18.5l-73 -529q23 0 65.5 12.5t116.5 76.5l155 -220q-43 -37 -94 -61.5t-101 -38.5t-97.5 -20.5t-81.5 -6.5l-21 -141h-123l21 141 q-109 6 -192 49.5t-135 113t-73.5 161.5t-5.5 199zM520 500q-14 -94 20.5 -166t127.5 -101l73 529q-98 -18 -152 -92t-69 -170z" />
<glyph unicode="&#xa3;" horiz-adv-x="1212" d="M98 0l33 233h197l55 406h-197l31 209h197l20 145q12 92 57.5 178t119 154t174 109t225.5 41q117 0 225 -31t182 -109l-235 -219q-35 41 -84 64.5t-90 23.5q-68 0 -117 -22.5t-82 -58.5t-50.5 -82t-23.5 -93l-14 -100h319l-30 -209h-320l-55 -406h518l-33 -233h-1022z" />
<glyph unicode="&#xa4;" horiz-adv-x="1212" d="M117 313l114 101q-39 66 -54 144.5t-3 166.5t50 167t95 144l-86 101l140 120l86 -98q72 47 153.5 72.5t169.5 25.5t162 -25.5t133 -72.5l115 98l106 -120l-114 -101q80 -139 55 -311q-25 -174 -143 -311l86 -101l-140 -120l-88 98q-72 -47 -152.5 -72.5t-168.5 -25.5 t-163 25.5t-134 72.5l-113 -98zM444 725q-8 -57 5.5 -107.5t44 -87t74.5 -58t100 -21.5q55 0 105 21.5t91 58t69 87t36 107.5t-5.5 107.5t-44 87t-74.5 58t-100 21.5q-55 0 -105 -21.5t-91 -58t-69 -87t-36 -107.5z" />
<glyph unicode="&#xa5;" horiz-adv-x="1212" d="M129 1450h373l231 -541l383 541h373l-463 -594h205l-27 -197h-321l-31 -41l-14 -98h346l-27 -196h-346l-45 -324h-320l46 324h-347l27 196h346l14 98l-18 41h-321l26 197h205z" />
<glyph unicode="&#xa6;" horiz-adv-x="454" d="M47 -358l100 716h259l-101 -716h-258zM190 666l101 716h258l-100 -716h-259z" />
<glyph unicode="&#xa7;" horiz-adv-x="1212" d="M70 -51l280 129q8 -74 70.5 -107.5t132.5 -33.5q25 0 54.5 5t55 17t45 32.5t23.5 51.5q6 49 -34 81t-104.5 61.5t-140 60t-137 77t-98.5 113t-22 164.5q14 104 70.5 177t148.5 126q-53 41 -79 101.5t-16 134.5q12 90 61.5 155.5t119 108.5t150.5 63.5t159 20.5 q66 0 132.5 -10.5t123.5 -37t102 -69.5t68 -106l-279 -148q-14 59 -61 92t-109 33q-49 0 -95 -26.5t-54 -81.5q-8 -51 35 -86t109.5 -66t145.5 -62.5t143.5 -76.5t102 -109.5t25.5 -157.5q-12 -86 -71.5 -157.5t-137.5 -108.5q47 -43 67.5 -107.5t10.5 -135.5 q-14 -100 -71.5 -172t-137.5 -117t-173 -65.5t-175 -20.5q-76 0 -145.5 12t-127 43t-100.5 80t-67 123zM485 657q-6 -37 5.5 -62.5t32 -45t48 -33.5t54.5 -27l194 -96q76 41 88 125q4 29 -5 52.5t-25.5 41t-39 30.5t-42.5 24l-222 112q-80 -41 -88 -121z" />
<glyph unicode="&#xa8;" horiz-adv-x="532" d="M66 1319q4 33 21 63.5t44 53t58.5 37t66.5 14.5q72 0 118 -47t36 -121t-66.5 -125t-132.5 -51q-72 0 -114 52t-31 124zM492 1319q4 33 21 63.5t44 53t58.5 37t66.5 14.5q72 0 118 -47t36 -121t-66.5 -125t-132.5 -51q-72 0 -114 52t-31 124z" />
<glyph unicode="&#xa9;" horiz-adv-x="1638" d="M158 725q23 158 102.5 296t197 241.5t265 164t305.5 60.5t288 -60.5t219 -164t129 -241.5t17 -296t-101.5 -296t-197 -241.5t-265 -164t-304.5 -60.5t-288 60.5t-219 164t-130 241.5t-18 296zM367 725q-16 -119 12.5 -224.5t93 -183t158.5 -124t209 -46.5t221 46.5 t192 124t144.5 183t75.5 224.5q16 119 -12.5 224.5t-92 183t-158 124t-209.5 46.5t-222 -46.5t-193 -124t-144.5 -183t-74.5 -224.5zM535 731q12 94 50 173t96 136.5t138 89t178 31.5q139 0 231.5 -74.5t94.5 -228.5h-193q-4 66 -45 92.5t-96 26.5q-100 0 -158.5 -65.5 t-74.5 -176.5q-16 -115 25.5 -186.5t131.5 -71.5q66 0 117 31t68 106h192q-23 -80 -64.5 -139t-96 -100t-118 -61.5t-130.5 -20.5q-96 0 -168 33.5t-116 93t-59.5 139.5t-2.5 172z" />
<glyph unicode="&#xaa;" horiz-adv-x="714" d="M195 1053q10 78 61 121t118.5 64.5t141.5 25.5t131 4q6 37 -20.5 66.5t-79.5 29.5q-49 0 -92 -20.5t-80 -53.5l-92 101q61 47 141 71.5t158 24.5q88 0 142 -20.5t82 -58.5t33 -94.5t-5 -127.5l-43 -303h-197l10 75h-4q-29 -47 -85 -67.5t-118 -20.5q-45 0 -85 11.5 t-67.5 35t-42 57.5t-7.5 79zM403 1061q-4 -35 23 -45t59 -10q59 0 103.5 32.5t48.5 67.5l6 39h-37q-23 0 -55.5 -2t-63 -10.5t-55 -25.5t-29.5 -46z" />
<glyph unicode="&#xab;" horiz-adv-x="1101" d="M106 510l394 479l170 -125l-289 -354l188 -354l-202 -125zM602 510l393 479l170 -125l-288 -354l188 -354l-203 -125z" />
<glyph unicode="&#xac;" horiz-adv-x="1363" d="M217 688l35 258h1122l-92 -655h-258l57 397h-864z" />
<glyph unicode="&#xad;" horiz-adv-x="606" d="M104 387l35 246h504l-35 -246h-504z" />
<glyph unicode="&#xae;" horiz-adv-x="1638" d="M158 725q23 158 102.5 296t197 241.5t265 164t305.5 60.5t288 -60.5t219 -164t129 -241.5t17 -296t-101.5 -296t-197 -241.5t-265 -164t-304.5 -60.5t-288 60.5t-219 164t-130 241.5t-18 296zM367 725q-16 -119 12.5 -224.5t93 -183t158.5 -124t209 -46.5t221 46.5 t192 124t144.5 183t75.5 224.5q16 119 -12.5 224.5t-92 183t-158 124t-209.5 46.5t-222 -46.5t-193 -124t-144.5 -183t-74.5 -224.5zM571 334l113 799h283q20 0 54 -1.5t70.5 -8.5t72.5 -22.5t62.5 -44t40 -73.5t5.5 -109q-10 -61 -31.5 -101t-51.5 -65.5t-66 -39t-70 -17.5 l159 -317h-215l-139 307h-35l-43 -307h-209zM844 801h84q18 0 39.5 2t42 10t35 25.5t18.5 48.5t-5 48t-26.5 25.5t-39 10.5t-40.5 2h-84z" />
<glyph unicode="&#xaf;" horiz-adv-x="532" d="M88 1210l27 197h696l-27 -197h-696z" />
<glyph unicode="&#xb0;" horiz-adv-x="819" d="M215 1122q10 74 47 137.5t91.5 111.5t122 76t140.5 28q74 0 133.5 -28t101.5 -76t60.5 -111.5t8.5 -137.5t-47 -137t-92.5 -111.5t-123 -76t-141.5 -27.5t-133 27.5t-100 76t-59.5 112t-8.5 136.5zM387 1122q-10 -76 34 -128t120 -52q37 0 72.5 14.5t63.5 39t46 57 t25 69.5q10 76 -35 128.5t-121 52.5q-37 0 -73 -14.5t-63.5 -39t-46 -57.5t-22.5 -70z" />
<glyph unicode="&#xb1;" horiz-adv-x="1363" d="M129 59l35 258h1122l-35 -258h-1122zM213 662l37 258h432l37 262h258l-37 -262h432l-37 -258h-432l-37 -263h-258l37 263h-432z" />
<glyph unicode="&#xb2;" horiz-adv-x="788" d="M131 592l27 182l426 324q33 25 66.5 53.5t37.5 58.5q4 43 -29.5 61.5t-80.5 18.5q-59 0 -100.5 -31.5t-51.5 -78.5l-207 12q33 147 140.5 215t254.5 68q143 0 228.5 -63.5t68.5 -182.5q-8 -53 -21 -88t-32.5 -61.5t-46.5 -47t-59 -43.5l-318 -221v-4h412l-25 -172h-690z " />
<glyph unicode="&#xb3;" horiz-adv-x="788" d="M150 821l229 45q4 -47 32.5 -74.5t88.5 -27.5q59 0 102 22.5t51 75.5q4 35 -9 54.5t-38.5 28.5t-59.5 11t-69 2h-51l25 172h69q29 0 56.5 3.5t50 13.5t38 28.5t19.5 47.5q4 33 -23.5 50t-80.5 17q-49 0 -88 -23.5t-56 -66.5l-219 41q53 131 157.5 182.5t231.5 51.5 q66 0 124 -14.5t101 -43t65 -73t13 -103.5q-10 -72 -60 -124t-136 -66l-2 -4q88 -10 129 -69.5t30 -135.5q-10 -66 -46 -115t-89 -82t-120.5 -49t-141.5 -16q-135 0 -223 55t-100 186z" />
<glyph unicode="&#xb4;" horiz-adv-x="532" d="M223 1155l248 295h418l-395 -295h-271z" />
<glyph unicode="&#xb5;" d="M41 -467l207 1462h307l-70 -487q-6 -43 -10 -89t6.5 -85t39 -63.5t87.5 -24.5t99.5 21.5t65 57t37.5 81t19 94.5l70 495h307l-139 -995h-295l19 135h-5q-20 -29 -49.5 -57.5t-69.5 -51t-89.5 -37t-104.5 -14.5q-35 0 -61 7l-64 -449h-307z" />
<glyph unicode="&#xb6;" horiz-adv-x="1269" d="M178 1085q14 111 63.5 181.5t123 111.5t168 56.5t200.5 15.5h619l-242 -1722h-221l215 1525h-223l-215 -1525h-222l142 1007q-223 0 -326.5 92.5t-81.5 257.5z" />
<glyph unicode="&#xb7;" horiz-adv-x="606" d="M195 580q6 39 25.5 73.5t48 60t65.5 40t76 14.5q78 0 125 -55.5t36 -132.5q-6 -39 -25.5 -74t-48 -60.5t-65.5 -40t-76 -14.5q-78 0 -124.5 55.5t-36.5 133.5z" />
<glyph unicode="&#xb8;" horiz-adv-x="532" d="M-82 -430l66 96q23 -10 59.5 -22.5t89.5 -12.5q47 0 93 12.5t53 53.5q4 37 -30 53.5t-65 16.5q-20 0 -37.5 -4.5t-37.5 -12.5l-58 60l156 190h137l-102 -123q45 0 90 -5t79.5 -22.5t53 -51.5t10.5 -91q-8 -55 -43 -94t-81 -61.5t-97 -33t-90 -10.5q-61 0 -128 17.5 t-118 44.5z" />
<glyph unicode="&#xb9;" horiz-adv-x="788" d="M244 1223l360 239h197l-123 -870h-221l92 649l-205 -154z" />
<glyph unicode="&#xba;" horiz-adv-x="813" d="M211 1178q10 70 46 127t90 97t123 62.5t144 22.5q76 0 138.5 -22.5t105.5 -62.5t62.5 -97.5t9.5 -126.5q-10 -74 -46 -130.5t-90.5 -96.5t-123 -60.5t-144.5 -20.5t-138 20.5t-105 60.5t-62.5 96.5t-9.5 130.5zM420 1178q-6 -55 27.5 -95.5t103.5 -40.5t116 40t54 96 q10 57 -26 97t-105 40q-70 0 -115 -40t-55 -97z" />
<glyph unicode="&#xbb;" horiz-adv-x="1101" d="M78 156l287 354l-187 354l203 125l258 -479l-391 -479zM573 156l287 354l-186 354l203 125l258 -479l-392 -479z" />
<glyph unicode="&#xbc;" horiz-adv-x="1820" d="M186 1223l361 239h196l-122 -870h-222l93 649l-205 -154zM389 23l1041 1493l157 -97l-1055 -1485zM1061 174l22 160l484 536h241l-73 -524h116l-24 -172h-117l-22 -174h-222l23 174h-428zM1307 346h206l39 279h-4z" />
<glyph unicode="&#xbd;" horiz-adv-x="1820" d="M186 1223l361 239h196l-122 -870h-222l93 649l-205 -154zM389 23l1041 1493l157 -97l-1055 -1485zM1114 0l25 182l426 324q33 25 66.5 53.5t37.5 58.5q6 43 -28.5 61.5t-81.5 18.5q-59 0 -99.5 -31.5t-50.5 -78.5l-207 12q31 147 138.5 215t254.5 68q143 0 228.5 -63.5 t68.5 -182.5q-6 -53 -19 -88t-32.5 -61.5t-46.5 -47t-59 -43.5l-318 -221l-2 -4h412l-23 -172h-690z" />
<glyph unicode="&#xbe;" horiz-adv-x="1820" d="M123 821l229 45q4 -47 33 -74.5t88 -27.5t102 22.5t52 75.5q4 35 -9.5 54.5t-39 28.5t-59.5 11t-68 2h-52l25 172h70q29 0 56.5 3.5t50 13.5t37.5 28.5t19 47.5q4 33 -23.5 50t-80.5 17q-49 0 -88 -23.5t-55 -66.5l-217 41q25 66 64.5 110t90.5 71.5t109.5 40t122.5 12.5 q66 0 124 -14.5t101 -43t64.5 -73t13.5 -103.5q-10 -72 -60.5 -124t-136.5 -66l-2 -4q88 -10 129 -69.5t31 -135.5q-10 -66 -46 -115t-89.5 -82t-121 -49t-141.5 -16q-135 0 -223 55t-100 186zM438 23l1041 1493l157 -97l-1054 -1485zM1069 174l23 160l483 536h242l-74 -524 h117l-25 -172h-117l-22 -174h-221l22 174h-428zM1315 346h207l39 279h-5z" />
<glyph unicode="&#xbf;" horiz-adv-x="1138" d="M41 -88q8 57 27.5 106.5t55.5 96.5t92 95t136 105q53 37 75 72t26 70l8 59h307l-12 -90q-10 -61 -33 -104t-66 -80q-66 -55 -119 -96.5t-92.5 -77t-64.5 -67.5t-29 -67q-10 -68 27 -105.5t100 -37.5q96 0 154.5 53.5t75.5 128.5l311 -20q-53 -217 -205.5 -331 t-368.5 -114q-94 0 -173.5 26t-136 77t-83 127t-12.5 174zM469 819q6 39 25.5 74t48 60.5t65.5 40t76 14.5q78 0 125 -55.5t37 -133.5q-6 -39 -25.5 -73.5t-48.5 -60.5t-65.5 -40t-75.5 -14q-78 0 -125 55t-37 133z" />
<glyph unicode="&#xc0;" horiz-adv-x="1517" d="M-2 0l829 1450h265l428 -1450h-361l-82 307h-563l-164 -307h-352zM605 1851h417l164 -295h-270zM651 578h355l-115 450z" />
<glyph unicode="&#xc1;" horiz-adv-x="1517" d="M-2 0l829 1450h265l428 -1450h-361l-82 307h-563l-164 -307h-352zM651 578h355l-115 450zM773 1556l249 295h418l-397 -295h-270z" />
<glyph unicode="&#xc2;" horiz-adv-x="1517" d="M-2 0l829 1450h265l428 -1450h-361l-82 307h-563l-164 -307h-352zM570 1556l286 295h334l195 -295h-283l-106 160l-150 -160h-276zM651 578h355l-115 450z" />
<glyph unicode="&#xc3;" horiz-adv-x="1517" d="M-2 0l829 1450h265l428 -1450h-361l-82 307h-563l-164 -307h-352zM578 1569q16 51 44 102t65.5 91t86 64.5t105.5 24.5q51 0 90 -12t82 -31q29 -10 53.5 -20t55.5 -10q35 0 59.5 21.5t42.5 51.5h160q-18 -59 -45 -110t-64 -89t-86 -60.5t-112 -22.5q-45 0 -82 13t-72 30 q-33 16 -62.5 29.5t-60.5 13.5q-35 0 -58.5 -29t-39.5 -57h-162zM651 578h355l-115 450z" />
<glyph unicode="&#xc4;" horiz-adv-x="1517" d="M-2 0l829 1450h265l428 -1450h-361l-82 307h-563l-164 -307h-352zM617 1720q4 33 21.5 64t43 53.5t57 36.5t66.5 14q72 0 119 -47t37 -121q-6 -37 -23.5 -68.5t-44 -56t-61.5 -38t-72 -13.5t-65.5 14.5t-48 39t-27.5 56.5t-2 66zM651 578h355l-115 450zM1043 1720 q4 33 21.5 64t43 53.5t57 36.5t66.5 14q72 0 119 -47t37 -121q-6 -37 -23.5 -68.5t-44 -56t-61.5 -38t-72 -13.5t-65.5 14.5t-48 39t-27.5 56.5t-2 66z" />
<glyph unicode="&#xc5;" horiz-adv-x="1517" d="M-2 0l829 1450h265l428 -1450h-361l-82 307h-563l-164 -307h-352zM651 578h355l-115 450zM775 1724q6 45 29.5 87t59.5 73t79 49.5t90 18.5q45 0 84 -18.5t66.5 -49.5t39.5 -73t6 -87q-6 -47 -30.5 -88t-60.5 -71.5t-80 -49t-89 -18.5q-47 0 -85 18.5t-64.5 49t-39 71.5 t-5.5 88zM897 1724q-6 -43 21 -73.5t70 -30.5t77.5 30.5t40.5 73.5t-20.5 74t-69.5 31t-78 -31t-41 -74z" />
<glyph unicode="&#xc6;" horiz-adv-x="2123" d="M-31 0l1123 1450h1101l-41 -295h-577l-39 -270h528l-41 -295h-528l-41 -295h602l-41 -295h-921l43 307h-539l-238 -307h-391zM772 578h402l81 577h-34z" />
<glyph unicode="&#xc7;" horiz-adv-x="1402" d="M170 725q25 174 103.5 315.5t196.5 240.5t269.5 152.5t321.5 53.5q61 0 125.5 -11.5t126 -36t116 -65.5t91.5 -100l-275 -201q-41 57 -104.5 88t-153.5 31t-172 -35t-146.5 -97.5t-108.5 -148.5t-58 -186q-14 -102 5 -187t65 -147.5t117 -97.5t157 -35q98 0 180 41 t141 115l238 -199q-111 -129 -260.5 -190.5t-298.5 -61.5h-19.5t-19.5 2l-72 -88q45 0 90 -5t80 -22.5t53.5 -51.5t10.5 -91q-8 -55 -43 -94t-81 -61.5t-97.5 -33t-90.5 -10.5q-61 0 -128.5 17.5t-118.5 44.5l65 96q23 -10 60.5 -22.5t91.5 -12.5q47 0 93 12.5t52 53.5 q4 37 -29.5 53.5t-64.5 16.5q-20 0 -37.5 -4.5t-38.5 -12.5l-57 60l135 167q-133 25 -237.5 87.5t-172 158.5t-95.5 223t-5 279z" />
<glyph unicode="&#xc8;" horiz-adv-x="1290" d="M160 0l202 1450h986l-41 -295h-666l-39 -270h629l-41 -295h-629l-41 -295h703l-41 -295h-1022zM490 1851h417l164 -295h-270z" />
<glyph unicode="&#xc9;" horiz-adv-x="1290" d="M160 0l202 1450h986l-41 -295h-666l-39 -270h629l-41 -295h-629l-41 -295h703l-41 -295h-1022zM658 1556l249 295h418l-397 -295h-270z" />
<glyph unicode="&#xca;" horiz-adv-x="1290" d="M160 0l202 1450h986l-41 -295h-666l-39 -270h629l-41 -295h-629l-41 -295h703l-41 -295h-1022zM455 1556l286 295h334l195 -295h-283l-106 160l-150 -160h-276z" />
<glyph unicode="&#xcb;" horiz-adv-x="1290" d="M160 0l202 1450h986l-41 -295h-666l-39 -270h629l-41 -295h-629l-41 -295h703l-41 -295h-1022zM502 1720q4 33 21.5 64t43 53.5t57 36.5t66.5 14q72 0 119 -47t37 -121q-6 -37 -23.5 -68.5t-44 -56t-61.5 -38t-72 -13.5t-65.5 14.5t-48 39t-27.5 56.5t-2 66zM928 1720 q4 33 21.5 64t43 53.5t57 36.5t66.5 14q72 0 119 -47t37 -121q-6 -37 -23.5 -68.5t-44 -56t-61.5 -38t-72 -13.5t-65.5 14.5t-48 39t-27.5 56.5t-2 66z" />
<glyph unicode="&#xcc;" horiz-adv-x="606" d="M143 0l203 1450h320l-203 -1450h-320zM148 1851h417l164 -295h-270z" />
<glyph unicode="&#xcd;" horiz-adv-x="606" d="M143 0l203 1450h320l-203 -1450h-320zM316 1556l249 295h418l-397 -295h-270z" />
<glyph unicode="&#xce;" horiz-adv-x="606" d="M113 1556l286 295h334l195 -295h-283l-106 160l-150 -160h-276zM143 0l203 1450h320l-203 -1450h-320z" />
<glyph unicode="&#xcf;" horiz-adv-x="606" d="M143 0l203 1450h320l-203 -1450h-320zM160 1720q4 33 21.5 64t43 53.5t57 36.5t66.5 14q72 0 119 -47t37 -121q-6 -37 -23.5 -68.5t-44 -56t-61.5 -38t-72 -13.5t-65.5 14.5t-48 39t-27.5 56.5t-2 66zM586 1720q4 33 21.5 64t43 53.5t57 36.5t66.5 14q72 0 119 -47 t37 -121q-6 -37 -23.5 -68.5t-44 -56t-61.5 -38t-72 -13.5t-65.5 14.5t-48 39t-27.5 56.5t-2 66z" />
<glyph unicode="&#xd0;" horiz-adv-x="1554" d="M115 651l30 209h123l82 590h479q174 0 325 -39t256.5 -126t153.5 -226t21 -338q-25 -176 -109.5 -310.5t-209.5 -225.5t-280 -138t-316 -47h-523l91 651h-123zM508 295h166q111 0 209 22.5t175 74.5t128 137t69 208q14 106 -13.5 185t-88.5 130.5t-148 77t-188 25.5h-188 l-41 -295h405l-30 -209h-406z" />
<glyph unicode="&#xd1;" horiz-adv-x="1669" d="M147 0l203 1450h434l476 -1008h4l141 1008h319l-202 -1450h-418l-490 1032h-4l-143 -1032h-320zM653 1569q16 51 44 102t65.5 91t86 64.5t105.5 24.5q51 0 90 -12t82 -31q29 -10 53.5 -20t55.5 -10q35 0 59.5 21.5t42.5 51.5h160q-18 -59 -45 -110t-64 -89t-86 -60.5 t-112 -22.5q-45 0 -82 13t-72 30q-33 16 -62.5 29.5t-60.5 13.5q-35 0 -58.5 -29t-39.5 -57h-162z" />
<glyph unicode="&#xd2;" horiz-adv-x="1703" d="M170 725q25 174 103.5 315.5t196.5 240.5t269.5 152.5t321.5 53.5t305 -53.5t225 -152.5t129 -240.5t15 -315.5q-25 -174 -103 -315.5t-196.5 -240.5t-269 -152.5t-320.5 -53.5t-306.5 53.5t-226.5 152.5t-129 240.5t-14 315.5zM502 725q-14 -102 6 -187t70.5 -147.5 t128 -97.5t180.5 -35q102 0 190 35t155.5 97.5t112 147.5t58.5 187q14 100 -5.5 186t-70.5 148.5t-129 97.5t-180 35t-190.5 -35t-156 -97.5t-111.5 -148.5t-58 -186zM697 1851h417l164 -295h-270z" />
<glyph unicode="&#xd3;" horiz-adv-x="1703" d="M170 725q25 174 103.5 315.5t196.5 240.5t269.5 152.5t321.5 53.5t305 -53.5t225 -152.5t129 -240.5t15 -315.5q-25 -174 -103 -315.5t-196.5 -240.5t-269 -152.5t-320.5 -53.5t-306.5 53.5t-226.5 152.5t-129 240.5t-14 315.5zM502 725q-14 -102 6 -187t70.5 -147.5 t128 -97.5t180.5 -35q102 0 190 35t155.5 97.5t112 147.5t58.5 187q14 100 -5.5 186t-70.5 148.5t-129 97.5t-180 35t-190.5 -35t-156 -97.5t-111.5 -148.5t-58 -186zM865 1556l249 295h418l-397 -295h-270z" />
<glyph unicode="&#xd4;" horiz-adv-x="1703" d="M170 725q25 174 103.5 315.5t196.5 240.5t269.5 152.5t321.5 53.5t305 -53.5t225 -152.5t129 -240.5t15 -315.5q-25 -174 -103 -315.5t-196.5 -240.5t-269 -152.5t-320.5 -53.5t-306.5 53.5t-226.5 152.5t-129 240.5t-14 315.5zM502 725q-14 -102 6 -187t70.5 -147.5 t128 -97.5t180.5 -35q102 0 190 35t155.5 97.5t112 147.5t58.5 187q14 100 -5.5 186t-70.5 148.5t-129 97.5t-180 35t-190.5 -35t-156 -97.5t-111.5 -148.5t-58 -186zM662 1556l286 295h334l195 -295h-283l-106 160l-150 -160h-276z" />
<glyph unicode="&#xd5;" horiz-adv-x="1703" d="M170 725q25 174 103.5 315.5t196.5 240.5t269.5 152.5t321.5 53.5t305 -53.5t225 -152.5t129 -240.5t15 -315.5q-25 -174 -103 -315.5t-196.5 -240.5t-269 -152.5t-320.5 -53.5t-306.5 53.5t-226.5 152.5t-129 240.5t-14 315.5zM502 725q-14 -102 6 -187t70.5 -147.5 t128 -97.5t180.5 -35q102 0 190 35t155.5 97.5t112 147.5t58.5 187q14 100 -5.5 186t-70.5 148.5t-129 97.5t-180 35t-190.5 -35t-156 -97.5t-111.5 -148.5t-58 -186zM670 1569q16 51 44 102t65.5 91t86 64.5t105.5 24.5q51 0 90 -12t82 -31q29 -10 53.5 -20t55.5 -10 q35 0 59.5 21.5t42.5 51.5h160q-18 -59 -45 -110t-64 -89t-86 -60.5t-112 -22.5q-45 0 -82 13t-72 30q-33 16 -62.5 29.5t-60.5 13.5q-35 0 -58.5 -29t-39.5 -57h-162z" />
<glyph unicode="&#xd6;" horiz-adv-x="1703" d="M170 725q25 174 103.5 315.5t196.5 240.5t269.5 152.5t321.5 53.5t305 -53.5t225 -152.5t129 -240.5t15 -315.5q-25 -174 -103 -315.5t-196.5 -240.5t-269 -152.5t-320.5 -53.5t-306.5 53.5t-226.5 152.5t-129 240.5t-14 315.5zM502 725q-14 -102 6 -187t70.5 -147.5 t128 -97.5t180.5 -35q102 0 190 35t155.5 97.5t112 147.5t58.5 187q14 100 -5.5 186t-70.5 148.5t-129 97.5t-180 35t-190.5 -35t-156 -97.5t-111.5 -148.5t-58 -186zM709 1720q4 33 21.5 64t43 53.5t57 36.5t66.5 14q72 0 119 -47t37 -121q-6 -37 -23.5 -68.5t-44 -56 t-61.5 -38t-72 -13.5t-65.5 14.5t-48 39t-27.5 56.5t-2 66zM1135 1720q4 33 21.5 64t43 53.5t57 36.5t66.5 14q72 0 119 -47t37 -121q-6 -37 -23.5 -68.5t-44 -56t-61.5 -38t-72 -13.5t-65.5 14.5t-48 39t-27.5 56.5t-2 66z" />
<glyph unicode="&#xd7;" horiz-adv-x="1363" d="M174 250l408 371l-316 352l219 194l312 -358l401 356l158 -176l-406 -368l320 -355l-215 -190l-312 360l-411 -362z" />
<glyph unicode="&#xd8;" horiz-adv-x="1703" d="M68 -6l219 209q-78 98 -109 230t-8 292q25 174 103.5 315.5t196.5 240.5t269.5 152.5t321.5 53.5q266 0 446 -131l217 205l99 -101l-213 -200q82 -98 114.5 -233.5t10.5 -301.5q-25 -174 -103 -315.5t-196.5 -240.5t-269 -152.5t-320.5 -53.5q-141 0 -257 37t-200 102 l-221 -206zM502 725q-23 -162 41 -281l719 678q-98 70 -244 70q-102 0 -190.5 -35t-156 -97.5t-111.5 -148.5t-58 -186zM635 336q96 -78 252 -78q102 0 190 35t155.5 97.5t112 147.5t58.5 187q12 86 -1 161t-48 132z" />
<glyph unicode="&#xd9;" horiz-adv-x="1517" d="M225 559l125 891h320l-123 -879q-10 -68 3 -125t47 -99t84 -65.5t114 -23.5q63 0 119.5 23.5t101.5 65.5t74.5 99.5t39.5 124.5l123 879h320l-125 -891q-18 -129 -72.5 -237.5t-142.5 -188.5t-209 -125t-270 -45q-152 0 -260.5 45t-174 125t-89 188.5t-5.5 237.5z M605 1851h417l164 -295h-270z" />
<glyph unicode="&#xda;" horiz-adv-x="1517" d="M225 559l125 891h320l-123 -879q-10 -68 3 -125t47 -99t84 -65.5t114 -23.5q63 0 119.5 23.5t101.5 65.5t74.5 99.5t39.5 124.5l123 879h320l-125 -891q-18 -129 -72.5 -237.5t-142.5 -188.5t-209 -125t-270 -45q-152 0 -260.5 45t-174 125t-89 188.5t-5.5 237.5z M773 1556l249 295h418l-397 -295h-270z" />
<glyph unicode="&#xdb;" horiz-adv-x="1517" d="M225 559l125 891h320l-123 -879q-10 -68 3 -125t47 -99t84 -65.5t114 -23.5q63 0 119.5 23.5t101.5 65.5t74.5 99.5t39.5 124.5l123 879h320l-125 -891q-18 -129 -72.5 -237.5t-142.5 -188.5t-209 -125t-270 -45q-152 0 -260.5 45t-174 125t-89 188.5t-5.5 237.5z M570 1556l286 295h334l195 -295h-283l-106 160l-150 -160h-276z" />
<glyph unicode="&#xdc;" horiz-adv-x="1517" d="M225 559l125 891h320l-123 -879q-10 -68 3 -125t47 -99t84 -65.5t114 -23.5q63 0 119.5 23.5t101.5 65.5t74.5 99.5t39.5 124.5l123 879h320l-125 -891q-18 -129 -72.5 -237.5t-142.5 -188.5t-209 -125t-270 -45q-152 0 -260.5 45t-174 125t-89 188.5t-5.5 237.5z M617 1720q4 33 21.5 64t43 53.5t57 36.5t66.5 14q72 0 119 -47t37 -121q-6 -37 -23.5 -68.5t-44 -56t-61.5 -38t-72 -13.5t-65.5 14.5t-48 39t-27.5 56.5t-2 66zM1043 1720q4 33 21.5 64t43 53.5t57 36.5t66.5 14q72 0 119 -47t37 -121q-6 -37 -23.5 -68.5t-44 -56 t-61.5 -38t-72 -13.5t-65.5 14.5t-48 39t-27.5 56.5t-2 66z" />
<glyph unicode="&#xdd;" horiz-adv-x="1327" d="M162 1450h397l232 -543l401 543h379l-662 -832l-86 -618h-319l86 618zM682 1609l249 295h418l-397 -295h-270z" />
<glyph unicode="&#xde;" horiz-adv-x="1290" d="M147 0l203 1450h320l-37 -258h219q113 0 210 -20.5t165.5 -70.5t100.5 -135t13 -214q-18 -127 -70 -213t-131 -137.5t-180.5 -73t-216.5 -21.5h-233l-43 -307h-320zM547 578h213q43 0 84 8t75.5 27.5t59.5 53t31 85.5q8 55 -13.5 88.5t-58.5 52t-85 24t-93 5.5h-164z" />
<glyph unicode="&#xdf;" horiz-adv-x="1290" d="M109 0l147 1051q72 522 596 522q86 0 168 -21.5t143.5 -67.5t93 -117t17.5 -169q-16 -119 -77.5 -201t-178.5 -127v-4q78 -16 132 -54t87 -93t42 -125t-1 -150q-16 -109 -64.5 -195.5t-122 -147t-167 -93.5t-199.5 -33q-98 0 -186 25l34 250q49 -16 99 -17 q57 0 110.5 14.5t96.5 44.5t71.5 75t36.5 106q8 66 -6 113t-47 77.5t-82 45t-111 14.5h-41l37 258h25q78 0 138.5 41t70.5 121q6 39 -6.5 68.5t-35 50t-54 31t-68.5 10.5q-94 0 -158.5 -54.5t-79.5 -146.5l-153 -1102h-307z" />
<glyph unicode="&#xe0;" horiz-adv-x="1099" d="M98 283q18 129 97 199.5t186.5 104.5t225.5 40t214 6q10 82 -41 130t-131 48q-76 0 -142.5 -31.5t-123.5 -87.5l-139 168q96 80 216 120t242 40q135 0 218.5 -34t126.5 -99.5t50 -160.5t-12 -220l-69 -506h-283l17 125h-5q-61 -80 -151 -115t-184 -35q-70 0 -131.5 19.5 t-105.5 58.5t-64.5 96.5t-10.5 133.5zM338 1450h418l166 -295h-270zM395 293q-4 -29 6.5 -48.5t29 -33.5t44 -20.5t49.5 -6.5q45 0 89 12.5t80 35t60.5 57.5t30.5 82l9 65h-76q-35 0 -87 -3t-102.5 -17.5t-88.5 -43t-44 -79.5z" />
<glyph unicode="&#xe1;" horiz-adv-x="1099" d="M98 283q18 129 97 199.5t186.5 104.5t225.5 40t214 6q10 82 -41 130t-131 48q-76 0 -142.5 -31.5t-123.5 -87.5l-139 168q96 80 216 120t242 40q135 0 218.5 -34t126.5 -99.5t50 -160.5t-12 -220l-69 -506h-283l17 125h-5q-61 -80 -151 -115t-184 -35q-70 0 -131.5 19.5 t-105.5 58.5t-64.5 96.5t-10.5 133.5zM395 293q-4 -29 6.5 -48.5t29 -33.5t44 -20.5t49.5 -6.5q45 0 89 12.5t80 35t60.5 57.5t30.5 82l9 65h-76q-35 0 -87 -3t-102.5 -17.5t-88.5 -43t-44 -79.5zM508 1155l248 295h418l-395 -295h-271z" />
<glyph unicode="&#xe2;" horiz-adv-x="1099" d="M98 283q18 129 97 199.5t186.5 104.5t225.5 40t214 6q10 82 -41 130t-131 48q-76 0 -142.5 -31.5t-123.5 -87.5l-139 168q96 80 216 120t242 40q135 0 218.5 -34t126.5 -99.5t50 -160.5t-12 -220l-69 -506h-283l17 125h-5q-61 -80 -151 -115t-184 -35q-70 0 -131.5 19.5 t-105.5 58.5t-64.5 96.5t-10.5 133.5zM305 1155l285 295h334l197 -295h-283l-107 160l-149 -160h-277zM395 293q-4 -29 6.5 -48.5t29 -33.5t44 -20.5t49.5 -6.5q45 0 89 12.5t80 35t60.5 57.5t30.5 82l9 65h-76q-35 0 -87 -3t-102.5 -17.5t-88.5 -43t-44 -79.5z" />
<glyph unicode="&#xe3;" horiz-adv-x="1099" d="M98 283q18 129 97 199.5t186.5 104.5t225.5 40t214 6q10 82 -41 130t-131 48q-76 0 -142.5 -31.5t-123.5 -87.5l-139 168q96 80 216 120t242 40q135 0 218.5 -34t126.5 -99.5t50 -160.5t-12 -220l-69 -506h-283l17 125h-5q-61 -80 -151 -115t-184 -35q-70 0 -131.5 19.5 t-105.5 58.5t-64.5 96.5t-10.5 133.5zM314 1167q14 51 41.5 102.5t65.5 91.5t86 64.5t106 24.5q51 0 91 -12.5t81 -30.5q27 -10 53.5 -20.5t56.5 -10.5q35 0 58.5 21.5t42.5 52.5h159q-18 -59 -43.5 -110.5t-62.5 -89.5t-86 -60.5t-113 -22.5q-45 0 -83 13.5t-70 29.5 q-35 16 -64 29.5t-59 13.5q-35 0 -60.5 -28.5t-38.5 -57.5h-161zM395 293q-4 -29 6.5 -48.5t29 -33.5t44 -20.5t49.5 -6.5q45 0 89 12.5t80 35t60.5 57.5t30.5 82l9 65h-76q-35 0 -87 -3t-102.5 -17.5t-88.5 -43t-44 -79.5z" />
<glyph unicode="&#xe4;" horiz-adv-x="1099" d="M98 283q18 129 97 199.5t186.5 104.5t225.5 40t214 6q10 82 -41 130t-131 48q-76 0 -142.5 -31.5t-123.5 -87.5l-139 168q96 80 216 120t242 40q135 0 218.5 -34t126.5 -99.5t50 -160.5t-12 -220l-69 -506h-283l17 125h-5q-61 -80 -151 -115t-184 -35q-70 0 -131.5 19.5 t-105.5 58.5t-64.5 96.5t-10.5 133.5zM351 1319q4 33 21 63.5t44 53t58.5 37t66.5 14.5q72 0 118 -47t36 -121t-66.5 -125t-132.5 -51q-72 0 -114 52t-31 124zM395 293q-4 -29 6.5 -48.5t29 -33.5t44 -20.5t49.5 -6.5q45 0 89 12.5t80 35t60.5 57.5t30.5 82l9 65h-76 q-35 0 -87 -3t-102.5 -17.5t-88.5 -43t-44 -79.5zM777 1319q4 33 21 63.5t44 53t58.5 37t66.5 14.5q72 0 118 -47t36 -121t-66.5 -125t-132.5 -51q-72 0 -114 52t-31 124z" />
<glyph unicode="&#xe5;" horiz-adv-x="1099" d="M98 283q18 129 97 199.5t186.5 104.5t225.5 40t214 6q10 82 -41 130t-131 48q-76 0 -142.5 -31.5t-123.5 -87.5l-139 168q96 80 216 120t242 40q135 0 218.5 -34t126.5 -99.5t50 -160.5t-12 -220l-69 -506h-283l17 125h-5q-61 -80 -151 -115t-184 -35q-70 0 -131.5 19.5 t-105.5 58.5t-64.5 96.5t-10.5 133.5zM395 293q-4 -29 6.5 -48.5t29 -33.5t44 -20.5t49.5 -6.5q45 0 89 12.5t80 35t60.5 57.5t30.5 82l9 65h-76q-35 0 -87 -3t-102.5 -17.5t-88.5 -43t-44 -79.5zM512 1343q6 47 30 88.5t58.5 72t78.5 49t91 18.5t86 -18.5t66 -49t39 -71.5 t6 -89q-6 -47 -30.5 -88t-59.5 -71.5t-79 -49t-91 -18.5t-86 18.5t-65.5 49t-38 71.5t-5.5 88zM635 1343q-6 -43 20.5 -73.5t69.5 -30.5t78 30.5t41 73.5t-20.5 74t-69.5 31t-78 -31t-41 -74z" />
<glyph unicode="&#xe6;" horiz-adv-x="1744" d="M98 283q16 119 91 185.5t174.5 98t207 37.5t191.5 6h37q14 90 -26 145.5t-124 55.5q-76 0 -142.5 -31.5t-123.5 -87.5l-139 168q96 80 216 120t242 40q88 0 170 -28.5t138 -92.5q72 59 162 90t188 31q106 0 188 -37t133.5 -105.5t71 -165t2.5 -214.5l-14 -97h-713 q6 -88 60.5 -140t144.5 -52q76 0 132 33.5t103 87.5l193 -158q-86 -94 -206 -145.5t-241 -51.5q-123 0 -223 35t-151 127q-78 -90 -188.5 -126t-241.5 -36q-70 0 -131.5 19.5t-105.5 58.5t-64.5 96.5t-10.5 133.5zM393 285q-4 -35 8.5 -54.5t34 -30t49 -13.5t52.5 -3 q111 0 165 59.5t68 157.5h-37q-35 0 -90 -2t-108.5 -12t-94.5 -34.5t-47 -67.5zM1057 610h405q12 78 -33 133.5t-129 55.5q-51 0 -92 -16.5t-71.5 -42t-51 -59.5t-28.5 -71z" />
<glyph unicode="&#xe7;" horiz-adv-x="987" d="M147 498q16 119 72.5 215t140.5 164.5t190.5 105.5t221.5 37q88 0 181.5 -29.5t154.5 -103.5l-231 -213q-18 33 -56.5 54.5t-85.5 21.5q-117 0 -190.5 -70t-89.5 -182q-16 -113 38 -182.5t171 -69.5q51 0 92 22.5t71 53.5l172 -213q-84 -74 -184 -104t-188 -30 q-14 0 -19 2l-82 -100q45 0 90.5 -5t80 -22.5t53 -51.5t10.5 -91q-8 -55 -43 -94t-81 -61.5t-97.5 -33t-89.5 -10.5q-61 0 -129 17.5t-119 44.5l65 96q23 -10 61 -22.5t91 -12.5q47 0 93 12.5t52 53.5q4 37 -29.5 53.5t-64.5 16.5q-20 0 -37.5 -4.5t-38.5 -12.5l-57 60 l149 184q-86 18 -154.5 62t-114.5 108.5t-64.5 148.5t-4.5 185z" />
<glyph unicode="&#xe8;" d="M147 498q16 119 72.5 215t140.5 164.5t190.5 105.5t221.5 37q106 0 188 -37t133.5 -105.5t71 -165t2.5 -214.5l-14 -97h-713q6 -88 60.5 -140t144.5 -52q76 0 132.5 33.5t103.5 87.5l192 -158q-86 -94 -205.5 -145.5t-240.5 -51.5q-115 0 -211.5 37t-161 105.5t-94 165 t-13.5 215.5zM375 1450h418l166 -295h-270zM469 610h405q12 78 -32.5 133.5t-128.5 55.5q-51 0 -92 -16.5t-72 -42t-51.5 -59.5t-28.5 -71z" />
<glyph unicode="&#xe9;" d="M147 498q16 119 72.5 215t140.5 164.5t190.5 105.5t221.5 37q106 0 188 -37t133.5 -105.5t71 -165t2.5 -214.5l-14 -97h-713q6 -88 60.5 -140t144.5 -52q76 0 132.5 33.5t103.5 87.5l192 -158q-86 -94 -205.5 -145.5t-240.5 -51.5q-115 0 -211.5 37t-161 105.5t-94 165 t-13.5 215.5zM469 610h405q12 78 -32.5 133.5t-128.5 55.5q-51 0 -92 -16.5t-72 -42t-51.5 -59.5t-28.5 -71zM545 1155l248 295h418l-395 -295h-271z" />
<glyph unicode="&#xea;" d="M147 498q16 119 72.5 215t140.5 164.5t190.5 105.5t221.5 37q106 0 188 -37t133.5 -105.5t71 -165t2.5 -214.5l-14 -97h-713q6 -88 60.5 -140t144.5 -52q76 0 132.5 33.5t103.5 87.5l192 -158q-86 -94 -205.5 -145.5t-240.5 -51.5q-115 0 -211.5 37t-161 105.5t-94 165 t-13.5 215.5zM342 1155l285 295h334l197 -295h-283l-107 160l-149 -160h-277zM469 610h405q12 78 -32.5 133.5t-128.5 55.5q-51 0 -92 -16.5t-72 -42t-51.5 -59.5t-28.5 -71z" />
<glyph unicode="&#xeb;" d="M147 498q16 119 72.5 215t140.5 164.5t190.5 105.5t221.5 37q106 0 188 -37t133.5 -105.5t71 -165t2.5 -214.5l-14 -97h-713q6 -88 60.5 -140t144.5 -52q76 0 132.5 33.5t103.5 87.5l192 -158q-86 -94 -205.5 -145.5t-240.5 -51.5q-115 0 -211.5 37t-161 105.5t-94 165 t-13.5 215.5zM388 1319q4 33 21 63.5t44 53t58.5 37t66.5 14.5q72 0 118 -47t36 -121t-66.5 -125t-132.5 -51q-72 0 -114 52t-31 124zM469 610h405q12 78 -32.5 133.5t-128.5 55.5q-51 0 -92 -16.5t-72 -42t-51.5 -59.5t-28.5 -71zM814 1319q4 33 21 63.5t44 53t58.5 37 t66.5 14.5q72 0 118 -47t36 -121t-66.5 -125t-132.5 -51q-72 0 -114 52t-31 124z" />
<glyph unicode="&#xec;" horiz-adv-x="532" d="M53 1450h418l166 -295h-270zM113 0l139 995h307l-139 -995h-307z" />
<glyph unicode="&#xed;" horiz-adv-x="532" d="M113 0l139 995h307l-139 -995h-307zM223 1155l248 295h418l-395 -295h-271z" />
<glyph unicode="&#xee;" horiz-adv-x="532" d="M20 1155l285 295h334l197 -295h-283l-107 160l-149 -160h-277zM113 0l139 995h307l-139 -995h-307z" />
<glyph unicode="&#xef;" horiz-adv-x="532" d="M66 1319q4 33 21 63.5t44 53t58.5 37t66.5 14.5q72 0 118 -47t36 -121t-66.5 -125t-132.5 -51q-72 0 -114 52t-31 124zM113 0l139 995h307l-139 -995h-307zM492 1319q4 33 21 63.5t44 53t58.5 37t66.5 14.5q72 0 118 -47t36 -121t-66.5 -125t-132.5 -51q-72 0 -114 52 t-31 124z" />
<glyph unicode="&#xf0;" horiz-adv-x="1249" d="M141 498q16 119 73.5 215t138.5 164.5t177.5 105.5t190.5 37q53 0 105.5 -9.5t88.5 -43.5l5 4q-16 29 -40 64.5t-49.5 72.5t-52 70.5t-49.5 56.5l-229 -92l-129 139l235 94q-16 23 -54 60t-71 61l271 143q41 -35 75.5 -71.5t67.5 -75.5l248 98l137 -137l-266 -104 q41 -51 92 -123t92 -167t60.5 -214t-1.5 -264q-18 -139 -70 -252t-133 -192t-189.5 -122t-243.5 -41q-115 0 -211.5 37t-161 105.5t-94 165t-13.5 215.5zM449 498q-16 -113 38 -182.5t170 -69.5q117 0 192 69.5t91 182.5t-39 182.5t-172 69.5t-190.5 -69.5t-89.5 -182.5z " />
<glyph unicode="&#xf1;" d="M109 0l139 995h295l-19 -135h4q18 29 49 57.5t70 51t88 37t105 14.5q117 0 184.5 -36t98 -99.5t32.5 -149.5t-12 -186l-76 -549h-307l67 487q6 43 10.5 89.5t-6 85t-39 63.5t-87.5 25t-99.5 -21.5t-65 -57.5t-36.5 -81t-19 -94l-69 -496h-307zM351 1167q14 51 41.5 102.5 t65.5 91.5t86 64.5t106 24.5q51 0 91 -12.5t81 -30.5q27 -10 53.5 -20.5t56.5 -10.5q35 0 58.5 21.5t42.5 52.5h159q-18 -59 -43.5 -110.5t-62.5 -89.5t-86 -60.5t-113 -22.5q-45 0 -83 13.5t-70 29.5q-35 16 -64 29.5t-59 13.5q-35 0 -60.5 -28.5t-38.5 -57.5h-161z" />
<glyph unicode="&#xf2;" horiz-adv-x="1249" d="M141 498q16 119 72.5 215t140.5 164.5t190.5 105.5t221.5 37t211 -37t161.5 -105.5t95.5 -165t13 -214.5q-16 -119 -73.5 -215.5t-141.5 -165t-190.5 -105.5t-220.5 -37q-115 0 -211.5 37t-161 105.5t-94 165t-13.5 215.5zM411 1450h418l166 -295h-270zM449 498 q-16 -113 38 -182.5t170 -69.5q117 0 192 69.5t91 182.5t-39 182.5t-172 69.5t-190.5 -69.5t-89.5 -182.5z" />
<glyph unicode="&#xf3;" horiz-adv-x="1249" d="M141 498q16 119 72.5 215t140.5 164.5t190.5 105.5t221.5 37t211 -37t161.5 -105.5t95.5 -165t13 -214.5q-16 -119 -73.5 -215.5t-141.5 -165t-190.5 -105.5t-220.5 -37q-115 0 -211.5 37t-161 105.5t-94 165t-13.5 215.5zM449 498q-16 -113 38 -182.5t170 -69.5 q117 0 192 69.5t91 182.5t-39 182.5t-172 69.5t-190.5 -69.5t-89.5 -182.5zM581 1155l248 295h418l-395 -295h-271z" />
<glyph unicode="&#xf4;" horiz-adv-x="1249" d="M141 498q16 119 72.5 215t140.5 164.5t190.5 105.5t221.5 37t211 -37t161.5 -105.5t95.5 -165t13 -214.5q-16 -119 -73.5 -215.5t-141.5 -165t-190.5 -105.5t-220.5 -37q-115 0 -211.5 37t-161 105.5t-94 165t-13.5 215.5zM378 1155l285 295h334l197 -295h-283l-107 160 l-149 -160h-277zM449 498q-16 -113 38 -182.5t170 -69.5q117 0 192 69.5t91 182.5t-39 182.5t-172 69.5t-190.5 -69.5t-89.5 -182.5z" />
<glyph unicode="&#xf5;" horiz-adv-x="1249" d="M141 498q16 119 72.5 215t140.5 164.5t190.5 105.5t221.5 37t211 -37t161.5 -105.5t95.5 -165t13 -214.5q-16 -119 -73.5 -215.5t-141.5 -165t-190.5 -105.5t-220.5 -37q-115 0 -211.5 37t-161 105.5t-94 165t-13.5 215.5zM387 1167q14 51 41.5 102.5t65.5 91.5t86 64.5 t106 24.5q51 0 91 -12.5t81 -30.5q27 -10 53.5 -20.5t56.5 -10.5q35 0 58.5 21.5t42.5 52.5h159q-18 -59 -43.5 -110.5t-62.5 -89.5t-86 -60.5t-113 -22.5q-45 0 -83 13.5t-70 29.5q-35 16 -64 29.5t-59 13.5q-35 0 -60.5 -28.5t-38.5 -57.5h-161zM449 498 q-16 -113 38 -182.5t170 -69.5q117 0 192 69.5t91 182.5t-39 182.5t-172 69.5t-190.5 -69.5t-89.5 -182.5z" />
<glyph unicode="&#xf6;" horiz-adv-x="1249" d="M141 498q16 119 72.5 215t140.5 164.5t190.5 105.5t221.5 37t211 -37t161.5 -105.5t95.5 -165t13 -214.5q-16 -119 -73.5 -215.5t-141.5 -165t-190.5 -105.5t-220.5 -37q-115 0 -211.5 37t-161 105.5t-94 165t-13.5 215.5zM424 1319q4 33 21 63.5t44 53t58.5 37 t66.5 14.5q72 0 118 -47t36 -121t-66.5 -125t-132.5 -51q-72 0 -114 52t-31 124zM449 498q-16 -113 38 -182.5t170 -69.5q117 0 192 69.5t91 182.5t-39 182.5t-172 69.5t-190.5 -69.5t-89.5 -182.5zM850 1319q4 33 21 63.5t44 53t58.5 37t66.5 14.5q72 0 118 -47t36 -121 t-66.5 -125t-132.5 -51q-72 0 -114 52t-31 124z" />
<glyph unicode="&#xf7;" horiz-adv-x="1363" d="M188 492l37 258h1123l-37 -258h-1123zM539 233q4 37 22.5 69t46 55.5t61 38t70.5 14.5t67 -14.5t50.5 -38t29.5 -55.5t5 -69q-6 -37 -24.5 -68.5t-46 -55t-61.5 -38t-71 -14.5q-72 0 -115.5 52t-33.5 124zM647 1008q4 37 22.5 68.5t46 55t61.5 38t71 14.5t66.5 -14.5 t50 -38t30 -55.5t4.5 -68q-6 -37 -24.5 -69t-45 -55.5t-60 -38t-70.5 -14.5t-67 14.5t-50 38t-30.5 55.5t-4.5 69z" />
<glyph unicode="&#xf8;" horiz-adv-x="1249" d="M53 12l164 144q-49 66 -70.5 151.5t-5.5 190.5q16 119 72.5 215t140.5 164.5t190.5 105.5t221.5 37q98 0 180 -26.5t146 -73.5l155 137l84 -92l-155 -136q47 -66 66.5 -149.5t4.5 -181.5q-16 -119 -73.5 -215.5t-141.5 -165t-190.5 -105.5t-220.5 -37q-184 0 -314 95 l-170 -150zM449 498q-12 -74 12 -129l397 348q-53 33 -129 33q-117 0 -190.5 -70t-89.5 -182zM541 274q51 -29 116 -28q117 0 192 69.5t91 182.5q8 59 -8 116z" />
<glyph unicode="&#xf9;" d="M158 260q-2 86 12 186l78 549h307l-70 -487q-6 -43 -10 -89t6.5 -85t39 -63.5t87.5 -24.5t99.5 21.5t65 57t37.5 81t19 94.5l70 495h307l-139 -995h-295l19 135h-5q-20 -29 -49.5 -57.5t-69.5 -51t-89.5 -37t-104.5 -14.5q-117 0 -184.5 36t-98 99.5t-32.5 149.5z M375 1450h418l166 -295h-270z" />
<glyph unicode="&#xfa;" d="M158 260q-2 86 12 186l78 549h307l-70 -487q-6 -43 -10 -89t6.5 -85t39 -63.5t87.5 -24.5t99.5 21.5t65 57t37.5 81t19 94.5l70 495h307l-139 -995h-295l19 135h-5q-20 -29 -49.5 -57.5t-69.5 -51t-89.5 -37t-104.5 -14.5q-117 0 -184.5 36t-98 99.5t-32.5 149.5z M545 1155l248 295h418l-395 -295h-271z" />
<glyph unicode="&#xfb;" d="M158 260q-2 86 12 186l78 549h307l-70 -487q-6 -43 -10 -89t6.5 -85t39 -63.5t87.5 -24.5t99.5 21.5t65 57t37.5 81t19 94.5l70 495h307l-139 -995h-295l19 135h-5q-20 -29 -49.5 -57.5t-69.5 -51t-89.5 -37t-104.5 -14.5q-117 0 -184.5 36t-98 99.5t-32.5 149.5z M342 1155l285 295h334l197 -295h-283l-107 160l-149 -160h-277z" />
<glyph unicode="&#xfc;" d="M158 260q-2 86 12 186l78 549h307l-70 -487q-6 -43 -10 -89t6.5 -85t39 -63.5t87.5 -24.5t99.5 21.5t65 57t37.5 81t19 94.5l70 495h307l-139 -995h-295l19 135h-5q-20 -29 -49.5 -57.5t-69.5 -51t-89.5 -37t-104.5 -14.5q-117 0 -184.5 36t-98 99.5t-32.5 149.5z M388 1319q4 33 21 63.5t44 53t58.5 37t66.5 14.5q72 0 118 -47t36 -121t-66.5 -125t-132.5 -51q-72 0 -114 52t-31 124zM814 1319q4 33 21 63.5t44 53t58.5 37t66.5 14.5q72 0 118 -47t36 -121t-66.5 -125t-132.5 -51q-72 0 -114 52t-31 124z" />
<glyph unicode="&#xfd;" horiz-adv-x="1138" d="M-33 -455l76 252q63 -31 137 -30q51 0 86 11t59.5 32.5t43 52.5t41.5 71l30 58l-295 1003h332l164 -657h4l311 657h316l-615 -1157q-41 -80 -77.5 -141.5t-87 -103.5t-121 -63.5t-181.5 -21.5q-119 0 -223 37zM526 1155l248 295h418l-395 -295h-271z" />
<glyph unicode="&#xfe;" horiz-adv-x="1290" d="M70 -467l284 2015h308l-95 -659h4q45 59 129 95t170 36q111 0 196 -38t140.5 -106.5t77 -163t4.5 -206.5q-14 -104 -59 -199.5t-113.5 -169.5t-159 -118t-196.5 -44q-96 0 -176 30t-121 101h-4l-82 -573h-307zM489 498q-16 -113 38.5 -182.5t170.5 -69.5q117 0 192 69.5 t91 182.5t-39 182.5t-172 69.5t-191 -69.5t-90 -182.5z" />
<glyph unicode="&#xff;" horiz-adv-x="1138" d="M-33 -455l76 252q63 -31 137 -30q51 0 86 11t59.5 32.5t43 52.5t41.5 71l30 58l-295 1003h332l164 -657h4l311 657h316l-615 -1157q-41 -80 -77.5 -141.5t-87 -103.5t-121 -63.5t-181.5 -21.5q-119 0 -223 37zM369 1319q4 33 21 63.5t44 53t58.5 37t66.5 14.5 q72 0 118 -47t36 -121t-66.5 -125t-132.5 -51q-72 0 -114 52t-31 124zM795 1319q4 33 21 63.5t44 53t58.5 37t66.5 14.5q72 0 118 -47t36 -121t-66.5 -125t-132.5 -51q-72 0 -114 52t-31 124z" />
<glyph unicode="&#x100;" horiz-adv-x="1517" d="M-2 0l829 1450h265l428 -1450h-361l-82 307h-563l-164 -307h-352zM624 1612l29 196h696l-28 -196h-697zM651 578h355l-115 450z" />
<glyph unicode="&#x101;" horiz-adv-x="1099" d="M98 283q18 129 97 199.5t186.5 104.5t225.5 40t214 6q10 82 -41 130t-131 48q-76 0 -142.5 -31.5t-123.5 -87.5l-139 168q96 80 216 120t242 40q135 0 218.5 -34t126.5 -99.5t50 -160.5t-12 -220l-69 -506h-283l17 125h-5q-61 -80 -151 -115t-184 -35q-70 0 -131.5 19.5 t-105.5 58.5t-64.5 96.5t-10.5 133.5zM395 293q-4 -29 6.5 -48.5t29 -33.5t44 -20.5t49.5 -6.5q45 0 89 12.5t80 35t60.5 57.5t30.5 82l9 65h-76q-35 0 -87 -3t-102.5 -17.5t-88.5 -43t-44 -79.5zM405 1210l27 197h696l-27 -197h-696z" />
<glyph unicode="&#x102;" horiz-adv-x="1517" d="M-2 0l829 1450h265l428 -1450h-361l-82 307h-563l-164 -307h-352zM631 1851h163q2 -31 20.5 -49t47.5 -29.5t62.5 -15.5t68.5 -4q80 0 137.5 15.5t91.5 82.5h162q-20 -78 -61 -134t-96.5 -92t-122 -52.5t-140.5 -16.5q-72 0 -136 15.5t-110.5 51.5t-71 92.5t-15.5 135.5z M651 578h355l-115 450z" />
<glyph unicode="&#x103;" horiz-adv-x="1099" d="M98 283q18 129 97 199.5t186.5 104.5t225.5 40t214 6q10 82 -41 130t-131 48q-76 0 -142.5 -31.5t-123.5 -87.5l-139 168q96 80 216 120t242 40q135 0 218.5 -34t126.5 -99.5t50 -160.5t-12 -220l-69 -506h-283l17 125h-5q-61 -80 -151 -115t-184 -35q-70 0 -131.5 19.5 t-105.5 58.5t-64.5 96.5t-10.5 133.5zM395 293q-4 -29 6.5 -48.5t29 -33.5t44 -20.5t49.5 -6.5q45 0 89 12.5t80 35t60.5 57.5t30.5 82l9 65h-76q-35 0 -87 -3t-102.5 -17.5t-88.5 -43t-44 -79.5zM409 1450h164q2 -31 21.5 -49.5t47 -29.5t61.5 -15t69 -4q80 0 138 15t91 83 h162q-18 -78 -59.5 -134t-96.5 -92t-121.5 -52.5t-140.5 -16.5t-137.5 15.5t-110.5 51t-70.5 92t-17.5 136.5z" />
<glyph unicode="&#x104;" horiz-adv-x="1517" d="M-2 0l829 1450h265l428 -1450h-220q-29 -25 -58.5 -55.5t-55 -63.5t-44 -66.5t-22.5 -64.5q-4 -35 16.5 -64.5t57.5 -29.5q29 0 59.5 14.5t57.5 32.5l43 -109q-57 -39 -113.5 -62.5t-122.5 -23.5q-43 0 -81 12.5t-63.5 37t-37.5 59.5t-6 82q6 39 28.5 81t55.5 82 t70.5 75.5t74.5 62.5l-82 307h-563l-164 -307h-352zM651 578h355l-115 450z" />
<glyph unicode="&#x105;" horiz-adv-x="1099" d="M98 283q12 86 53.5 145t100.5 98t131 60.5t148.5 32t151.5 12.5t138 2q10 82 -41 130t-131 48q-76 0 -142.5 -31.5t-123.5 -87.5l-139 168q98 80 217 120t241 40q135 0 218.5 -34t126.5 -99.5t50 -160.5t-12 -220l-69 -506h-139q-29 -25 -59 -55.5t-55.5 -63.5t-44 -66.5 t-22.5 -64.5q-4 -35 16.5 -64.5t57.5 -29.5q29 0 59.5 14.5t57.5 32.5l43 -109q-57 -39 -113.5 -62.5t-122.5 -23.5q-43 0 -81 12.5t-63.5 37t-37.5 59.5t-6 82q6 39 28.5 81t55.5 81t70.5 74.5t72.5 64.5l17 125h-5q-61 -80 -151 -115t-184 -35q-72 0 -133.5 19.5 t-104.5 58.5t-63.5 96.5t-10.5 133.5zM395 293q-4 -29 6.5 -48.5t29 -33.5t44 -20.5t49.5 -6.5q45 0 89 12.5t80 35t60.5 57.5t30.5 82l9 65h-76q-35 0 -87 -3t-102.5 -17.5t-88.5 -43t-44 -79.5z" />
<glyph unicode="&#x106;" horiz-adv-x="1402" d="M170 725q25 174 103.5 315.5t196.5 240.5t269.5 152.5t321.5 53.5q61 0 125.5 -11.5t126 -36t116 -65.5t91.5 -100l-275 -201q-41 57 -104.5 88t-153.5 31t-172 -35t-146.5 -97.5t-108.5 -148.5t-58 -186q-14 -102 5 -187t65 -147.5t117 -97.5t157 -35q98 0 180 41 t141 115l238 -199q-111 -129 -260.5 -190.5t-298.5 -61.5q-170 0 -306.5 53.5t-226.5 152.5t-129 240.5t-14 315.5zM816 1556l249 295h418l-397 -295h-270z" />
<glyph unicode="&#x107;" horiz-adv-x="987" d="M147 498q16 119 72.5 215t140.5 164.5t190.5 105.5t221.5 37q88 0 181.5 -29.5t154.5 -103.5l-231 -213q-18 33 -56.5 54.5t-85.5 21.5q-117 0 -190.5 -70t-89.5 -182q-16 -113 38 -182.5t171 -69.5q51 0 92 22.5t71 53.5l172 -213q-84 -74 -184 -104t-188 -30 q-115 0 -211.5 37t-161 105.5t-94 165t-13.5 215.5zM561 1155l248 295h418l-395 -295h-271z" />
<glyph unicode="&#x108;" horiz-adv-x="1402" d="M170 725q25 174 103.5 315.5t196.5 240.5t269.5 152.5t321.5 53.5q61 0 125.5 -11.5t126 -36t116 -65.5t91.5 -100l-275 -201q-41 57 -104.5 88t-153.5 31t-172 -35t-146.5 -97.5t-108.5 -148.5t-58 -186q-14 -102 5 -187t65 -147.5t117 -97.5t157 -35q98 0 180 41 t141 115l238 -199q-111 -129 -260.5 -190.5t-298.5 -61.5q-170 0 -306.5 53.5t-226.5 152.5t-129 240.5t-14 315.5zM629 1556l286 295h334l195 -295h-283l-106 160l-150 -160h-276z" />
<glyph unicode="&#x109;" horiz-adv-x="987" d="M147 498q16 119 72.5 215t140.5 164.5t190.5 105.5t221.5 37q88 0 181.5 -29.5t154.5 -103.5l-231 -213q-18 33 -56.5 54.5t-85.5 21.5q-117 0 -190.5 -70t-89.5 -182q-16 -113 38 -182.5t171 -69.5q51 0 92 22.5t71 53.5l172 -213q-84 -74 -184 -104t-188 -30 q-115 0 -211.5 37t-161 105.5t-94 165t-13.5 215.5zM350 1155l285 295h334l197 -295h-283l-107 160l-149 -160h-277z" />
<glyph unicode="&#x10a;" horiz-adv-x="1402" d="M170 725q25 174 103.5 315.5t196.5 240.5t269.5 152.5t321.5 53.5q61 0 125.5 -11.5t126 -36t116 -65.5t91.5 -100l-275 -201q-41 57 -104.5 88t-153.5 31t-172 -35t-146.5 -97.5t-108.5 -148.5t-58 -186q-14 -102 5 -187t65 -147.5t117 -97.5t157 -35q98 0 180 41 t141 115l238 -199q-111 -129 -260.5 -190.5t-298.5 -61.5q-170 0 -306.5 53.5t-226.5 152.5t-129 240.5t-14 315.5zM889 1720q4 33 21.5 64t43 53.5t57 36.5t66.5 14q72 0 119 -47t37 -121q-6 -37 -23.5 -68.5t-44 -56t-61.5 -38t-72 -13.5t-65.5 14.5t-48 39t-27.5 56.5 t-2 66z" />
<glyph unicode="&#x10b;" horiz-adv-x="987" d="M147 498q16 119 72.5 215t140.5 164.5t190.5 105.5t221.5 37q88 0 181.5 -29.5t154.5 -103.5l-231 -213q-18 33 -56.5 54.5t-85.5 21.5q-117 0 -190.5 -70t-89.5 -182q-16 -113 38 -182.5t171 -69.5q51 0 92 22.5t71 53.5l172 -213q-84 -74 -184 -104t-188 -30 q-115 0 -211.5 37t-161 105.5t-94 165t-13.5 215.5zM609 1319q4 33 21 63.5t44 53t58.5 37t66.5 14.5q72 0 118 -47t36 -121t-66.5 -125t-132.5 -51q-72 0 -114 52t-31 124z" />
<glyph unicode="&#x10c;" horiz-adv-x="1402" d="M170 725q25 174 103.5 315.5t196.5 240.5t269.5 152.5t321.5 53.5q61 0 125.5 -11.5t126 -36t116 -65.5t91.5 -100l-275 -201q-41 57 -104.5 88t-153.5 31t-172 -35t-146.5 -97.5t-108.5 -148.5t-58 -186q-14 -102 5 -187t65 -147.5t117 -97.5t157 -35q98 0 180 41 t141 115l238 -199q-111 -129 -260.5 -190.5t-298.5 -61.5q-170 0 -306.5 53.5t-226.5 152.5t-129 240.5t-14 315.5zM670 1907h282l107 -160l149 160h277l-285 -295h-334z" />
<glyph unicode="&#x10d;" horiz-adv-x="987" d="M147 498q16 119 72.5 215t140.5 164.5t190.5 105.5t221.5 37q88 0 181.5 -29.5t154.5 -103.5l-231 -213q-18 33 -56.5 54.5t-85.5 21.5q-117 0 -190.5 -70t-89.5 -182q-16 -113 38 -182.5t171 -69.5q51 0 92 22.5t71 53.5l172 -213q-84 -74 -184 -104t-188 -30 q-115 0 -211.5 37t-161 105.5t-94 165t-13.5 215.5zM383 1450h283l106 -160l150 160h276l-284 -295h-334z" />
<glyph unicode="&#x10e;" horiz-adv-x="1554" d="M147 0l203 1450h479q174 0 325 -39t256.5 -126t153.5 -226t21 -338q-25 -176 -109.5 -310.5t-209.5 -225.5t-280 -138t-316 -47h-523zM508 295h166q111 0 209 22.5t175 74.5t128 137t69 208q14 106 -13.5 185t-88.5 130.5t-148 77t-188 25.5h-188zM551 1907h282l107 -160 l149 160h277l-285 -295h-334z" />
<glyph unicode="&#x10f;" horiz-adv-x="1290" d="M139 489q14 104 59.5 199.5t114 169.5t158.5 118t197 44q96 0 176 -29.5t121 -101.5h4l94 659h307l-217 -1548h-283l17 131h-4q-20 -27 -54 -54.5t-77 -50t-93.5 -37t-101.5 -14.5q-111 0 -196 38t-140 106.5t-76.5 163t-5.5 206.5zM449 498q-16 -113 38 -182.5 t170 -69.5q117 0 192 69.5t91 182.5t-39 182.5t-172 69.5t-190.5 -70t-89.5 -182zM1401 1042l148 408h274l-221 -408h-201z" />
<glyph unicode="&#x110;" horiz-adv-x="1554" d="M115 651l30 209h123l82 590h479q174 0 325 -39t256.5 -126t153.5 -226t21 -338q-25 -176 -109.5 -310.5t-209.5 -225.5t-280 -138t-316 -47h-523l91 651h-123zM508 295h166q111 0 209 22.5t175 74.5t128 137t69 208q14 106 -13.5 185t-88.5 130.5t-148 77t-188 25.5h-188 l-41 -295h405l-30 -209h-406z" />
<glyph unicode="&#x111;" horiz-adv-x="1290" d="M139 489q14 104 59.5 199.5t114 169.5t158.5 118t197 44q98 0 176 -29.5t121 -101.5h4l37 260h-275l29 197h274l29 202h307l-29 -202h115l-29 -197h-114l-160 -1149h-283l17 131h-4q-23 -27 -56.5 -54.5t-75.5 -50t-92.5 -37t-101.5 -14.5q-111 0 -196 38t-140 106.5 t-76.5 163t-5.5 206.5zM449 498q-16 -113 38 -182.5t170 -69.5q117 0 192 69.5t91 182.5t-39 182.5t-172 69.5t-190.5 -70t-89.5 -182z" />
<glyph unicode="&#x112;" horiz-adv-x="1290" d="M160 0l202 1450h986l-41 -295h-666l-39 -270h629l-41 -295h-629l-41 -295h703l-41 -295h-1022zM540 1612l29 196h696l-28 -196h-697z" />
<glyph unicode="&#x113;" d="M147 498q16 119 72.5 215t140.5 164.5t190.5 105.5t221.5 37q106 0 188 -37t133.5 -105.5t71 -165t2.5 -214.5l-14 -97h-713q6 -88 60.5 -140t144.5 -52q76 0 132.5 33.5t103.5 87.5l192 -158q-86 -94 -205.5 -145.5t-240.5 -51.5q-115 0 -211.5 37t-161 105.5t-94 165 t-13.5 215.5zM428 1210l27 197h696l-27 -197h-696zM469 610h405q12 78 -32.5 133.5t-128.5 55.5q-51 0 -92 -16.5t-72 -42t-51.5 -59.5t-28.5 -71z" />
<glyph unicode="&#x114;" horiz-adv-x="1290" d="M160 0l202 1450h986l-41 -295h-666l-39 -270h629l-41 -295h-629l-41 -295h703l-41 -295h-1022zM547 1851h163q2 -31 20.5 -49t47.5 -29.5t62.5 -15.5t68.5 -4q80 0 137.5 15.5t91.5 82.5h162q-20 -78 -61 -134t-96.5 -92t-122 -52.5t-140.5 -16.5q-72 0 -136 15.5 t-110.5 51.5t-71 92.5t-15.5 135.5z" />
<glyph unicode="&#x115;" d="M147 498q16 119 72.5 215t140.5 164.5t190.5 105.5t221.5 37q106 0 188 -37t133.5 -105.5t71 -165t2.5 -214.5l-14 -97h-713q6 -88 60.5 -140t144.5 -52q76 0 132.5 33.5t103.5 87.5l192 -158q-86 -94 -205.5 -145.5t-240.5 -51.5q-115 0 -211.5 37t-161 105.5t-94 165 t-13.5 215.5zM432 1450h164q2 -31 21.5 -49.5t47 -29.5t61.5 -15t69 -4q80 0 138 15t91 83h162q-18 -78 -59.5 -134t-96.5 -92t-121.5 -52.5t-140.5 -16.5t-137.5 15.5t-110.5 51t-70.5 92t-17.5 136.5zM469 610h405q12 78 -32.5 133.5t-128.5 55.5q-51 0 -92 -16.5t-72 -42 t-51.5 -59.5t-28.5 -71z" />
<glyph unicode="&#x116;" horiz-adv-x="1290" d="M160 0l202 1450h986l-41 -295h-666l-39 -270h629l-41 -295h-629l-41 -295h703l-41 -295h-1022zM750 1720q4 33 21.5 64t43 53.5t57 36.5t66.5 14q72 0 119 -47t37 -121q-6 -37 -23.5 -68.5t-44 -56t-61.5 -38t-72 -13.5t-65.5 14.5t-48 39t-27.5 56.5t-2 66z" />
<glyph unicode="&#x117;" d="M147 498q16 119 72.5 215t140.5 164.5t190.5 105.5t221.5 37q106 0 188 -37t133.5 -105.5t71 -165t2.5 -214.5l-14 -97h-713q6 -88 60.5 -140t144.5 -52q76 0 132.5 33.5t103.5 87.5l192 -158q-86 -94 -205.5 -145.5t-240.5 -51.5q-115 0 -211.5 37t-161 105.5t-94 165 t-13.5 215.5zM469 610h405q12 78 -32.5 133.5t-128.5 55.5q-51 0 -92 -16.5t-72 -42t-51.5 -59.5t-28.5 -71zM631 1319q4 33 21 63.5t44 53t58.5 37t66.5 14.5q72 0 118 -47t36 -121t-66.5 -125t-132.5 -51q-72 0 -114 52t-31 124z" />
<glyph unicode="&#x118;" horiz-adv-x="1290" d="M160 0l202 1450h986l-41 -295h-666l-39 -270h629l-41 -295h-629l-41 -295h703l-41 -295h-131q-29 -25 -58.5 -55.5t-55.5 -63.5t-44.5 -66.5t-22.5 -64.5q-4 -35 16.5 -64.5t57.5 -29.5q29 0 59.5 14.5t57.5 32.5l43 -109q-57 -39 -113.5 -62.5t-122.5 -23.5 q-43 0 -80.5 12.5t-63.5 37t-38 59.5t-6 82q6 39 28.5 81t55.5 81t70.5 74.5t72.5 64.5h-747z" />
<glyph unicode="&#x119;" d="M147 498q16 119 72.5 215t140.5 164.5t190.5 105.5t221.5 37q106 0 188 -37t133.5 -105.5t71 -165t2.5 -214.5l-14 -97h-713q6 -88 59.5 -140t145.5 -52q76 0 132.5 33.5t103.5 87.5l192 -158q-70 -74 -157 -121t-181 -65q-29 -25 -55.5 -53.5t-49 -59.5t-39 -62.5 t-20.5 -60.5q-4 -35 16.5 -64.5t57.5 -29.5q29 0 59.5 14.5t57.5 32.5l43 -109q-57 -39 -113.5 -62.5t-122.5 -23.5q-43 0 -80.5 12.5t-63.5 37t-38 59.5t-6 82q6 37 24.5 74t46 72.5t60.5 69.5t66 62q-104 8 -191.5 48.5t-146 108t-84 159.5t-9.5 205zM469 610h405 q14 78 -31.5 133.5t-129.5 55.5q-51 0 -92 -16.5t-73 -42t-51.5 -59.5t-27.5 -71z" />
<glyph unicode="&#x11a;" horiz-adv-x="1290" d="M160 0l202 1450h986l-41 -295h-666l-39 -270h629l-41 -295h-629l-41 -295h703l-41 -295h-1022zM514 1907h282l107 -160l149 160h277l-285 -295h-334z" />
<glyph unicode="&#x11b;" d="M147 498q16 119 72.5 215t140.5 164.5t190.5 105.5t221.5 37q106 0 188 -37t133.5 -105.5t71 -165t2.5 -214.5l-14 -97h-713q6 -88 60.5 -140t144.5 -52q76 0 132.5 33.5t103.5 87.5l192 -158q-86 -94 -205.5 -145.5t-240.5 -51.5q-115 0 -211.5 37t-161 105.5t-94 165 t-13.5 215.5zM393 1450h283l106 -160l150 160h276l-284 -295h-334zM469 610h405q12 78 -32.5 133.5t-128.5 55.5q-51 0 -92 -16.5t-72 -42t-51.5 -59.5t-28.5 -71z" />
<glyph unicode="&#x11c;" horiz-adv-x="1593" d="M170 725q25 174 103.5 315.5t196.5 240.5t269.5 152.5t321.5 53.5q174 0 314.5 -42t236.5 -145l-260 -245q-55 68 -133 102.5t-201 34.5q-102 0 -190.5 -35t-156 -97.5t-111.5 -148.5t-58 -186q-14 -102 6 -187t70.5 -147.5t128 -97.5t180.5 -35q104 0 184 23.5t127 48.5 l33 235h-260l43 295h567l-106 -758q-154 -74 -311.5 -106.5t-317.5 -32.5q-170 0 -306.5 53.5t-226.5 152.5t-129 240.5t-14 315.5zM654 1556l286 295h334l195 -295h-283l-106 160l-150 -160h-276z" />
<glyph unicode="&#x11d;" horiz-adv-x="1290" d="M29 -346l204 254q63 -59 137 -94t169 -35q141 0 216.5 68.5t92.5 175.5l14 96h-4q-63 -72 -146 -101.5t-153 -29.5q-111 0 -195.5 37.5t-140 106.5t-77 163t-5.5 207q14 98 58.5 192t113 166t158.5 116t197 44q66 0 119 -14.5t93 -37t66.5 -50t40.5 -54.5h4l19 131h282 l-129 -911q-39 -283 -201.5 -429.5t-453.5 -146.5q-133 0 -258 30t-221 116zM391 1155l285 295h334l197 -295h-283l-107 160l-149 -160h-277zM449 504q-6 -49 6 -93t39.5 -78t69.5 -54.5t95 -20.5q51 0 99.5 20.5t86.5 54.5t63.5 78t31.5 93t-6 93t-40 78t-71 54.5t-94 20.5 q-53 0 -100 -20.5t-85 -54.5t-63.5 -78t-31.5 -93z" />
<glyph unicode="&#x11e;" horiz-adv-x="1593" d="M170 725q25 174 103.5 315.5t196.5 240.5t269.5 152.5t321.5 53.5q174 0 314.5 -42t236.5 -145l-260 -245q-55 68 -133 102.5t-201 34.5q-102 0 -190.5 -35t-156 -97.5t-111.5 -148.5t-58 -186q-14 -102 6 -187t70.5 -147.5t128 -97.5t180.5 -35q104 0 184 23.5t127 48.5 l33 235h-260l43 295h567l-106 -758q-154 -74 -311.5 -106.5t-317.5 -32.5q-170 0 -306.5 53.5t-226.5 152.5t-129 240.5t-14 315.5zM728 1851h163q2 -31 20.5 -49t47.5 -29.5t62.5 -15.5t68.5 -4q80 0 137.5 15.5t91.5 82.5h162q-20 -78 -61 -134t-96.5 -92t-122 -52.5 t-140.5 -16.5q-72 0 -136 15.5t-110.5 51.5t-71 92.5t-15.5 135.5z" />
<glyph unicode="&#x11f;" horiz-adv-x="1290" d="M29 -346l204 254q63 -59 137 -94t169 -35q141 0 216.5 68.5t92.5 175.5l14 96h-4q-63 -72 -146 -101.5t-153 -29.5q-111 0 -195.5 37.5t-140 106.5t-77 163t-5.5 207q14 98 58.5 192t113 166t158.5 116t197 44q66 0 119 -14.5t93 -37t66.5 -50t40.5 -54.5h4l19 131h282 l-129 -911q-39 -283 -201.5 -429.5t-453.5 -146.5q-133 0 -258 30t-221 116zM449 504q-6 -49 6 -93t39.5 -78t69.5 -54.5t95 -20.5q51 0 99.5 20.5t86.5 54.5t63.5 78t31.5 93t-6 93t-40 78t-71 54.5t-94 20.5q-53 0 -100 -20.5t-85 -54.5t-63.5 -78t-31.5 -93zM483 1450 h164q2 -31 21.5 -49.5t47 -29.5t61.5 -15t69 -4q80 0 138 15t91 83h162q-18 -78 -59.5 -134t-96.5 -92t-121.5 -52.5t-140.5 -16.5t-137.5 15.5t-110.5 51t-70.5 92t-17.5 136.5z" />
<glyph unicode="&#x120;" horiz-adv-x="1593" d="M170 725q25 174 103.5 315.5t196.5 240.5t269.5 152.5t321.5 53.5q174 0 314.5 -42t236.5 -145l-260 -245q-55 68 -133 102.5t-201 34.5q-102 0 -190.5 -35t-156 -97.5t-111.5 -148.5t-58 -186q-14 -102 6 -187t70.5 -147.5t128 -97.5t180.5 -35q104 0 184 23.5t127 48.5 l33 235h-260l43 295h567l-106 -758q-154 -74 -311.5 -106.5t-317.5 -32.5q-170 0 -306.5 53.5t-226.5 152.5t-129 240.5t-14 315.5zM914 1720q4 33 21.5 64t43 53.5t57 36.5t66.5 14q72 0 119 -47t37 -121q-6 -37 -23.5 -68.5t-44 -56t-61.5 -38t-72 -13.5t-65.5 14.5 t-48 39t-27.5 56.5t-2 66z" />
<glyph unicode="&#x121;" horiz-adv-x="1290" d="M29 -346l204 254q63 -59 137 -94t169 -35q141 0 216.5 68.5t92.5 175.5l14 96h-4q-63 -72 -146 -101.5t-153 -29.5q-111 0 -195.5 37.5t-140 106.5t-77 163t-5.5 207q14 98 58.5 192t113 166t158.5 116t197 44q66 0 119 -14.5t93 -37t66.5 -50t40.5 -54.5h4l19 131h282 l-129 -911q-39 -283 -201.5 -429.5t-453.5 -146.5q-133 0 -258 30t-221 116zM449 504q-6 -49 6 -93t39.5 -78t69.5 -54.5t95 -20.5q51 0 99.5 20.5t86.5 54.5t63.5 78t31.5 93t-6 93t-40 78t-71 54.5t-94 20.5q-53 0 -100 -20.5t-85 -54.5t-63.5 -78t-31.5 -93zM670 1319 q4 33 21 63.5t44 53t58.5 37t66.5 14.5q72 0 118 -47t36 -121t-66.5 -125t-132.5 -51q-72 0 -114 52t-31 124z" />
<glyph unicode="&#x122;" horiz-adv-x="1593" d="M170 725q25 174 103.5 315.5t196.5 240.5t269.5 152.5t321.5 53.5q174 0 314.5 -42t236.5 -145l-260 -245q-55 68 -133 102.5t-201 34.5q-102 0 -190.5 -35t-156 -97.5t-111.5 -148.5t-58 -186q-14 -102 6 -187t70.5 -147.5t128 -97.5t180.5 -35q104 0 184 23.5t127 48.5 l33 235h-260l43 295h567l-106 -758q-154 -74 -311.5 -106.5t-317.5 -32.5q-170 0 -306.5 53.5t-226.5 152.5t-129 240.5t-14 315.5zM543 -532l186 407h295l-242 -407h-239z" />
<glyph unicode="&#x123;" horiz-adv-x="1290" d="M29 -346l204 254q63 -59 137 -94t169 -35q141 0 216.5 68.5t92.5 175.5l14 96h-4q-63 -72 -146 -101.5t-153 -29.5q-111 0 -195.5 37.5t-140 106.5t-77 163t-5.5 207q14 98 58.5 192t113 166t158.5 116t197 44q66 0 119 -14.5t93 -37t66.5 -50t40.5 -54.5h4l19 131h282 l-129 -911q-39 -283 -201.5 -429.5t-453.5 -146.5q-133 0 -258 30t-221 116zM449 504q-6 -49 6 -93t39.5 -78t69.5 -54.5t95 -20.5q51 0 99.5 20.5t86.5 54.5t63.5 78t31.5 93t-6 93t-40 78t-71 54.5t-94 20.5q-53 0 -100 -20.5t-85 -54.5t-63.5 -78t-31.5 -93zM635 1196 l241 408h242l-188 -408h-295z" />
<glyph unicode="&#x124;" horiz-adv-x="1554" d="M147 0l203 1450h320l-76 -541h620l76 541h320l-203 -1450h-320l89 627h-621l-88 -627h-320zM586 1556l286 295h334l195 -295h-283l-106 160l-150 -160h-276z" />
<glyph unicode="&#x125;" d="M109 0l217 1548h307l-96 -688h4q14 29 41.5 57.5t65.5 51t87 37t105 14.5q117 0 184.5 -36t98 -99.5t32.5 -149.5t-12 -186l-76 -549h-307l67 487q6 43 10.5 89.5t-6 85t-39 63.5t-87.5 25t-99.5 -21.5t-65 -57.5t-36.5 -81t-19 -94l-69 -496h-307zM367 1638l286 295h334 l195 -295h-283l-106 160l-150 -160h-276z" />
<glyph unicode="&#x126;" horiz-adv-x="1554" d="M147 0l203 1450h320l-25 -180h621l24 180h320l-203 -1450h-320l89 627h-621l-88 -627h-320zM594 909h620l23 164h-621z" />
<glyph unicode="&#x127;" d="M109 0l159 1149h-114l28 197h115l29 202h307l-29 -202h275l-29 -197h-275l-38 -289h4q14 29 41.5 57.5t66.5 51t87 37t104 14.5q117 0 183.5 -36t98 -99.5t33.5 -149.5t-12 -186l-76 -549h-307l67 487q6 43 9.5 89.5t-6 85t-39 63.5t-86.5 25q-59 0 -99.5 -21.5 t-65 -57.5t-36.5 -81t-19 -94l-69 -496h-307z" />
<glyph unicode="&#x128;" horiz-adv-x="606" d="M123 1569q16 51 44 102t65.5 91t86 64.5t105.5 24.5q51 0 90 -12t82 -31q29 -10 53.5 -20t55.5 -10q35 0 59.5 21.5t42.5 51.5h160q-18 -59 -45 -110t-64 -89t-86 -60.5t-112 -22.5q-45 0 -82 13t-72 30q-33 16 -62.5 29.5t-60.5 13.5q-35 0 -58.5 -29t-39.5 -57h-162z M143 0l203 1450h320l-203 -1450h-320z" />
<glyph unicode="&#x129;" horiz-adv-x="532" d="M33 1167q14 51 41.5 102.5t65.5 91.5t86 64.5t106 24.5q51 0 91 -12.5t81 -30.5q27 -10 53.5 -20.5t56.5 -10.5q35 0 58.5 21.5t42.5 52.5h159q-18 -59 -43.5 -110.5t-62.5 -89.5t-86 -60.5t-113 -22.5q-45 0 -83 13.5t-70 29.5q-35 16 -64 29.5t-59 13.5 q-35 0 -60.5 -28.5t-38.5 -57.5h-161zM113 0l139 995h307l-139 -995h-307z" />
<glyph unicode="&#x12a;" horiz-adv-x="606" d="M143 0l203 1450h320l-203 -1450h-320zM178 1612l29 196h696l-28 -196h-697z" />
<glyph unicode="&#x12b;" horiz-adv-x="532" d="M92 1210l27 197h696l-27 -197h-696zM113 0l139 995h307l-139 -995h-307z" />
<glyph unicode="&#x12c;" horiz-adv-x="606" d="M143 0l203 1450h320l-203 -1450h-320zM168 1847h164q2 -31 21.5 -49.5t47 -29.5t61.5 -15t69 -4q80 0 138 15t91 83h162q-18 -78 -59.5 -134t-96.5 -92t-121.5 -52.5t-140.5 -16.5t-137.5 15.5t-110.5 51t-70.5 92t-17.5 136.5z" />
<glyph unicode="&#x12d;" horiz-adv-x="532" d="M74 1397h164q2 -31 21.5 -49.5t47 -29.5t61.5 -15t69 -4q80 0 138 15t91 83h162q-18 -78 -59.5 -134t-96.5 -92t-121.5 -52.5t-140.5 -16.5t-137.5 15.5t-110.5 51t-70.5 92t-17.5 136.5zM113 0l139 995h307l-139 -995h-307z" />
<glyph unicode="&#x12e;" horiz-adv-x="606" d="M-82 -301q6 39 28.5 81t54.5 81t70 74.5t72 64.5l203 1450h320l-203 -1450h-176q-29 -25 -58.5 -55.5t-55.5 -63.5t-44 -66.5t-23 -64.5q-4 -35 16.5 -64.5t57.5 -29.5q29 0 59.5 14.5t57.5 32.5l43 -109q-57 -39 -113.5 -62.5t-122.5 -23.5q-43 0 -79.5 12.5t-62 37 t-38 59.5t-6.5 82z" />
<glyph unicode="&#x12f;" horiz-adv-x="532" d="M-53 -301q6 39 28.5 81t54 81t69.5 74.5t73 64.5h-59l139 995h307l-139 -995h-105q-29 -25 -58.5 -55.5t-55 -63.5t-44 -66.5t-22.5 -64.5q-4 -35 16.5 -64.5t57.5 -29.5q29 0 59.5 14.5t57.5 32.5l43 -109q-57 -39 -113.5 -62.5t-122.5 -23.5q-43 0 -80 12.5t-63.5 37 t-37.5 59.5t-5 82zM270 1309q6 37 24.5 69.5t46.5 56t62.5 38t71.5 14.5q74 0 118 -52.5t34 -125.5q-4 -37 -22.5 -70t-46.5 -56.5t-62.5 -38t-71.5 -14.5t-67.5 14.5t-51 38t-30 56.5t-5.5 70z" />
<glyph unicode="&#x130;" horiz-adv-x="606" d="M143 0l203 1450h320l-203 -1450h-320zM385 1720q4 33 21.5 64t43 53.5t57 36.5t66.5 14q72 0 119 -47t37 -121q-6 -37 -23.5 -68.5t-44 -56t-61.5 -38t-72 -13.5t-65.5 14.5t-48 39t-27.5 56.5t-2 66z" />
<glyph unicode="&#x131;" horiz-adv-x="532" d="M113 0l139 995h307l-139 -995h-307z" />
<glyph unicode="&#x132;" horiz-adv-x="1619" d="M143 0l203 1450h320l-203 -1450h-320zM627 301l303 72q-2 -53 35 -90t90 -37q55 0 90 27.5t55.5 68.5t29.5 89t15 89l131 930h320l-135 -965q-14 -100 -45 -194t-90.5 -167t-157 -117t-244.5 -44q-172 0 -279.5 82t-117.5 256z" />
<glyph unicode="&#x133;" horiz-adv-x="1048" d="M113 0l139 995h307l-139 -995h-307zM270 1309q6 37 24.5 69.5t46.5 56t62.5 38t71.5 14.5q74 0 118 -52.5t34 -125.5q-4 -37 -22.5 -70t-46.5 -56.5t-62.5 -38t-71.5 -14.5t-67.5 14.5t-51 38t-30 56.5t-5.5 70zM358 -475l56 272q33 -18 75 -18q39 0 63.5 20.5t39 51 t21.5 65.5t12 64l143 1015h307l-151 -1069q-12 -96 -41 -173t-79 -131t-125 -84t-179 -30q-35 0 -72 3.5t-70 13.5zM786 1309q6 37 24.5 69.5t46.5 56t62.5 38t71.5 14.5q74 0 118 -52.5t34 -125.5q-4 -37 -22.5 -70t-46.5 -56.5t-62.5 -38t-71.5 -14.5t-67.5 14.5t-51 38 t-30 56.5t-5.5 70z" />
<glyph unicode="&#x134;" horiz-adv-x="1024" d="M31 301l303 72q-2 -53 35 -90t90 -37q55 0 90 27.5t55.5 68.5t29.5 89t15 89l131 930h320l-135 -965q-14 -100 -45 -194t-90.5 -167t-157 -117t-244.5 -44q-172 0 -279.5 82t-117.5 256zM549 1556l286 295h334l195 -295h-283l-106 160l-150 -160h-276z" />
<glyph unicode="&#x135;" horiz-adv-x="532" d="M-158 -475l56 272q33 -18 75 -18q39 0 63.5 20.5t39 51t21.5 65.5t12 64l143 1015h307l-151 -1069q-12 -96 -42 -173t-80 -131t-124 -84t-178 -30q-35 0 -71 3.5t-71 13.5zM20 1155l285 295h334l197 -295h-283l-107 160l-149 -160h-277z" />
<glyph unicode="&#x136;" horiz-adv-x="1478" d="M160 0l202 1450h320l-84 -602l647 602h418l-739 -674l592 -776h-447l-494 688l-96 -688h-319zM402 -532l186 407h295l-242 -407h-239z" />
<glyph unicode="&#x137;" horiz-adv-x="1138" d="M109 0l217 1548h307l-133 -946l395 393h377l-459 -448l330 -547h-387l-267 504h-4l-69 -504h-307zM218 -532l186 407h295l-242 -407h-239z" />
<glyph unicode="&#x139;" horiz-adv-x="1099" d="M160 0l202 1450h320l-162 -1155h592l-41 -295h-911zM332 1556l249 295h418l-397 -295h-270z" />
<glyph unicode="&#x13a;" horiz-adv-x="532" d="M113 0l217 1548h307l-217 -1548h-307zM310 1638l249 295h418l-397 -295h-270z" />
<glyph unicode="&#x13b;" horiz-adv-x="1099" d="M160 0l202 1450h320l-162 -1155h592l-41 -295h-911zM271 -532l186 407h295l-242 -407h-239z" />
<glyph unicode="&#x13c;" horiz-adv-x="532" d="M-41 -532l186 407h295l-242 -407h-239zM113 0l217 1548h307l-217 -1548h-307z" />
<glyph unicode="&#x13d;" horiz-adv-x="1099" d="M160 0l202 1450h320l-162 -1155h592l-41 -295h-911zM784 1042l148 408h274l-221 -408h-201z" />
<glyph unicode="&#x13e;" horiz-adv-x="532" d="M113 0l217 1548h307l-217 -1548h-307zM672 1042l148 408h274l-221 -408h-201z" />
<glyph unicode="&#x13f;" horiz-adv-x="1099" d="M160 0l202 1450h320l-162 -1155h592l-41 -295h-911zM791 832q4 33 21 63.5t44 53t58.5 37t66.5 14.5q72 0 118 -47t36 -121t-66.5 -125t-132.5 -51q-72 0 -114 52t-31 124z" />
<glyph unicode="&#x140;" horiz-adv-x="819" d="M113 0l217 1548h307l-217 -1548h-307zM619 844q4 33 21 63.5t44 53t58.5 37t66.5 14.5q72 0 118 -47t36 -121t-66.5 -125t-132.5 -51q-72 0 -114 52t-31 124z" />
<glyph unicode="&#x141;" horiz-adv-x="1099" d="M68 221l36 271l140 106l118 852h320l-80 -576l483 379l-38 -266l-484 -377l-43 -315h592l-41 -295h-911l45 328z" />
<glyph unicode="&#x142;" horiz-adv-x="532" d="M43 383l37 264l139 125l111 776h307l-66 -469l140 125l-37 -264l-142 -125l-112 -815h-307l69 508z" />
<glyph unicode="&#x143;" horiz-adv-x="1669" d="M147 0l203 1450h434l476 -1008h4l141 1008h319l-202 -1450h-418l-490 1032h-4l-143 -1032h-320zM879 1556l249 295h418l-397 -295h-270z" />
<glyph unicode="&#x144;" d="M109 0l139 995h295l-19 -135h4q18 29 49 57.5t70 51t88 37t105 14.5q117 0 184.5 -36t98 -99.5t32.5 -149.5t-12 -186l-76 -549h-307l67 487q6 43 10.5 89.5t-6 85t-39 63.5t-87.5 25t-99.5 -21.5t-65 -57.5t-36.5 -81t-19 -94l-69 -496h-307zM491 1155l248 295h418 l-395 -295h-271z" />
<glyph unicode="&#x145;" horiz-adv-x="1669" d="M147 0l203 1450h434l476 -1008h4l141 1008h319l-202 -1450h-418l-490 1032h-4l-143 -1032h-320zM486 -532l186 407h295l-242 -407h-239z" />
<glyph unicode="&#x146;" d="M109 0l139 995h295l-19 -135h4q18 29 49 57.5t70 51t88 37t105 14.5q117 0 184.5 -36t98 -99.5t32.5 -149.5t-12 -186l-76 -549h-307l67 487q6 43 10.5 89.5t-6 85t-39 63.5t-87.5 25t-99.5 -21.5t-65 -57.5t-36.5 -81t-19 -94l-69 -496h-307zM263 -532l186 407h295 l-242 -407h-239z" />
<glyph unicode="&#x147;" horiz-adv-x="1669" d="M147 0l203 1450h434l476 -1008h4l141 1008h319l-202 -1450h-418l-490 1032h-4l-143 -1032h-320zM760 1907h282l107 -160l149 160h277l-285 -295h-334z" />
<glyph unicode="&#x148;" d="M109 0l139 995h295l-19 -135h4q18 29 49 57.5t70 51t88 37t105 14.5q117 0 184.5 -36t98 -99.5t32.5 -149.5t-12 -186l-76 -549h-307l67 487q6 43 10.5 89.5t-6 85t-39 63.5t-87.5 25t-99.5 -21.5t-65 -57.5t-36.5 -81t-19 -94l-69 -496h-307zM375 1450h283l106 -160 l150 160h276l-284 -295h-334z" />
<glyph unicode="&#x149;" d="M-8 1042l148 408h274l-221 -408h-201zM109 0l139 995h295l-19 -135h4q18 29 49 57.5t70 51t88 37t105 14.5q117 0 184.5 -36t98 -99.5t32.5 -149.5t-12 -186l-76 -549h-307l67 487q6 43 10.5 89.5t-6 85t-39 63.5t-87.5 25t-99.5 -21.5t-65 -57.5t-36.5 -81t-19 -94 l-69 -496h-307z" />
<glyph unicode="&#x14c;" horiz-adv-x="1703" d="M170 725q25 174 103.5 315.5t196.5 240.5t269.5 152.5t321.5 53.5t305 -53.5t225 -152.5t129 -240.5t15 -315.5q-25 -174 -103 -315.5t-196.5 -240.5t-269 -152.5t-320.5 -53.5t-306.5 53.5t-226.5 152.5t-129 240.5t-14 315.5zM502 725q-14 -102 6 -187t70.5 -147.5 t128 -97.5t180.5 -35q102 0 190 35t155.5 97.5t112 147.5t58.5 187q14 100 -5.5 186t-70.5 148.5t-129 97.5t-180 35t-190.5 -35t-156 -97.5t-111.5 -148.5t-58 -186zM727 1612l29 196h696l-28 -196h-697z" />
<glyph unicode="&#x14d;" horiz-adv-x="1249" d="M141 498q16 119 72.5 215t140.5 164.5t190.5 105.5t221.5 37t211 -37t161.5 -105.5t95.5 -165t13 -214.5q-16 -119 -73.5 -215.5t-141.5 -165t-190.5 -105.5t-220.5 -37q-115 0 -211.5 37t-161 105.5t-94 165t-13.5 215.5zM446 1210l27 197h696l-27 -197h-696zM449 498 q-16 -113 38 -182.5t170 -69.5q117 0 192 69.5t91 182.5t-39 182.5t-172 69.5t-190.5 -69.5t-89.5 -182.5z" />
<glyph unicode="&#x14e;" horiz-adv-x="1703" d="M170 725q25 174 103.5 315.5t196.5 240.5t269.5 152.5t321.5 53.5t305 -53.5t225 -152.5t129 -240.5t15 -315.5q-25 -174 -103 -315.5t-196.5 -240.5t-269 -152.5t-320.5 -53.5t-306.5 53.5t-226.5 152.5t-129 240.5t-14 315.5zM502 725q-14 -102 6 -187t70.5 -147.5 t128 -97.5t180.5 -35q102 0 190 35t155.5 97.5t112 147.5t58.5 187q14 100 -5.5 186t-70.5 148.5t-129 97.5t-180 35t-190.5 -35t-156 -97.5t-111.5 -148.5t-58 -186zM734 1851h163q2 -31 20.5 -49t47.5 -29.5t62.5 -15.5t68.5 -4q80 0 137.5 15.5t91.5 82.5h162 q-20 -78 -61 -134t-96.5 -92t-122 -52.5t-140.5 -16.5q-72 0 -136 15.5t-110.5 51.5t-71 92.5t-15.5 135.5z" />
<glyph unicode="&#x14f;" horiz-adv-x="1249" d="M141 498q16 119 72.5 215t140.5 164.5t190.5 105.5t221.5 37t211 -37t161.5 -105.5t95.5 -165t13 -214.5q-16 -119 -73.5 -215.5t-141.5 -165t-190.5 -105.5t-220.5 -37q-115 0 -211.5 37t-161 105.5t-94 165t-13.5 215.5zM449 498q-16 -113 38 -182.5t170 -69.5 q117 0 192 69.5t91 182.5t-39 182.5t-172 69.5t-190.5 -69.5t-89.5 -182.5zM450 1450h164q2 -31 21.5 -49.5t47 -29.5t61.5 -15t69 -4q80 0 138 15t91 83h162q-18 -78 -59.5 -134t-96.5 -92t-121.5 -52.5t-140.5 -16.5t-137.5 15.5t-110.5 51t-70.5 92t-17.5 136.5z" />
<glyph unicode="&#x150;" horiz-adv-x="1703" d="M170 725q25 174 103.5 315.5t196.5 240.5t269.5 152.5t321.5 53.5t305 -53.5t225 -152.5t129 -240.5t15 -315.5q-25 -174 -103 -315.5t-196.5 -240.5t-269 -152.5t-320.5 -53.5t-306.5 53.5t-226.5 152.5t-129 240.5t-14 315.5zM502 725q-14 -102 6 -187t70.5 -147.5 t128 -97.5t180.5 -35q102 0 190 35t155.5 97.5t112 147.5t58.5 187q14 100 -5.5 186t-70.5 148.5t-129 97.5t-180 35t-190.5 -35t-156 -97.5t-111.5 -148.5t-58 -186zM657 1556l250 295h418l-397 -295h-271zM1198 1556l250 295h418l-398 -295h-270z" />
<glyph unicode="&#x151;" horiz-adv-x="1249" d="M141 498q16 119 72.5 215t140.5 164.5t190.5 105.5t221.5 37t211 -37t161.5 -105.5t95.5 -165t13 -214.5q-16 -119 -73.5 -215.5t-141.5 -165t-190.5 -105.5t-220.5 -37q-115 0 -211.5 37t-161 105.5t-94 165t-13.5 215.5zM348 1155l246 295h417l-395 -295h-268zM449 498 q-16 -113 38 -182.5t170 -69.5q117 0 192 69.5t91 182.5t-39 182.5t-172 69.5t-190.5 -69.5t-89.5 -182.5zM887 1155l247 295h418l-395 -295h-270z" />
<glyph unicode="&#x152;" horiz-adv-x="2084" d="M170 725q25 176 106.5 311t202.5 227.5t274.5 139.5t321.5 47h1079l-40 -295h-590l-39 -270h540l-40 -295h-541l-41 -295h614l-41 -295h-1087q-145 0 -286.5 42t-246 130t-159 225.5t-27.5 327.5zM502 725q-14 -109 14.5 -188.5t92 -134t157.5 -81t213 -26.5h104l121 860 h-104q-119 0 -221.5 -26.5t-181.5 -81t-130 -135.5t-65 -187z" />
<glyph unicode="&#x153;" horiz-adv-x="1933" d="M141 498q16 119 72.5 215t140.5 164.5t190.5 105.5t223.5 37q111 0 200 -37t152 -113q78 70 176.5 110t233.5 40q106 0 188 -37t133.5 -105.5t71 -165t2.5 -214.5l-14 -97h-713q6 -88 60.5 -140t144.5 -52q76 0 132 33.5t103 87.5l193 -158q-86 -94 -206 -145.5 t-241 -51.5q-129 0 -219 32t-149 110q-90 -80 -189.5 -111t-203.5 -31q-117 0 -212.5 37t-161 105.5t-95 165t-13.5 215.5zM449 498q-16 -113 39 -182.5t171 -69.5q117 0 192 69.5t91 182.5t-39 182.5t-172 69.5t-191.5 -70t-90.5 -182zM1227 610h405q12 78 -33 133.5 t-129 55.5q-51 0 -92 -16.5t-71.5 -42t-51 -59.5t-28.5 -71z" />
<glyph unicode="&#x154;" horiz-adv-x="1327" d="M147 0l203 1450h561q111 0 207 -21.5t164 -71.5t100.5 -135t14.5 -212q-23 -154 -117 -261.5t-252 -136.5l283 -612h-383l-223 580h-158l-80 -580h-320zM586 850h188q43 0 91 3t89 18.5t72 48t39 92.5q8 55 -10.5 88t-51 50t-76.5 23.5t-87 6.5h-209zM607 1556l249 295 h418l-397 -295h-270z" />
<glyph unicode="&#x155;" horiz-adv-x="833" d="M109 0l139 995h307l-23 -159h5q61 92 134.5 138t176.5 46q27 0 53.5 -2t48.5 -8l-39 -281q-33 10 -63.5 15.5t-65.5 5.5q-88 0 -143 -25t-88 -69t-50.5 -105.5t-27.5 -134.5l-57 -416h-307zM397 1155l248 295h418l-395 -295h-271z" />
<glyph unicode="&#x156;" horiz-adv-x="1327" d="M147 0l203 1450h561q111 0 207 -21.5t164 -71.5t100.5 -135t14.5 -212q-23 -154 -117 -261.5t-252 -136.5l283 -612h-383l-223 580h-158l-80 -580h-320zM314 -532l186 407h295l-242 -407h-239zM586 850h188q43 0 91 3t89 18.5t72 48t39 92.5q8 55 -10.5 88t-51 50 t-76.5 23.5t-87 6.5h-209z" />
<glyph unicode="&#x157;" horiz-adv-x="833" d="M45 -532l186 407h295l-242 -407h-239zM109 0l139 995h307l-23 -159h5q61 92 134.5 138t176.5 46q27 0 53.5 -2t48.5 -8l-39 -281q-33 10 -63.5 15.5t-65.5 5.5q-88 0 -143 -25t-88 -69t-50.5 -105.5t-27.5 -134.5l-57 -416h-307z" />
<glyph unicode="&#x158;" horiz-adv-x="1327" d="M147 0l203 1450h561q111 0 207 -21.5t164 -71.5t100.5 -135t14.5 -212q-23 -154 -117 -261.5t-252 -136.5l283 -612h-383l-223 580h-158l-80 -580h-320zM500 1907h282l107 -160l149 160h277l-285 -295h-334zM586 850h188q43 0 91 3t89 18.5t72 48t39 92.5q8 55 -10.5 88 t-51 50t-76.5 23.5t-87 6.5h-209z" />
<glyph unicode="&#x159;" horiz-adv-x="833" d="M109 0l139 995h307l-23 -159h5q61 92 134.5 138t176.5 46q27 0 53.5 -2t48.5 -8l-39 -281q-33 10 -63.5 15.5t-65.5 5.5q-88 0 -143 -25t-88 -69t-50.5 -105.5t-27.5 -134.5l-57 -416h-307zM221 1450h283l106 -160l150 160h276l-284 -295h-334z" />
<glyph unicode="&#x15a;" d="M57 145l265 250q41 -66 109.5 -101.5t148.5 -35.5q39 0 79.5 9t75.5 27.5t58.5 47.5t29.5 68q10 66 -36 103.5t-117.5 64t-155.5 53t-153.5 72t-109.5 119t-24 194.5q16 117 74.5 205t144.5 147t190.5 89t211.5 30q123 0 232.5 -35t189.5 -117l-252 -239 q-33 49 -96.5 72.5t-122.5 23.5q-35 0 -74 -8t-73 -25.5t-58.5 -46.5t-30.5 -70q-6 -49 17.5 -80.5t67.5 -53t102.5 -38t118 -37t115.5 -49t97 -72.5t60.5 -110.5t5.5 -161.5q-16 -121 -74.5 -211t-143.5 -149.5t-190.5 -88t-218.5 -28.5q-141 0 -255.5 43t-207.5 139z M617 1556l249 295h418l-397 -295h-270z" />
<glyph unicode="&#x15b;" horiz-adv-x="948" d="M63 111l216 206q37 -53 85 -80.5t117 -27.5q53 0 98.5 15.5t51.5 56.5q6 39 -30 58t-92 32.5t-120.5 29t-119 46t-85 87t-16.5 150.5q12 88 57 151.5t109.5 104.5t142.5 60.5t156 19.5q98 0 194.5 -28.5t155.5 -102.5l-213 -187q-55 84 -168 84q-39 0 -78 -18t-45 -63 q-6 -37 31 -54.5t92 -31t119.5 -29t118 -48t83 -89t17.5 -150.5q-12 -96 -63.5 -158.5t-122 -100.5t-154.5 -53.5t-164 -15.5q-104 0 -206.5 30t-166.5 106zM450 1155l248 295h418l-395 -295h-271z" />
<glyph unicode="&#x15c;" d="M57 145l265 250q41 -66 109.5 -101.5t148.5 -35.5q39 0 79.5 9t75.5 27.5t58.5 47.5t29.5 68q10 66 -36 103.5t-117.5 64t-155.5 53t-153.5 72t-109.5 119t-24 194.5q16 117 74.5 205t144.5 147t190.5 89t211.5 30q123 0 232.5 -35t189.5 -117l-252 -239 q-33 49 -96.5 72.5t-122.5 23.5q-35 0 -74 -8t-73 -25.5t-58.5 -46.5t-30.5 -70q-6 -49 17.5 -80.5t67.5 -53t102.5 -38t118 -37t115.5 -49t97 -72.5t60.5 -110.5t5.5 -161.5q-16 -121 -74.5 -211t-143.5 -149.5t-190.5 -88t-218.5 -28.5q-141 0 -255.5 43t-207.5 139z M418 1556l286 295h334l195 -295h-283l-106 160l-150 -160h-276z" />
<glyph unicode="&#x15d;" horiz-adv-x="948" d="M63 111l216 206q37 -53 85 -80.5t117 -27.5q53 0 98.5 15.5t51.5 56.5q6 39 -30 58t-92 32.5t-120.5 29t-119 46t-85 87t-16.5 150.5q12 88 57 151.5t109.5 104.5t142.5 60.5t156 19.5q98 0 194.5 -28.5t155.5 -102.5l-213 -187q-55 84 -168 84q-39 0 -78 -18t-45 -63 q-6 -37 31 -54.5t92 -31t119.5 -29t118 -48t83 -89t17.5 -150.5q-12 -96 -63.5 -158.5t-122 -100.5t-154.5 -53.5t-164 -15.5q-104 0 -206.5 30t-166.5 106zM243 1155l285 295h334l197 -295h-283l-107 160l-149 -160h-277z" />
<glyph unicode="&#x15e;" d="M57 145l265 250q41 -66 109.5 -101.5t148.5 -35.5q39 0 79.5 9t75.5 27.5t58.5 47.5t29.5 68q10 66 -36 103.5t-117.5 64t-155.5 53t-153.5 72t-109.5 119t-24 194.5q16 117 75.5 205t144.5 147t188.5 89t212.5 30q123 0 232.5 -35t189.5 -117l-252 -239 q-33 49 -96.5 72.5t-122.5 23.5q-35 0 -74 -8t-73 -25.5t-58.5 -46.5t-30.5 -70q-10 -66 35 -100.5t115.5 -59t154.5 -49t151.5 -69.5t106.5 -121t21 -203q-16 -109 -63.5 -190.5t-117 -140t-156.5 -92t-183 -46.5l-78 -94q45 0 90 -5t80 -22.5t53.5 -51.5t9.5 -91 q-8 -55 -42.5 -94t-81 -61.5t-97.5 -33t-90 -10.5q-61 0 -129 17.5t-119 44.5l66 96q23 -10 60.5 -22.5t90.5 -12.5q47 0 93.5 12.5t52.5 53.5q4 37 -30 53.5t-64 16.5q-31 0 -76 -17l-58 60l125 155q-129 4 -234.5 46t-191.5 134z" />
<glyph unicode="&#x15f;" horiz-adv-x="948" d="M63 111l216 206q35 -53 84 -80.5t118 -27.5q53 0 98.5 15.5t51.5 56.5q6 39 -30 58t-92 32.5t-120.5 29t-119 46t-85 87t-16.5 150.5q12 88 57 151.5t109.5 104.5t142.5 60.5t156 19.5q98 0 194.5 -28.5t155.5 -102.5l-213 -187q-55 84 -168 84q-39 0 -78 -18t-45 -63 q-6 -37 31 -54.5t92 -31t119.5 -29t118 -48t83 -89t17.5 -150.5q-10 -78 -47 -134t-89 -94t-116.5 -60.5t-132.5 -30.5l-86 -107q45 0 90 -5t80 -22.5t53.5 -51.5t9.5 -91q-8 -55 -42.5 -94t-81 -61.5t-97.5 -33t-90 -10.5q-61 0 -128.5 17.5t-119.5 44.5l66 96 q23 -10 60.5 -22.5t90.5 -12.5q47 0 93.5 12.5t52.5 53.5q4 37 -30 53.5t-64 16.5q-31 0 -76 -17l-57 60l135 165q-100 4 -195.5 34t-155.5 102z" />
<glyph unicode="&#x160;" d="M57 145l265 250q41 -66 109.5 -101.5t148.5 -35.5q39 0 79.5 9t75.5 27.5t58.5 47.5t29.5 68q10 66 -36 103.5t-117.5 64t-155.5 53t-153.5 72t-109.5 119t-24 194.5q16 117 74.5 205t144.5 147t190.5 89t211.5 30q123 0 232.5 -35t189.5 -117l-252 -239 q-33 49 -96.5 72.5t-122.5 23.5q-35 0 -74 -8t-73 -25.5t-58.5 -46.5t-30.5 -70q-6 -49 17.5 -80.5t67.5 -53t102.5 -38t118 -37t115.5 -49t97 -72.5t60.5 -110.5t5.5 -161.5q-16 -121 -74.5 -211t-143.5 -149.5t-190.5 -88t-218.5 -28.5q-141 0 -255.5 43t-207.5 139z M439 1907h282l107 -160l149 160h277l-285 -295h-334z" />
<glyph unicode="&#x161;" horiz-adv-x="948" d="M63 111l216 206q37 -53 85 -80.5t117 -27.5q53 0 98.5 15.5t51.5 56.5q6 39 -30 58t-92 32.5t-120.5 29t-119 46t-85 87t-16.5 150.5q12 88 57 151.5t109.5 104.5t142.5 60.5t156 19.5q98 0 194.5 -28.5t155.5 -102.5l-213 -187q-55 84 -168 84q-39 0 -78 -18t-45 -63 q-6 -37 31 -54.5t92 -31t119.5 -29t118 -48t83 -89t17.5 -150.5q-12 -96 -63.5 -158.5t-122 -100.5t-154.5 -53.5t-164 -15.5q-104 0 -206.5 30t-166.5 106zM262 1450h283l106 -160l150 160h276l-284 -295h-334z" />
<glyph unicode="&#x162;" d="M178 1167l39 283h1147l-39 -283h-414l-163 -1167h-320l164 1167h-414zM287 -532l186 407h295l-242 -407h-239z" />
<glyph unicode="&#x163;" horiz-adv-x="833" d="M117 750l35 245h196l41 295h307l-41 -295h271l-35 -245h-270l-48 -332q-6 -41 -6 -75t11.5 -58.5t39 -38t76.5 -13.5q25 0 65 5.5t62 23.5l-35 -256q-53 -18 -109 -24.5t-110 -6.5q-78 0 -141.5 16.5t-107.5 52.5t-63 93.5t-9 138.5l67 474h-196zM138 -532l186 407h295 l-242 -407h-239z" />
<glyph unicode="&#x164;" d="M178 1167l39 283h1147l-39 -283h-414l-163 -1167h-320l164 1167h-414zM447 1907h282l107 -160l149 160h277l-285 -295h-334z" />
<glyph unicode="&#x165;" horiz-adv-x="833" d="M117 750l35 245h196l41 295h307l-41 -295h271l-35 -245h-270l-48 -332q-6 -41 -6 -75t11.5 -58.5t39 -38t76.5 -13.5q25 0 65 5.5t62 23.5l-35 -256q-53 -18 -109 -24.5t-110 -6.5q-78 0 -141.5 16.5t-107.5 52.5t-63 93.5t-9 138.5l67 474h-196zM772 1144l148 408h274 l-221 -408h-201z" />
<glyph unicode="&#x166;" d="M178 1167l39 283h1147l-39 -283h-414l-32 -221h256l-27 -196h-256l-104 -750h-320l104 750h-243l26 196h244l33 221h-414z" />
<glyph unicode="&#x167;" horiz-adv-x="833" d="M117 444l26 197h154l16 109h-196l35 245h196l41 295h307l-41 -295h271l-35 -245h-270l-17 -109h236l-27 -197h-235l-5 -26q-6 -41 -6 -75t11.5 -58.5t39 -38t76.5 -13.5q25 0 65 5.5t62 23.5l-35 -256q-53 -18 -109 -24.5t-110 -6.5q-78 0 -141.5 16.5t-107.5 52.5 t-64.5 93.5t-7.5 138.5l24 168h-153z" />
<glyph unicode="&#x168;" horiz-adv-x="1517" d="M225 559l125 891h320l-123 -879q-10 -68 3 -125t47 -99t84 -65.5t114 -23.5q63 0 119.5 23.5t101.5 65.5t74.5 99.5t39.5 124.5l123 879h320l-125 -891q-18 -129 -72.5 -237.5t-142.5 -188.5t-209 -125t-270 -45q-152 0 -260.5 45t-174 125t-89 188.5t-5.5 237.5z M590 1569q16 51 44 102t65.5 91t86 64.5t105.5 24.5q51 0 90 -12t82 -31q29 -10 53.5 -20t55.5 -10q35 0 59.5 21.5t42.5 51.5h160q-18 -59 -45 -110t-64 -89t-86 -60.5t-112 -22.5q-45 0 -82 13t-72 30q-33 16 -62.5 29.5t-60.5 13.5q-35 0 -58.5 -29t-39.5 -57h-162z" />
<glyph unicode="&#x169;" d="M158 260q-2 86 12 186l78 549h307l-70 -487q-6 -43 -10 -89t6.5 -85t39 -63.5t87.5 -24.5t99.5 21.5t65 57t37.5 81t19 94.5l70 495h307l-139 -995h-295l19 135h-5q-20 -29 -49.5 -57.5t-69.5 -51t-89.5 -37t-104.5 -14.5q-117 0 -184.5 36t-98 99.5t-32.5 149.5z M357 1167q14 51 41.5 102.5t65.5 91.5t86 64.5t106 24.5q51 0 91 -12.5t81 -30.5q27 -10 53.5 -20.5t56.5 -10.5q35 0 58.5 21.5t42.5 52.5h159q-18 -59 -43.5 -110.5t-62.5 -89.5t-86 -60.5t-113 -22.5q-45 0 -83 13.5t-70 29.5q-35 16 -64 29.5t-59 13.5 q-35 0 -60.5 -28.5t-38.5 -57.5h-161z" />
<glyph unicode="&#x16a;" horiz-adv-x="1517" d="M225 559l125 891h320l-123 -879q-10 -68 3 -125t47 -99t84 -65.5t114 -23.5q63 0 119.5 23.5t101.5 65.5t74.5 99.5t39.5 124.5l123 879h320l-125 -891q-18 -129 -72.5 -237.5t-142.5 -188.5t-209 -125t-270 -45q-152 0 -260.5 45t-174 125t-89 188.5t-5.5 237.5z M649 1612l29 196h696l-28 -196h-697z" />
<glyph unicode="&#x16b;" d="M158 260q-2 86 12 186l78 549h307l-70 -487q-6 -43 -10 -89t6.5 -85t39 -63.5t87.5 -24.5t99.5 21.5t65 57t37.5 81t19 94.5l70 495h307l-139 -995h-295l19 135h-5q-20 -29 -49.5 -57.5t-69.5 -51t-89.5 -37t-104.5 -14.5q-117 0 -184.5 36t-98 99.5t-32.5 149.5z M407 1210l27 197h696l-27 -197h-696z" />
<glyph unicode="&#x16c;" horiz-adv-x="1517" d="M225 559l125 891h320l-123 -879q-10 -68 3 -125t47 -99t84 -65.5t114 -23.5q63 0 119.5 23.5t101.5 65.5t74.5 99.5t39.5 124.5l123 879h320l-125 -891q-18 -129 -72.5 -237.5t-142.5 -188.5t-209 -125t-270 -45q-152 0 -260.5 45t-174 125t-89 188.5t-5.5 237.5z M656 1851h163q2 -31 20.5 -49t47.5 -29.5t62.5 -15.5t68.5 -4q80 0 137.5 15.5t91.5 82.5h162q-20 -78 -61 -134t-96.5 -92t-122 -52.5t-140.5 -16.5q-72 0 -136 15.5t-110.5 51.5t-71 92.5t-15.5 135.5z" />
<glyph unicode="&#x16d;" d="M158 260q-2 86 12 186l78 549h307l-70 -487q-6 -43 -10 -89t6.5 -85t39 -63.5t87.5 -24.5t99.5 21.5t65 57t37.5 81t19 94.5l70 495h307l-139 -995h-295l19 135h-5q-20 -29 -49.5 -57.5t-69.5 -51t-89.5 -37t-104.5 -14.5q-117 0 -184.5 36t-98 99.5t-32.5 149.5z M418 1450h164q2 -31 21.5 -49.5t47 -29.5t61.5 -15t69 -4q80 0 138 15t91 83h162q-18 -78 -59.5 -134t-96.5 -92t-121.5 -52.5t-140.5 -16.5t-137.5 15.5t-110.5 51t-70.5 92t-17.5 136.5z" />
<glyph unicode="&#x16e;" horiz-adv-x="1517" d="M225 559l125 891h320l-123 -879q-10 -68 3 -125t47 -99t84 -65.5t114 -23.5q63 0 119.5 23.5t101.5 65.5t74.5 99.5t39.5 124.5l123 879h320l-125 -891q-18 -129 -72.5 -237.5t-142.5 -188.5t-209 -125t-270 -45q-152 0 -260.5 45t-174 125t-89 188.5t-5.5 237.5z M787 1724q6 45 29.5 87t59.5 73t79 49.5t90 18.5q45 0 84 -18.5t66.5 -49.5t39.5 -73t6 -87q-6 -47 -30.5 -88t-60.5 -71.5t-80 -49t-89 -18.5q-47 0 -85 18.5t-64.5 49t-39 71.5t-5.5 88zM909 1724q-6 -43 21 -73.5t70 -30.5t77.5 30.5t40.5 73.5t-20.5 74t-69.5 31 t-78 -31t-41 -74z" />
<glyph unicode="&#x16f;" d="M158 260q-2 86 12 186l78 549h307l-70 -487q-6 -43 -10 -89t6.5 -85t39 -63.5t87.5 -24.5t99.5 21.5t65 57t37.5 81t19 94.5l70 495h307l-139 -995h-295l19 135h-5q-20 -29 -49.5 -57.5t-69.5 -51t-89.5 -37t-104.5 -14.5q-117 0 -184.5 36t-98 99.5t-32.5 149.5z M542 1343q6 47 30 88.5t58.5 72t78.5 49t91 18.5t86 -18.5t66 -49t39 -71.5t6 -89q-6 -47 -30.5 -88t-59.5 -71.5t-79 -49t-91 -18.5t-86 18.5t-65.5 49t-38 71.5t-5.5 88zM665 1343q-6 -43 20.5 -73.5t69.5 -30.5t78 30.5t41 73.5t-20.5 74t-69.5 31t-78 -31t-41 -74z" />
<glyph unicode="&#x170;" horiz-adv-x="1517" d="M225 559l125 891h320l-123 -879q-10 -68 3 -125t47 -99t84 -65.5t114 -23.5q63 0 119.5 23.5t101.5 65.5t74.5 99.5t39.5 124.5l123 879h320l-125 -891q-18 -129 -72.5 -237.5t-142.5 -188.5t-209 -125t-270 -45q-152 0 -260.5 45t-174 125t-89 188.5t-5.5 237.5z M547 1556l250 295h418l-397 -295h-271zM1088 1556l250 295h418l-398 -295h-270z" />
<glyph unicode="&#x171;" d="M158 260q-2 86 12 186l78 549h307l-70 -487q-6 -43 -10 -89t6.5 -85t39 -63.5t87.5 -24.5t99.5 21.5t65 57t37.5 81t19 94.5l70 495h307l-139 -995h-295l19 135h-5q-20 -29 -49.5 -57.5t-69.5 -51t-89.5 -37t-104.5 -14.5q-117 0 -184.5 36t-98 99.5t-32.5 149.5z M287 1155l246 295h417l-395 -295h-268zM826 1155l247 295h418l-395 -295h-270z" />
<glyph unicode="&#x172;" horiz-adv-x="1517" d="M225 559l125 891h320l-123 -879q-10 -68 3 -125t46 -99t83 -65.5t116 -23.5q63 0 119.5 23.5t101.5 65.5t74.5 99.5t39.5 124.5l123 879h320l-125 -891q-16 -117 -62.5 -217t-121 -179t-176 -129t-230.5 -65q-49 -47 -92 -106.5t-51 -112.5q-4 -35 16.5 -64.5t56.5 -29.5 q29 0 60 14.5t57 32.5l43 -109q-57 -39 -113.5 -62.5t-121.5 -23.5q-43 0 -81 12.5t-63.5 37t-38 59.5t-6.5 82q10 68 64.5 139.5t118.5 126.5q-139 6 -238.5 53.5t-159 127t-81 185t-3.5 228.5z" />
<glyph unicode="&#x173;" d="M158 260q-2 86 12 186l78 549h307l-70 -487q-6 -43 -9 -89t6.5 -85t38 -63.5t87.5 -24.5t99.5 21.5t65 57t37.5 81t19 94.5l70 495h307l-139 -995h-152q-29 -25 -58.5 -55.5t-55 -63.5t-44 -66.5t-22.5 -64.5q-4 -35 16.5 -64.5t57.5 -29.5q29 0 59.5 14.5t57.5 32.5 l43 -109q-57 -39 -113.5 -62.5t-122.5 -23.5q-43 0 -81 12.5t-63.5 37t-37.5 59.5t-6 82q6 39 28.5 81t55.5 81t70.5 74.5t72.5 64.5l19 135h-5q-20 -29 -49.5 -57.5t-69.5 -51t-88.5 -37t-105.5 -14.5q-117 0 -184.5 36t-98 99.5t-32.5 149.5z" />
<glyph unicode="&#x174;" horiz-adv-x="2048" d="M199 1450h348l100 -930h4l434 930h297l168 -954h4l377 954h324l-627 -1450h-285l-180 1004h-4l-459 -1004h-274zM832 1556l286 295h334l195 -295h-283l-106 160l-150 -160h-276z" />
<glyph unicode="&#x175;" horiz-adv-x="1705" d="M129 995h328l114 -624h4l259 624h335l97 -624h4l274 624h311l-493 -995h-303l-115 662h-4l-276 -662h-310zM604 1155l285 295h334l197 -295h-283l-107 160l-149 -160h-277z" />
<glyph unicode="&#x176;" horiz-adv-x="1327" d="M162 1450h397l232 -543l401 543h379l-662 -832l-86 -618h-319l86 618zM473 1556l286 295h334l195 -295h-283l-106 160l-150 -160h-276z" />
<glyph unicode="&#x177;" horiz-adv-x="1138" d="M-33 -455l76 252q63 -31 137 -30q51 0 86 11t59.5 32.5t43 52.5t41.5 71l30 58l-295 1003h332l164 -657h4l311 657h316l-615 -1157q-41 -80 -77.5 -141.5t-87 -103.5t-121 -63.5t-181.5 -21.5q-119 0 -223 37zM352 1155l285 295h334l197 -295h-283l-107 160l-149 -160 h-277z" />
<glyph unicode="&#x178;" horiz-adv-x="1327" d="M162 1450h397l232 -543l401 543h379l-662 -832l-86 -618h-319l86 618zM526 1773q4 33 21.5 64t43 53.5t57 36.5t66.5 14q72 0 119 -47t37 -121q-6 -37 -23.5 -68.5t-44 -56t-61.5 -38t-72 -13.5t-65.5 14.5t-48 39t-27.5 56.5t-2 66zM952 1773q4 33 21.5 64t43 53.5 t57 36.5t66.5 14q72 0 119 -47t37 -121q-6 -37 -23.5 -68.5t-44 -56t-61.5 -38t-72 -13.5t-65.5 14.5t-48 39t-27.5 56.5t-2 66z" />
<glyph unicode="&#x179;" horiz-adv-x="1290" d="M72 0l41 295l858 872h-709l39 283h1096l-39 -283l-844 -872h746l-41 -295h-1147zM668 1556l249 295h418l-397 -295h-270z" />
<glyph unicode="&#x17a;" horiz-adv-x="1024" d="M70 0l43 307l577 443h-504l35 245h860l-41 -295l-606 -454h553l-33 -246h-884zM467 1155l248 295h418l-395 -295h-271z" />
<glyph unicode="&#x17b;" horiz-adv-x="1290" d="M72 0l41 295l858 872h-709l39 283h1096l-39 -283l-844 -872h746l-41 -295h-1147zM760 1720q4 33 21.5 64t43 53.5t57 36.5t66.5 14q72 0 119 -47t37 -121q-6 -37 -23.5 -68.5t-44 -56t-61.5 -38t-72 -13.5t-65.5 14.5t-48 39t-27.5 56.5t-2 66z" />
<glyph unicode="&#x17c;" horiz-adv-x="1024" d="M70 0l43 307l577 443h-504l35 245h860l-41 -295l-606 -454h553l-33 -246h-884zM558 1319q4 33 21 63.5t44 53t58.5 37t66.5 14.5q72 0 118 -47t36 -121t-66.5 -125t-132.5 -51q-72 0 -114 52t-31 124z" />
<glyph unicode="&#x17d;" horiz-adv-x="1290" d="M72 0l41 295l858 872h-709l39 283h1096l-39 -283l-844 -872h746l-41 -295h-1147zM496 1907h282l107 -160l149 160h277l-285 -295h-334z" />
<glyph unicode="&#x17e;" horiz-adv-x="1024" d="M70 0l43 307l577 443h-504l35 245h860l-41 -295l-606 -454h553l-33 -246h-884zM299 1450h283l106 -160l150 160h276l-284 -295h-334z" />
<glyph unicode="&#x192;" horiz-adv-x="1212" d="M-74 -236l140 244q20 -12 43.5 -17t48.5 -5q66 0 104.5 44t75.5 150l172 500h-234l29 209h275l63 186q39 113 80 189.5t95 124t124 67t164 19.5q72 0 133 -15.5t123 -46.5l-139 -231q-49 23 -105 22q-74 0 -113.5 -40t-72.5 -130l-51 -145h258l-29 -209h-299l-203 -598 q-29 -84 -68.5 -151.5t-95 -115.5t-129 -74t-170.5 -26q-57 0 -113.5 13.5t-105.5 35.5z" />
<glyph unicode="&#x2c6;" horiz-adv-x="532" d="M20 1155l285 295h334l197 -295h-283l-107 160l-149 -160h-277z" />
<glyph unicode="&#x2c7;" horiz-adv-x="532" d="M53 1450h283l106 -160l150 160h276l-284 -295h-334z" />
<glyph unicode="&#x2d8;" horiz-adv-x="532" d="M92 1450h164q2 -31 21.5 -49.5t47 -29.5t61.5 -15t69 -4q80 0 138 15t91 83h162q-18 -78 -59.5 -134t-96.5 -92t-121.5 -52.5t-140.5 -16.5t-137.5 15.5t-110.5 51t-70.5 92t-17.5 136.5z" />
<glyph unicode="&#x2d9;" horiz-adv-x="532" d="M279 1319q4 33 21 63.5t44 53t58.5 37t66.5 14.5q72 0 118 -47t36 -121t-66.5 -125t-132.5 -51q-72 0 -114 52t-31 124z" />
<glyph unicode="&#x2da;" horiz-adv-x="532" d="M227 1343q6 47 30 88.5t58.5 72t78.5 49t91 18.5t86 -18.5t66 -49t39 -71.5t6 -89q-6 -47 -30.5 -88t-59.5 -71.5t-79 -49t-91 -18.5t-86 18.5t-65.5 49t-38 71.5t-5.5 88zM350 1343q-6 -43 20.5 -73.5t69.5 -30.5t78 30.5t41 73.5t-20.5 74t-69.5 31t-78 -31t-41 -74z " />
<glyph unicode="&#x2db;" horiz-adv-x="532" d="M-59 -301q6 45 32.5 91t64.5 90t81 81t80 64h139q-29 -23 -62.5 -54.5t-64.5 -69.5t-53.5 -77t-28.5 -74q-4 -35 16.5 -64.5t57.5 -29.5q29 0 60.5 14.5t55.5 32.5l43 -109q-57 -39 -113 -62.5t-122 -23.5q-43 0 -79 12.5t-62.5 37t-39 60.5t-5.5 81z" />
<glyph unicode="&#x2dc;" horiz-adv-x="532" d="M29 1167q14 51 41.5 102.5t65.5 91.5t86 64.5t106 24.5q51 0 91 -12.5t81 -30.5q27 -10 53.5 -20.5t56.5 -10.5q35 0 58.5 21.5t42.5 52.5h159q-18 -59 -43.5 -110.5t-62.5 -89.5t-86 -60.5t-113 -22.5q-45 0 -83 13.5t-70 29.5q-35 16 -64 29.5t-59 13.5 q-35 0 -60.5 -28.5t-38.5 -57.5h-161z" />
<glyph unicode="&#x2dd;" horiz-adv-x="532" d="M-45 1155l246 295h417l-395 -295h-268zM494 1155l247 295h418l-395 -295h-270z" />
<glyph unicode="&#x3a9;" horiz-adv-x="1538" d="M80 0l31 223h292v6q-43 43 -81.5 100.5t-65.5 130t-37 159t4 184.5q18 135 83 256t164 211t229 143t280 53q158 0 271.5 -58t183 -151.5t95 -209t9.5 -232.5q-14 -98 -49 -186t-82 -163t-104.5 -134.5t-114.5 -102.5v-6h297l-31 -223h-580l23 166q55 33 110.5 84 t101.5 122.5t82 167t52 216.5q14 94 3 182t-48 154.5t-100.5 106.5t-151.5 40q-84 0 -158.5 -37t-133 -103.5t-98.5 -156.5t-54 -197q-16 -111 -8 -203.5t34.5 -166.5t66.5 -126t89 -83l-22 -166h-582z" />
<glyph unicode="&#x3c0;" horiz-adv-x="1304" d="M119 0q39 88 78 200.5t72.5 229.5t59 227.5t40.5 194.5q-76 0 -126 -5t-87 -16l-6 183q47 33 136 52t230 19h909l-53 -233h-151l-76 -537q-16 -117 -18.5 -191.5t3.5 -123.5h-274q-16 33 -14 111.5t18 189.5l78 551h-291q-16 -84 -42.5 -198.5t-61.5 -234.5t-74 -230.5 t-76 -188.5h-274z" />
<glyph unicode="&#x2000;" horiz-adv-x="976" />
<glyph unicode="&#x2001;" horiz-adv-x="1952" />
<glyph unicode="&#x2002;" horiz-adv-x="976" />
<glyph unicode="&#x2003;" horiz-adv-x="1952" />
<glyph unicode="&#x2004;" horiz-adv-x="650" />
<glyph unicode="&#x2005;" horiz-adv-x="488" />
<glyph unicode="&#x2006;" horiz-adv-x="325" />
<glyph unicode="&#x2007;" horiz-adv-x="325" />
<glyph unicode="&#x2008;" horiz-adv-x="244" />
<glyph unicode="&#x2009;" horiz-adv-x="390" />
<glyph unicode="&#x200a;" horiz-adv-x="108" />
<glyph unicode="&#x2010;" horiz-adv-x="606" d="M104 387l35 246h504l-35 -246h-504z" />
<glyph unicode="&#x2011;" horiz-adv-x="606" d="M104 387l35 246h504l-35 -246h-504z" />
<glyph unicode="&#x2012;" horiz-adv-x="606" d="M104 387l35 246h504l-35 -246h-504z" />
<glyph unicode="&#x2013;" horiz-adv-x="1024" d="M53 387l35 246h1024l-35 -246h-1024z" />
<glyph unicode="&#x2014;" horiz-adv-x="2048" d="M53 387l35 246h2048l-35 -246h-2048z" />
<glyph unicode="&#x2018;" horiz-adv-x="606" d="M201 872l266 578h262l-233 -578h-295z" />
<glyph unicode="&#x2019;" horiz-adv-x="606" d="M201 872l233 578h295l-266 -578h-262z" />
<glyph unicode="&#x201a;" horiz-adv-x="606" d="M43 -258l231 577h295l-264 -577h-262z" />
<glyph unicode="&#x201c;" horiz-adv-x="1064" d="M211 872l266 578h262l-233 -578h-295zM649 872l266 578h263l-234 -578h-295z" />
<glyph unicode="&#x201d;" horiz-adv-x="1064" d="M211 872l233 578h295l-266 -578h-262zM649 872l234 578h295l-267 -578h-262z" />
<glyph unicode="&#x201e;" horiz-adv-x="1064" d="M53 -258l232 577h295l-265 -577h-262zM492 -258l231 577h295l-264 -577h-262z" />
<glyph unicode="&#x2020;" horiz-adv-x="1212" d="M176 762l35 258h389l62 430h282l-61 -430h401l-35 -258h-401l-146 -1034h-282l145 1034h-389z" />
<glyph unicode="&#x2021;" horiz-adv-x="1212" d="M82 96l35 246h395l70 494h-396l35 245h395l52 369h282l-51 -369h395l-34 -245h-396l-69 -494h395l-35 -246h-395l-51 -368h-283l51 368h-395z" />
<glyph unicode="&#x2022;" horiz-adv-x="1024" d="M250 725q10 76 48 141.5t94.5 114.5t126 77.5t145.5 28.5t137 -28.5t104 -77.5t61.5 -114.5t8.5 -141.5t-48 -141.5t-94.5 -114.5t-126 -78t-145.5 -29t-137.5 29t-104.5 78t-61 114.5t-8 141.5z" />
<glyph unicode="&#x2026;" horiz-adv-x="2048" d="M178 176q6 39 25.5 74t48.5 60.5t65.5 40t75.5 14.5q78 0 125 -55.5t37 -133.5q-6 -39 -25.5 -73.5t-49 -60.5t-65.5 -40t-75 -14t-71.5 14t-54 40t-32 60.5t-4.5 73.5zM860 176q6 39 25.5 74t48.5 60.5t65.5 40t75.5 14.5q78 0 125 -55.5t37 -133.5q-6 -39 -25.5 -73.5 t-49 -60.5t-65.5 -40t-75 -14t-71.5 14t-54.5 40t-32 60.5t-4 73.5zM1542 176q6 39 25.5 74t48.5 60.5t65.5 40t75.5 14.5q78 0 125 -55.5t37 -133.5q-6 -39 -25.5 -73.5t-49 -60.5t-65.5 -40t-75 -14t-72 14t-54.5 40t-31.5 60.5t-4 73.5z" />
<glyph unicode="&#x202f;" horiz-adv-x="390" />
<glyph unicode="&#x2030;" horiz-adv-x="2390" d="M221 1114q10 74 48 139.5t93.5 114.5t125 78t145.5 29q74 0 136 -29t104 -78t61.5 -114.5t9.5 -139.5t-48 -140.5t-94.5 -115.5t-127 -77.5t-144.5 -28.5q-76 0 -137 28.5t-103 77.5t-60.5 115.5t-8.5 140.5zM303 23l1040 1493l158 -97l-1055 -1485zM418 1114 q-4 -35 4 -64.5t27.5 -52t47 -36t62.5 -13.5q33 0 65.5 13.5t58.5 36t43 52t22 64.5q8 68 -34 116t-110 48q-35 0 -65.5 -13.5t-56 -35t-43 -52t-21.5 -63.5zM856 338q10 74 47 139.5t92.5 114.5t125 77.5t145.5 28.5q74 0 136 -28.5t104 -77.5t61.5 -114.5t9.5 -139.5 t-48 -140.5t-94.5 -115.5t-126 -78t-143.5 -29q-76 0 -137 29t-103 78t-60.5 115.5t-8.5 140.5zM1053 338q-4 -35 4 -64.5t26.5 -52t46 -36t62.5 -13.5q33 0 65.5 13.5t58 36t43 52t21.5 64.5q8 68 -32.5 116t-108.5 48q-35 0 -65.5 -13.5t-56 -35t-43 -52t-21.5 -63.5z M1649 338q10 74 47 139.5t93 114.5t126 77.5t143 28.5q74 0 136.5 -28.5t105.5 -77.5t62.5 -114.5t9.5 -139.5t-48 -140.5t-94.5 -115.5t-127 -78t-144.5 -29t-136.5 29t-104.5 78t-60 115.5t-8 140.5zM1845 338q-4 -35 4.5 -64.5t26.5 -52t46 -36t63 -13.5q33 0 65.5 13.5 t58 36t44 52t22.5 64.5q8 68 -34 116t-109 48q-35 0 -66 -13.5t-56.5 -35t-43 -52t-21.5 -63.5z" />
<glyph unicode="&#x2039;" horiz-adv-x="606" d="M106 510l394 479l170 -125l-289 -354l188 -354l-202 -125z" />
<glyph unicode="&#x203a;" horiz-adv-x="606" d="M78 156l287 354l-187 354l203 125l258 -479l-391 -479z" />
<glyph unicode="&#x2044;" horiz-adv-x="342" d="M-326 23l1039 1493l157 -97l-1052 -1485z" />
<glyph unicode="&#x205f;" horiz-adv-x="488" />
<glyph unicode="&#x20ac;" horiz-adv-x="1212" d="M84 455l82 184h86q0 10 1 18.5t3 18.5l6 39q4 27 8 51.5t9 48.5h-140l90 189h107q96 236 272 353.5t424 117.5q35 0 80 -5.5t90 -12.5t83 -18.5t56 -23.5l-133 -266q-29 20 -86 35.5t-129 15.5q-104 0 -189 -46t-145 -150h482l-88 -189h-463q-4 -23 -8 -45t-9 -47l-6 -43 q-2 -10 -3 -20.5t-1 -20.5h418l-84 -184h-328q16 -100 72.5 -156.5t161.5 -56.5q86 0 148.5 32.5t113.5 85.5l139 -206q-39 -41 -91 -74t-112.5 -55.5t-128 -36t-135.5 -13.5q-229 0 -351 122t-136 358h-166z" />
<glyph unicode="&#x2122;" horiz-adv-x="2048" d="M258 1253l27 197h708l-26 -197h-244l-92 -647h-221l92 647h-244zM1055 606l119 844h296l123 -549l279 549h297l-119 -844h-221l78 549h-4l-279 -549h-143l-123 549h-4l-78 -549h-221z" />
<glyph unicode="&#x2202;" horiz-adv-x="1241" d="M143 477q18 123 68.5 223.5t122.5 171t162 108.5t188 38q68 0 118 -19.5t87 -46t59.5 -55.5t32.5 -49h2q4 12 6 33.5t4 33.5q14 96 1 185.5t-51 157t-99.5 107.5t-143.5 40q-100 0 -175.5 -34t-123.5 -64l-51 202q27 18 67 40t92 40.5t117.5 30.5t143.5 12 q121 0 223.5 -51t170 -150.5t94 -248t-0.5 -342.5q-27 -190 -91 -348t-158.5 -270.5t-216 -175t-265.5 -62.5q-117 0 -194.5 46t-123.5 118.5t-61.5 159.5t-3.5 169zM421 370q7 -46 28.5 -81t55.5 -55.5t81 -20.5h2q57 0 110.5 38t97.5 96.5t76.5 131t51.5 144.5 q-2 25 -17.5 54.5t-42 57t-64.5 46t-87 18.5q-55 0 -103.5 -27t-87.5 -73t-65.5 -105t-34.5 -125q-8 -53 -1 -99z" />
<glyph unicode="&#x2206;" horiz-adv-x="1419" d="M55 0l21 160l678 1317h338l292 -1315l-22 -162h-1307zM379 223h706l-145 600q-6 39 -16.5 89.5t-20.5 100.5t-18 96t-13 79h-6q-10 -27 -28.5 -67t-41 -86t-45 -93t-40.5 -88z" />
<glyph unicode="&#x220f;" horiz-adv-x="1554" d="M215 1194l37 250h1454l-37 -250h-221l-195 -1393h-276l194 1393h-458l-195 -1393h-276l194 1393h-221z" />
<glyph unicode="&#x2211;" horiz-adv-x="1204" d="M47 -25l516 648l-495 628v193h1062v-236h-684v-8l433 -534l-478 -605v-6h764v-254h-1118v174z" />
<glyph unicode="&#x221a;" horiz-adv-x="1277" d="M66 698l370 152l223 -660q10 -47 21.5 -94t21.5 -84l3 -2l15 87.5t19 105.5l365 1530h196l-485 -2024h-223l-322 901l-157 -63z" />
<glyph unicode="&#x221e;" horiz-adv-x="1644" d="M100 586q0 80 27 146.5t74 114.5t111.5 74.5t140.5 26.5q119 0 208 -63.5t170 -169.5q33 37 71 78t84 75.5t102.5 57t125.5 22.5q70 0 129.5 -24.5t103.5 -70.5t69.5 -110.5t25.5 -144.5v-2q0 -86 -28.5 -154.5t-75.5 -117t-108.5 -73t-127.5 -24.5q-90 0 -181 50.5 t-198 189.5q-41 -51 -83 -95t-89 -76t-100 -50.5t-117 -18.5q-66 0 -126 26t-106 74t-74 113.5t-28 145.5zM254 584q0 -86 56.5 -145.5t142.5 -59.5h4q43 0 82 17.5t72.5 46t66.5 64.5t63 71q-33 43 -63.5 83.5t-65 71.5t-74.5 49.5t-92 18.5q-92 0 -142 -61.5t-50 -155.5z M909 592q47 -59 85 -100t72 -66t67.5 -36t72.5 -11q43 0 78 19.5t57.5 49t35 65.5t12.5 71q0 98 -52.5 157.5t-138.5 59.5h-2q-49 0 -90 -21.5t-77 -53.5t-65.5 -68.5t-54.5 -65.5z" />
<glyph unicode="&#x222b;" horiz-adv-x="839" d="M39 -326l35 195q16 -6 39.5 -14.5t52.5 -8.5q27 0 52.5 9.5t41.5 31.5q29 39 44 110t15 210q0 141 -5 268t-11 249t-11 244t-5 255q0 182 29.5 289.5t99.5 179.5q47 51 114.5 73.5t137.5 22.5q41 0 76.5 -8t54.5 -17l-29 -188q-16 8 -35.5 13t-42.5 5q-31 0 -58.5 -12 t-47.5 -41q-35 -43 -46.5 -129t-11.5 -215q0 -127 5.5 -244.5t11.5 -236.5t11 -243t5 -265q0 -147 -21.5 -248.5t-56.5 -163.5q-43 -86 -119.5 -120.5t-156.5 -34.5q-51 0 -97.5 11t-70.5 23z" />
<glyph unicode="&#x2248;" horiz-adv-x="1363" d="M199 330q35 55 80 103t95 83t102 55.5t104 20.5q63 0 108 -22.5t84 -48t80 -48t96 -22.5q37 0 83 44t106 126l139 -154q-78 -115 -171 -191.5t-192 -76.5q-57 0 -102 22.5t-87 50t-88 50t-104 22.5q-41 0 -92 -52t-102 -122zM256 741q35 53 79 100.5t93 82t102.5 54 t106.5 19.5q51 0 99 -22.5t93 -48t89.5 -48t89.5 -22.5q37 0 85 47t101 125l137 -156q-78 -123 -168 -189.5t-188 -66.5q-51 0 -98.5 23t-93.5 49.5t-93 49t-98 22.5q-18 0 -42 -15.5t-49.5 -40t-52 -55.5t-51.5 -61z" />
<glyph unicode="&#x2260;" horiz-adv-x="1363" d="M162 295l35 258h405l78 135h-463l35 258h571l138 238l204 -88l-88 -150h297l-35 -258h-409l-80 -135h469l-35 -258h-582l-141 -244l-199 78l95 166h-295z" />
<glyph unicode="&#x2264;" horiz-adv-x="1363" d="M127 -31l37 252h1003l-37 -252h-1003zM229 641l33 231l1043 396l-39 -287l-699 -221l635 -223l-39 -283z" />
<glyph unicode="&#x2265;" horiz-adv-x="1363" d="M127 -31l37 252h1003l-37 -252h-1003zM176 254l39 283l700 223l-636 221l38 287l932 -396l-32 -231z" />
<glyph unicode="&#x25ca;" horiz-adv-x="1275" d="M104 721l426 825h224l417 -825l-428 -825h-221zM350 727l246 -500q12 -29 22.5 -60.5t14.5 -51.5h8q6 23 17.5 57.5t19.5 50.5l248 492l-244 491q-12 29 -23.5 60.5t-17.5 58.5h-6q-14 -57 -41 -119z" />
<glyph unicode="&#x25fc;" horiz-adv-x="993" d="M0 0v993h993v-993h-993z" />
<glyph unicode="&#xf8ff;" horiz-adv-x="1048" d="M0 0v1470h1049v-1470h-1049zM102 102h844v1264h-844v-1264zM254 967q14 147 90 213.5t186 66.5q111 0 182.5 -72.5t71.5 -195.5q0 -66 -25.5 -120t-103.5 -126q-76 -68 -88 -106q-12 -41 -12 -148h-94l-4 35q0 115 26 166q14 27 37 56.5t58 64.5q66 61 84 97t18 73 q0 74 -46 124t-110 50q-63 0 -109 -45t-59 -150zM455 240v137h114v-137h-114z" />
<glyph unicode="&#xfb01;" horiz-adv-x="1290" d="M117 750l35 245h202l25 176q12 82 35.5 155t73 128t130 87t205.5 32q47 0 92.5 -4t85.5 -15l-51 -260q-25 10 -46 15.5t-50 5.5q-74 0 -115 -32t-55 -130l-22 -158h227l-35 -245h-227l-105 -750h-307l104 750h-202zM870 0l140 995h307l-139 -995h-308zM1028 1309 q6 37 24.5 69.5t46 56t62.5 38t72 14.5q74 0 118 -52.5t33 -125.5q-4 -37 -22.5 -70t-46 -56.5t-62 -38t-71.5 -14.5t-68 14.5t-51.5 38t-29.5 56.5t-5 70z" />
<glyph unicode="&#xfb02;" horiz-adv-x="1290" d="M117 750l35 245h202l25 176q12 82 35.5 155t73 128t130 87t205.5 32q47 0 92.5 -4t85.5 -15l-51 -260q-25 10 -46 15.5t-50 5.5q-74 0 -115 -32t-55 -130l-22 -158h227l-35 -245h-227l-105 -750h-307l104 750h-202zM870 0l217 1548h308l-217 -1548h-308z" />
</font>
</defs>
</svg>
